&title=ENERGY SYNERGY MATRIX
&wholebpm=160
&artist=Tanchiky
&des=サファ太
&shortid=734
&genre=ゲームバラエティ
&cabinet=SD
&version=maimai MiLK PLUS
&chartconverter=Neskol
&lv_2=6
&des_2=-
&lv_3=7+
&des_3=-
&lv_4=13
&des_4=はっぴー
&lv_5=13+
&des_5=サファ太
&des_6=
&inote_2=
(160){1},
{1},
{2}1,1,
{2}2,2,
{2}3,3,
{2}4,4/5,
{2}6,5,
{2}4,3,
{2}2,1,
{4}1/8,,1,8,
{2}1,8,
{2}7,7/8,
{2}6,6,
{4}4/5,,4,5,
{2}4,4,
{2}3,3,
{2}2,2,
{2}1/8,1/8,
{4}2,2,2,,
{4}3,3,3,,
{4}4,4,4,,
{4}5,4,5,,
{4}6,6,6,,
{4}7,7,7,,
{1}8h[2:1],
{4}1,8,1,,
{1}7h[2:1],
{4}6,6,6,,
{1}5h[2:1],
{4}4,4,4,,
{1}3h[2:1],
{4}2,2,2,,
{1}1h[2:1],
{1}1h[2:1]/8h[2:1],
{2}7,7,
{4}6,5,6,,
{2}5,5,
{1}4h[2:1]/5h[2:1],
{2}3,3,
{4}2,1,2,,
{2}1,1,
{1}1h[2:1]/8h[2:1],
{1}1-4[4:3],
{1},
{1}8-5[4:3],
{1},
{1}1-6[4:3],
{1},
{1}8-3[4:3],
{1},
{1}2h[2:3],
{1}1h[2:1],
{1}3h[2:3],
{1}4h[2:1],
{1}6h[2:3],
{1}5h[2:1],
{4}7,7,8,8,
{4}1,1,1,,
{4}8b,8,8,,
{4}7/8,7/8,7/8,,
{4}6,6,6,,
{4}5/6,5/6,5/6,,
{4}4,4,4,,
{4}4/5,4/5,4/5,,
{4}3,3,3,,
{4}1/2,1/2,1/2,,
{4}1b,1,2,2,
{4}3/4,3/4,3/4,,
{4}5,5,6,6,
{4}7/8,7/8,7/8,,
{4}8,8,7,7,
{4}5/6,5/6,5/6,,
{4}4,4,3,3,
{4}1/2,1/2,1/2,,
{4}8,8,8,,
{4}1,1,1,,
{4}2,2,2,,
{4}3/4,,3/4,3/4,
{2}3/4,5/6,
{4}5/6,5/6,5/6,,
{4}7/8,7/8,7/8,,
{2}1/2,1b/2b,
{1}1h[8:7]/8h[8:7],
{1},
{1},
{1},
E
&inote_3=
(160){1},
{1},
{1}6>3[2:1],
{1}2q7[2:1],
{1}8z4[2:1],
{4}3,3,2/4,,
{4}6,6,5,5,
{4}4,3,2/5,,
{4}3,3,4,4,
{4}4h[4:1]/5h[4:1],,3b/6b,1b/8b,
{4}2b/7b,8,7,6,
{4}5,5,4/6,,
{4}1,2,3,4,
{4}2b/5b,,4b/5b,3b/6b,
{4}1b/8b,2,3,4,
{4}5/6,5/6,4/7,,
{4}1/8,7,6,5,
{8}4b/7b,,,,4/5,4/5,4b/5b,,
{4}7h[4:1],8,1h[4:1],8,
{4}7h[4:1],8,1/6,,
{4}3h[4:1],4,5h[4:1],4,
{4}3h[4:1],4,2/5,,
{4}7h[4:1],8,2h[4:1],1,
{4}8h[4:1],1,2/7,3/6<3[4:3],
{1},
{4}4/5,3/6,2/7,1b/8b,
{4}7,7,7/8,,
{4}2,2,1/2,,
{4}8,8,1,1,
{4}1/8,1/8,2/7,,
{4}3,3,2/4,,
{4}6,6,5/7,,
{4}3,4,6,5,
{1}3p5[2:1],
{4}6,5/6,3,3/4,
{4}6,5/6,4/7,,
{4}3,2/4,6,5/7,
{1}1b>4[8:3]/8b<5[8:3],
{4}3,3/4,6,5/6,
{4}3,3/4,2/5,,
{4}6,5/7,3,2/4,
{1}3bqq4[8:5]/6b,
{2}6h[2:1],5,
{2}3h[2:1],4,
{2}6h[2:1],5,
{1}4h[2:1]/5h[2:1],
{2}3,2/4,
{2}6,5/7,
{2}3,2/4,
{4}4h[2:1]/5h[2:1],,,3/6,
{4}2,3,4,5/6,
{4}7,6,4/5,,
{4}7,6,5,3/4,
{4}2,3,4/5,,
{4}6,7,8,1/2,
{4}3,2,1/8,,
{4}3,2,1,7/8,
{4}5/6,3/4,4/5,2b/7b,
{4}4/5,7,4/5,2,
{4}4/5,7,4/5,2,
{4}5/6,8,3/4,1,
{4}4/5,2/7,1/8,,
{4}4b/5b,2,4/5,7,
{4}3/4,1,5/6,8,
{2}2h[4:1]/4h[4:1],5h[4:1]/7h[4:1],
{4}1/8,2/7,3b/6b,,
{4}4b/5b,7/8,4/5,1/2,
{4}4/5,7/8,4/5,1/2,
{4}3b/4b,1/8,5/6,1/8,
{4}3/4,2/5,1b/6b,,
{4}4b/5b,7/8,4/5,1/2,
{4}3/4,7/8,5/6,1/2,
{4}3/8,4/7,5/6,3/4,
{4}2/5,1/6,7/8,1b,
{4}2,3,4/5,3/6,
{4}7,8,1/6,,
{4}7,6,4/5,3/6,
{4}2b/7b,,5b/6b,3b/4b,
{4}2b/5b,3/4,6,5/7,
{4}3,2/4,1/5,,
{4}6,7/8,3,1/2,
{8}3b/8b,,,,4/5,4/5,4b/5b,,
{4}3b/6b,2/7,1b-4[4:1]/8b-5[4:1],,
{1},
{1},
{1},
E
&inote_4=
(160){1},
{1},
{8}6h[1:1],,,,,,,5,
{8}5h[1:1],,,,,,4,4,
{8}4h[2:1],,,3,3h[2:1],,,,
{4}6v4[4:1],,,3/5,
{2}6h[4:1],5h[4:1],
{2}4h[4:1],3h[4:1],
{2}2h[4:1],1h[4:1],
{8}8,8,1-5[8:1],,8-4[8:1],,1,,
{8}2b/7b,,6,6,4,4,6,6,
{8}1,1,6,6,4,3/5,3/5,,
{8}2,2,5,5,3,2/4,2/4,,
{4}2/7,1/8-4[8:1],1-5[8:1],8,
{8}2b/7b,,3,3,5,5,3,3,
{8}8,8,3,3,5,4/6,4/6,,
{8}7,7,4,4,6,5/7,5/7,,
{8}4/7,,,,1b/8b,2b/7b,3b/6b,,
{8}2/4,5,6-1[8:1],6,2-5[8:1],2,8,,
{8}5/7,4,3-8[8:1],3,7-4[8:1],7,1,,
{8}2/4,5,6-1[8:1],6,2-5[8:1],2,8,,
{8}5/7,4,3>6[4:1]/5h[2:1],,,,,,
{8}5/7,4,3-8[8:1],3,7-4[8:1],7,1,,
{8}2/4,5,6-1[8:1],6,2-5[8:1],2,8,,
{1}5/7pp2[2:1],
{4}5b/6b,1b/8b,3b/4b,2b/7b,
{2}4h[4:1]/8<6[8:1],3h[4:1]/7<5[8:1],
{2}2h[4:1]/6>4[8:1],1h[4:1]/5>3[8:1],
{8}1/5,,3/7,3/7,3/7,,8,1,
{16}1,,,2/5,,,8,,,4/7,,,1/8,,,,
{2}1>3[8:1]/5h[4:1],2>4[8:1]/6h[4:1],
{2}3<5[8:1]/7h[4:1],4<6[8:1]/8h[4:1],
{8}4/8,,2/6,2/6,2/6,,5,4,
{6}3/6,,,1b/8b,4b/5b,3b/6b,
{8}2b/7b,,4,4,3/6,3/6,5,5,
{8}3/7,3/7,4,4,2/6,2/6,1,1,
{8}3/7,3/7,8,8,1/7,2/6,3/5,,
{16}2h[4:1]/6h[4:1],,,,,,,3b/7b,,,2b/6b,,2b/6b,,1b/8b,,
{8}2b/7b,,5,5,3/6,3/6,4,4,
{8}2/6,2/6,5,5,3/7,3/7,8,8,
{8}2/6,2/6,1,1,2/8,3/7,4/6,,
{16}3b/7b,,,3b/7b,,,2b/6b,,,2b/6b,,,1b/5b,,,,
{1}4/5<8[2:1],
{1}1>4[2:1]/8,
{1}4/5<8[2:1],
{4}1/8,2,3,4,
{1}4>1[2:1]/5,
{1}1/8<5[2:1],
{1}4>1[2:1]/5,
{1}1/8<5[2:1],
{8}3,3,4,3,5,5,4h[4:1],5,
{8}6,6,5,6,4,4,5h[4:1],4,
{8}3,3,4,3,5,5,4h[4:1],5,
{8}6,6,5,6,5,5,4/5,,
{8}3,3,4,2,5,5,4,7,
{8}6,6,5,7,4,4,4/5,,
{2}4-8[8:1]/5-7[8:1],4-2[8:1]/5-1[8:1],
{4}6/7,2/3,1-4[8:1]/8-5[8:1],,
{8}2/7,4,6,7/8,1/6,7/8,1/6,7/8,
{8}6,5,3,1/2,3/8,1/2,3/8,1/2,
{8}3,4,6,7/8,1/6,7/8,1/6,7/8,
{8}5,5,4,3/5,1b/8b,2b/7b,3b/6b,,
{8}3,4,5,3/7,2/8,1/7,2/8,1/7,
{8}6,5,4,2/6,1/7,2/8,1/7,2/8,
{2}7-5[8:1]/8-4[8:1],1-5[8:1]/2-4[8:1],
{8}1-4[8:1]/8-5[8:1],,,,1/8,2/7,3b/6b,,
{8}4,5,6,4/7,2/8,1/6,2/8,1/6,
{8}5,4,3,2/5,1/7,3/8,1/7,3/8,
{8}4,5,6,4/7,2/8,1/6,2/8,1/6,
{8}5,4,3,2,1b/8b,1b/8b,2b/7b,,
{8}4,5,6,4/7,1/6,3/8,1/6,3/8,
{8}5,4,3,2/5,3/8,1/6,3/8,1/6,
{4}3h[8:1]/8h[8:1],4h[8:1]/7h[8:1],5h[8:1]/6h[8:1],3h[8:1]/4h[8:1],
{4}5b/7b,2b/4b,1b/8b,2b/7b,
{8}8,7,6h[4:1],,5,4/5,3/4,,
{8}1,2,3h[4:1],,4,4/5,5/6,,
{8}8,7,6h[4:1],,5,4/5,3/4,,
{4}2b/5b,,1b/8b,4b/5b,
{8}2b/7b,,4/5,3,2,1,8,4/7,
{8}3/6,,4/5,6,7,8,1,2/5,
{8}3/6,,4/5,3,2,1,8,4/7,
{8}3b-1[8:1]/6b-8[8:1],,,,4b/5b,3b/6b,2b/7b,,
{16}2b-5[8:1]/7b-4[8:1],,,,,,,,3b/5b,,,4b/6b,,,2b/7b,,
{1},
{1},
{1},
E
&inote_5=
(160){1},
{1},
{8}2<3[4:1]/6-2[4:1],,,,,,,1/8,
{8}1s5[4:1]/8,,,,,,4/6,4/6,
{4}4V25[4:1]/6V85[4:1],,,3/6,
{16}2h[16:3],,,3h[16:3],,,4,,7h[16:3],,,6h[16:3],,,5,,
{8}4,3,1/2,3,4/5,6,7/8,6,
{8}3/4,2,1/8,3,5/6,7,1/8,6,
{16}4,5,4,5,3,6,3,6,2,7,2,7,1,8,1,8,
{16}1,1,1,1,1<6[8:1]*>4[8:1],,,,1bw5[8:1],,,,1b,,,,
{16}3b/7b,,,,6V48[4:1],5,6,5,,,,,1,,1,,
{16}2/6,,5,,3V51[4:1],4,3,4,,,,,8,,8,,
{16}3/7,,6,,4V26[4:1],5,4,5,,,,,8,,1,,
{16}2b/7b,,,,1-5[8:1],8,1,8,1b<6[8:1]*>4[8:1],,,,1b,,,,
{16}3b/7b,,,,2V41[16:3],1,2,1V73[16:3],,,,,,,,,
{16}4/5,,3/6,,7V58[16:3],8,7,8V26[16:3],,,,,,,,,
{16}4/5,,2/7,,1V38[16:3],8,1,8V62[16:3],,,,,,,,,
{16}1b/6b,,,,1,8,1,8,1b-5[8:1]/8b-4[8:1],,2b/7b,,1b/8b,,,,
{16}3/6,,7,8,7,,1/6,,3,4,,6,5,,4/7,,
{16}2h[8:1],,4,3,5,4,,5/7,,5/7,,1/8,1/8,,2/7,,
{16}3/6,,2,1,2,,3/8,,6,5,,3,4,,2/5,,
{16}7h[8:1],,5,6,4,5,,2/4,,2/4,,7,6b/8b,,,,
{16}2/7,,3,4,3,,2/5,,7,8,,2,1,,3/8,,
{16}6h[8:1],,8,7,1,8,,2/4,,2/4,,5/6,5/6,,4/5,,
{48}3/6,,,,,,2/7,,,,,,1/8,,,,1/8,,,,1/8,,,,1/8,,,2,,,3,,,4,,,5/6-8[8:1],,,,,,,,,,,,
{4}1-5[8:1]/6,1/4-2[8:1],4,8b,
{8}3h[16:3]/4h[16:3],,,5/7,5h[16:3]/7h[16:3],,,2/4,
{8}2h[16:3]/4h[16:3],,,5/6,5h[16:3]/6h[16:3],,,7/8,
{8}7h[16:3]/8h[16:3],,,1/2,1h[16:3]/2h[16:3],,,8h[16:11],
{16}6b,,,5b,,,4b,,,3b,,,2/7,,1/6,,
{8}5h[16:3]/8h[16:3],,,2/7,2h[16:3]/7h[16:3],,,1/4,
{8}1h[16:3]/4h[16:3],,,2/7,2h[16:3]/7h[16:3],,,6/8,
{8}6h[16:3]/8h[16:3],,,1/3,1h[16:3]/3h[16:3],,,5/6,
{32}4/5,,,,,,3<6[16:3]/6,,,,,,8,,,,1b,,,,,,8,,,,,1/7,,,,,
{16}2-5[8:1],,1,,2/8,,7,,6,5,6,,4/5,,3/6,,
{16}7-4[8:1],,8,,1/7,,2,,3,4,3,,2/5,,,,
{16}7,8,7,,2,1,2,,7,8,6,,1-5[8:1],8,2,7,
{32}1b,,,,,,,,3/6,,,,,,5b/7b,,,,,1b/2b,,,,,4b/5b,,,,3b/6b,,,,
{16}2b>5[8:1]/7b,,1,,2/8,,7,,6,5,6,,4/5,,3/6,,
{16}7<4[8:1],,8,,1/7,,2,,3,4,3,,1/8,,,,
{16}6,5,7,,3,4,2,,6,5,8,,3,4,1,,
{16}7b-4[16:1],,,1b-5[16:1]/7b,,,1b/8b-4[16:1],,,4b/8b,,,2b/6b,,,,
{1}3q5[2:1]/7h[4:3],
{1}2h[4:3]/6pp1[2:1],
{1}1pp6[2:1]/7h[4:3],
{1}2h[4:3]/6qq3[2:1],
{1}3qq8[2:1]/5h[4:3],
{1}3h[4:3]/7pp4[2:1],
{1}3pp8[2:1]/6h[4:3],
{2}2h[4:1]/7h[4:1],1/8z4[16:3],
{16}3,,3,,3h[16:5],,,4,,4,,3/4,3/4,,,,
{16}6,,6,,6h[16:5],,,5,,5,,5/6,5/6,,,,
{16}2,,2,,2h[16:5],,,1,,1,,1/2,1/2,,,,
{16}8,,8,,8h[16:5],,,1,,1,,1/8,2/7,,,,
{8}1/8,1,1/2,2,2/3,3,3/4,4,
{8}4/5,5,5/6,6,6/7,7,7/8,8,
{32}1,,8,,1,,8,,2,,7,,2,,7,,3,4,5,6,7,8,1,2,3,4,5,6,7,8,1,2,
{4}3-8[8:1]/7-4[8:1],3/7,1w5[8:1]/5,,
{16}3b/7b,,5/6,,2,1/3,,7/8,,1/6,,3,2/4,,1/8,,
{16}7,,5/6,,2/4,2/4,,5/6,,4/7,,3,2/4,,1/8,,
{16}2/7,,3/4,,7,6/8,,1/2,,3/8,,6,5/7,,1/8,,
{16}7,,5/6,,2/4,2/4,,5/6,,7/8,,1/2,3b/8b,,,,
{16}2/6,,7/8,,3,2/4,,5/6,,7/8,,2,1/3,,4/5,,
{16}6,,7/8,,1/3,1/3,,4/5,,7/8,,1/6,1/6,,2/5,,
{16}3b>8[8:1],,,4,3,,7,,6b<1[8:1],,,5,6,,2,,
{16}3b>8[8:1],,,4,3,,7,,7b/8b,,1b/6b,,2b/5b,,3b/4b,,
{16}5/6,,8,,2/4,2/4,,5/7,,1/8,,2,1-4[8:1]/3,,2,,
{8}1-6[8:1]/7,8,1-5[8:1]/3,2,1/7,8,1/5,2,
{16}3/4,,1,,5/7,5/7,,3/4,,1/2,,7,6/8-5[8:1],,7,,
{8}2/8-3[8:1],1,6/8-4[8:1],7,2/8,1,7b/8b,,
{16}5/6,,3/8,,2/4,2/4,,5/7,,6/8,,2,1>4[8:1]/3,,2,,
{8}1<6[8:1]/6,8,1-5[8:1]/4,2,1/6,8,1/5,3,
{4}2h[8:1]/4h[8:1],4h[8:1]/5h[8:1],5h[8:1]/7h[8:1],8-5[8:1]*-6[8:1],
{4}8-2[8:1]*-3[8:1],8w4[8:1],8,1b,
{16}2/8,,3/7,,6V84[16:3],4,6,4V28[16:3],,,,,,,,,
{16}1/7,,2/6,,3V15[16:3],5,3,5V71[16:3],,,,,,,,,
{16}2/7,,3/6,,5V73[16:3],3,5,3V17[16:3],,,,,,,,,
{16}1b/6b,,,,8-4[8:1],1,8,1,8b<5[8:1]*>3[8:1],,,,8b,,,,
{16}2b/6b,,,,8V62[16:3],2,8,2V47[16:3],,,,,,,,,
{16}1/6,,2,,3V15[16:3],5,3,5V37[16:3],,,,,,,,,
{32}8,,1,,8,,1,,7,,2,,7,,2,,6,5,4,3,2,1,8,7,6,5,4,3,2,1,8,7,
{8}2b/6b,,,,1b-5[8:1]/8b-4[8:1],2b/7b,1b/8b,,
{16}3b/6b,,,,1-4[16:1]/8,,,,1-6[16:1],,,1w5[16:1],,,1,,
{1},
{1},
{1},
E
