&title=CYBER Sparks
&wholebpm=192
&artist=Tatsh
&des=緑風 犬三郎
&shortid=756
&genre=東方Project
&cabinet=SD
&version=maimai MiLK PLUS
&chartconverter=Neskol
&lv_2=4
&des_2=-
&lv_3=7+
&des_3=-
&lv_4=11+
&des_4=はっぴー
&lv_5=12
&des_5=緑風 犬三郎
&lv_6=13+
&des_6=玉子豆腐
&inote_2=
(192){1},
{1},
{1},
{1},
{2}1,1,
{2}2,2,
{2}3,3,
{2}4,4,
{2}5,5,
{2}6,6,
{2}7,7,
{2}8,8,
{1}8h[1:1],
{1},
{1}1h[1:1],
{1},
{2}8,8,
{2}7,7,
{2}6,6,
{2}5,4/5,
{2}4,4,
{2}3,3,
{2}2,2,
{2}1,1/8,
{1}8-5[4:3],
{1},
{1}1-4[4:3],
{1},
{1}7-4[4:3],
{1},
{1}2-5[4:3],
{1},
{2}8,8,
{1}8,
{2}7,7,
{1}7/8,
{2}6,6,
{1}6,
{4}5,5,5,,
{4}4,4,4,,
{1}4h[1:1],
{1},
{1}3h[1:1],
{1},
{1}2h[1:1],
{1},
{1}1h[1:1],
{1},
{1}1b/8b,
{4}1,1,1,,
{4}1,1,1,,
{4}2,2,2,,
{4}2,2,2,,
{4}3,3,3,,
{4}3,3,3,,
{4}4,4,4/5,,
{4}5,5,4/5,,
{1}5h[1:1],
{1},
{1}6h[1:1],
{1},
{1}7h[1:1],
{1},
{1}8h[1:1],
{1},
{4}8,8,8,,
{1}8h[2:1],
{4}7,7,7,,
{1}7h[2:1],
{4}6,6,6,,
{1}6h[2:1],
{4}5,5,5,,
{1}4h[2:1]/5h[2:1],
{4}3,3,3,,
{4}3,3,3,,
{4}2,2,2,,
{4}2,2,2,,
{1}1-5[4:3],
{1},
{2}6,6,
{2}5,5,
{2}4,4,
{2}3,3,
{2}4/5,4/5,
{2}5/6,5/6,
{2}4/5,4/5,
{2}3/4,3/4,
{2}2,2,
{2}1,1,
{2}8,8,
{2}7,7,
{2}7/8,7/8,
{2}1/2,1/2,
{1}8-5[4:3],
{1},
{1}1-4[4:3],
{1},
{1}7-4[4:3],
{1},
{1}2-5[4:3],
{1},
{1}8h[2:1],
{2}8,8,
{1}1h[2:1],
{2}1,1,
{1},
{1},
{1},
E
&inote_3=
(192){1},
{1},
{1},
{1},
{4}3,3,4,,
{4}6,6,5,,
{4}3,3,4,,
{4}6,6,5,,
{2}3h[2:1],4,
{2}6h[2:1],5,
{2}3h[2:1],4,
{2}6h[2:1],5,
{1}5-8[2:1],
{1}4-1[2:1],
{1}8-5[2:1],
{1}1-4[2:1],
{4}5,5,6,,
{4}4,4,3,,
{4}2,1,7,8,
{1}8-5[2:1],
{4}4,4,3,,
{4}5,5,6,,
{4}3,4,6,5,
{1}4-1[2:1],
{1}8h[1:1],
{1}7h[1:1],
{1}6h[1:1],
{1}5h[1:1],
{1}4h[1:1],
{1}3h[1:1],
{1}2h[1:1],
{2}1h[2:1],8,
{2}7,7,
{4}8,8,8,,
{2}2,2,
{4}1,1,1,,
{2}1/8,1/8,
{4}8,1,8,,
{2}2/7,2/7,
{4}1,8,1,,
{1}3h[1:1],
{1}4h[1:1],
{1}5h[1:1],
{1}6,
{1}7h[1:1],
{1}8h[1:1],
{1}1h[1:1],
{1}2,
{1}1-4[2:1]/8-5[2:1],
{4}3,4,3/4,3/4,
{4}3,4,2/5,,
{4}6,5,5/6,5/6,
{4}6,5,4/7,,
{4}7,8,7/8,7/8,
{4}7,8,1/6,,
{4}2,1,1/2,1/2,
{4}2,1,3/8,,
{4}2h[2:1],1,1,,
{4}7h[2:1],8,8,,
{4}2,1,7,8,
{4}1/8,1/8,2/7,,
{4}3h[2:1],4,4,,
{4}6h[2:1],5,5,,
{4}3,4,6,5,
{1}4-1[2:1]/5-8[2:1],
{4}2,1,7,8,
{4}1/8,1/8,1h[4:1]/8h[4:1],,
{4}7,8,2,1,
{4}1/8,1/8,2/7,,
{4}3,4,6,5,
{4}4/5,4/5,4h[4:1]/5h[4:1],,
{4}6,5,3,4,
{4}4/5,4/5,3/6,,
{4}2,1,8,7,
{4}7/8,7/8,1/6,,
{4}7,8,1,2,
{4}1/2,1/2,3/8,,
{2}7/8,1/2,
{4}1/8,1/8,2b/7b,,
{4}1,2,3,4,
{4}5,6,7,8b,
{4}8,7,6,5,
{4}4,3,2,1b,
{4}2,3,4,4/5,
{4}6,7,8,1/8,
{1}1h[2:1]/2h[2:1],
{1}7h[2:1]/8h[2:1],
{4}5,6,7,8,
{4}1,2,3,4b,
{4}4,3,2,1,
{4}8,7,6,5b,
{4}3/4,3/4,5/6,5/6,
{4}4/5,4/5,3/6,,
{4}3,3,4,,
{4}6,6,5,,
{4}3,3,4,,
{4}6,6,5,,
{4}7,7,8,,
{4}2,2,1,,
{4}7,8,1,2,
{4}1/8,1/8,2b/7b,,
{1},
{1},
{1},
E
&inote_4=
(192){1},
{1},
{1},
{1},
{8}4,4,5,5,3,3,6,6,
{8}4,5,3,6,4,5,3,6,
{8}4,4,5,5,2,2,7,7,
{8}4,5,2,7,4,5,3/6,,
{8}1h[1:1]/8,,8,,4,4,4,,
{8}8h[1:1],,1,,5,5,5,,
{8}2h[1:1],,1,,4,4,4,,
{8}7h[1:1],,8,,5,5,5,,
{8}4h[1:1],,1,,6,6,6,,
{8}5h[1:1],,8,,3,3,3,,
{8}4h[4:3],,8,,6,6,6<3[4:3],,
{1},
{4}1/2h[4:1],4,3/4,2/5,
{4}7h[4:1]/8,5,5/6,4/7,
{4}1/2h[4:1],4,3/4,2/5,
{8}6,6,5/7,,3,3,2/4,,
{4}7h[4:1]/8,5,5/6,4/7,
{4}1/2h[4:1],4,3/4,2/5,
{4}7h[4:1]/8,5,5/6,4/7,
{4}4/5,1/8,2/7,,
{1}1b>7[4:5]/8h[2:3],
{1},
{1}1h[2:3]/8<2[4:5],
{1},
{1}4>6[4:5]/5h[2:3],
{1},
{1}4h[2:3]/5<3[4:5],
{1},
{2}4/5h[2:1],4h[2:1],
{4}5,6,4,3,
{2}3h[2:1]/4,4h[2:1],
{4}3,2,5,6,
{2}5/6h[2:1],5h[2:1],
{4}6,7,4,3,
{2}2h[2:1],4h[2:1],
{4}5,5,3/6,4,
{4}4-1[4:1],,,8,
{4}8-5[4:1],,,3,
{4}3h[2:1],,4,5,
{4}6h[2:1],,5,4,
{4}5-8[4:1],,,1,
{4}1-4[4:1],,,6,
{4}6h[2:1],,5,4,
{1}3>6[2:1],
{4}1h[2:1]/8h[2:1],,,2b/7b,
{8}1/2,3,4/8,,7/8,6,1/5,,
{8}2,2,4,4,3,4,2/5,,
{8}7/8,6,1/5,,1/2,3,4/8,,
{8}7,7,5,5,6,5,4/7,,
{8}1/2,3,4/8,,7/8,6,1/5,,
{8}2,2,4,4,3,4,2/5,,
{4}5/6,7/8,1/2,3/4,
{4}1/8,4/5,2/7,5>8[2:1]/6h[4:3],
{4},,,3h[4:3]/4<1[2:1],
{4},,,4/5,
{2}2-6[4:1],7-3[4:1],
{4}1h[4:1],8,2/7,3h[4:3]/4<1[2:1],
{4},,,5>8[2:1]/6h[4:3],
{4},,,4/5,
{2}7-3[4:1],2-6[4:1],
{8}8b,,,,4/5,4/5,4/5,,
{8}6,6,5/7,,1/8,2,1/3,,
{4}3/4,5/6,4/7,2/5,
{8}3,3,2/4,,1/8,7,6/8,,
{4}5/6,3/4,2/5,4/7,
{8}6,6,5/7,,1/8,2,1/3,,
{4}3/4,5/6,4/7,2/5,
{8}3,3,2/4,,1/8,7,6/8,,
{4}5/6,3/4,2/5,4/7,
{8}2,2,1/3,,3/4,5,4/6h[4:1],,
{4}8h[4:1],1h[4:1],3h[4:1],6,
{8}7,7,6/8,,5/6,4,3h[4:1]/5,,
{4}1h[4:1],8h[4:1],6h[4:1],3,
{8}1h[2:1],,,,8,,2/7,2/7,
{8},4/5,4/5,,4/5,,4/5,,
{8}4,4,5,5,1,1,7,7,
{8}3,5,4,6,2,4,3/5,,
{8}5,5,4,4,8,8,2,2,
{8}6,4,5,3,7,5,4/6,,
{8}8,8,1,1,5,5,3,3,
{8}7,1,8,2,6,8,1/7,,
{8}1,1,8,8,4,4,6,6,
{8}2,8,1,7,3,1,2/8,,
{8}3,3,5,5,1,1,4,4,
{8}2,8,3,8,1,7,6/8,,
{8}6,6,4,4,8,8,5,5,
{8}7,1,6,1,8,2,1/3,,
{2}8<5[4:1],1>4[4:1],
{1}8<1[2:1],
{4}3h[4:3]/4,4,4,4,
{4}4/7h[4:3],5,6,8,
{4}5/6h[4:3],5,5,5,
{4}2h[4:3]/5,4,3,1,
{8}8,8,1,1,7,7,8,8,
{4}1/7,5/6,3/4,2/8,
{8}1,1,8,8,2,2,1,1,
{4}2/8,3/4,5/6,1/7,
{1}8<1[4:5],
{1},
{1}8<1[4:5],
{1},
{1},
{1},
E
&inote_5=
(192){1},
{1},
{1},
{1},
{8}3,5,4,6,3,5,4,6,
{8}2,5,3,6,4,7,5,5,
{8}6,4,5,3,6,4,5,3,
{8}7,4,6,3,5,2,4,4,
{8}2h[1:1],,4,4,4,,5,,
{8}7h[1:1],,5,5,5,,4,,
{8}2h[1:1],,4,4,4,,5,,
{8}7h[1:1],,5,5,5,,4,,
{8}3h[1:1],,4,4,4,,5,,
{8}6h[1:1],,5,5,5,,4,,
{8}3h[1:1],,4,4,4,,5,,
{1}6<3[2:1],
{8}2,2-5[8:1],,6-1[8:1],,2-5[8:1],,8,
{8}8,7-4[8:1],,3-8[8:1],,7-4[8:1],,1,
{8}1,2-5[8:1],,6-1[8:1],,2-5[8:1],,8,
{8}8,7-4[8:1],,3-8[8:1],,7-4[8:1],,1,
{8}1,2-5[8:1],,6-1[8:1],,2-6[8:1],,8,
{8}8,7-4[8:1],,3-8[8:1],,7-3[8:1],,1,
{8}1,2-5[8:1],,6-1[8:1],,2-6[8:1],,8,
{8}8,7-4[8:1],,3,3,,2/7,,
{1}1>8[4:13],
{1}1,
{1}2,
{1}3,
{1}8<1[4:13],
{1}8,
{1}7,
{1}6,
{4}2,3/5,7,4/6,
{4}2,1>4[4:1],5,5,
{4}7,4/6,2,3/5,
{4}7,8<5[4:1],4,4,
{4}2,3/5,7,4/6,
{4}2,1>4[4:1],5,5,
{4}7h[4:1],5h[4:1],4h[4:1],2,
{4}1/8,4/5,3/6,3p5[2:1]/5,
{4}4h[2:1],,,4/6q4[2:1],
{4}5h[2:1],,,4/6,
{2}3h[4:1]/5h[4:1],4h[4:1]/6h[4:1],
{4}3h[2:1]/5,,4,1/6p7[2:1],
{4}2h[2:1],,,3q2[2:1]/8,
{4}7h[2:1],,,3/5,
{2}4h[4:1]/6h[4:1],3h[4:1]/5h[4:1],
{2}4/6h[2:1],5,
{4}4h[8:3]/5h[8:3],,4/5,2b/7b,
{8}2-5[8:1]/8,7,6,,2-5[8:1]/8,7,6,,
{8}2-5[8:1]/8,7,6-1[8:1],,1,,2/7,,
{8}1/7-4[8:1],2,3,,1/7-4[8:1],2,3,,
{8}1/7-4[8:1],2,3-8[8:1],,8,,2/7,,
{8}2-5[8:1]/8,7,6,,2-5[8:1]/8,7,6,,
{8}2-5[8:1]/8,7,6-1[8:1],,1,,2/7,,
{4}3-6[8:1],7-2[8:1],4-1[8:1],8-5[8:1],
{4}3-6[8:1],7,1b/8b,4>6[2:1]/8,
{4}5h[2:1],,,1/5<3[2:1],
{4}4h[2:1],,,2-6[8:1]/6,
{4}8,3/7-3[8:1],1,2/6<3[2:1],
{4}4,,,1>7[2:1]/5,
{4}8h[2:1],,,4/8<2[2:1],
{4}1h[2:1],,,3-7[8:1]/7,
{4}5,2/6-2[8:1],4,3>8[4:1]/7<4[4:1],
{8},,,,1/8,2/7,3-6[8:1]/6,,
{8}8,8,7-4[8:1],,1,1,2,,
{4}3-8[8:1]/5,7-4[8:1],1-5[8:1],6-3[8:1],
{8}1,1,2-5[8:1],,8,8,7,,
{4}4/6-1[8:1],2-5[8:1],8-4[8:1],3-6[8:1],
{8}8,8,7-4[8:1],,1,1,2,,
{4}3-8[8:1]/5,7-4[8:1],1,3/6>3[8:1],
{8}2,2,1-4[8:1],,6,6,7,,
{4}4/8-5[8:1],2-7[8:1],5-8[8:1],3<6[8:1],
{8}7,7,8-5[8:1],,3,3,2,,
{4}1-4[8:1]/5,7-2[8:1],4-1[8:1],6>3[8:1],
{8}2,2,1-4[8:1],,6,6,7,,
{4}4/8-5[8:1],2-7[8:1],5-8[8:1],3<6[8:1],
{8}7,7,8-5[8:1],,3>6[4:3],,5,5,
{4},,,3/6,
{4}2-5[8:1]/5,7-4[8:1],3-8[8:1],6-1[8:1],
{8}2-5[8:1],,7-4[8:1],,3,3,2/4,,
{4}4/7-4[8:1],2-5[8:1],6-1[8:1],3-8[8:1],
{8}7-4[8:1],,2-5[8:1],,6,6,5/7,,
{4}2-8[8:1]/5,6-4[8:1],3-7[8:1],6-2[8:1],
{8}3-5[8:1],,7-1[8:1],,3,3,2/4,,
{4}4/7-1[8:1],3-5[8:1],6-2[8:1],3-7[8:1],
{8}6-4[8:1],,2-8[8:1],,6,6,5/7,,
{4}3-6[8:1]/6,8-5[8:1],4-1[8:1],7-2[8:1],
{8}3-6[8:1],,8-5[8:1],,3,3,2/4,,
{4}6-3[8:1],1-4[8:1],5-8[8:1],2-7[8:1],
{8}6-3[8:1],,1-4[8:1],,6,6,5/7,,
{2}2-5[8:1]/6-1[8:1],3-8[8:1]/7-4[8:1],
{16}1,8,1,8,1,8,1,8,1,,,,2/7,,,,
{4}6h[4:1],8h[4:1],1h[4:1],3-6[8:1],
{4}7-2[8:1],4-1[8:1],8-5[8:1],4,
{4}3h[4:1],1h[4:1],8h[4:1],6-3[8:1],
{4}2-7[8:1],5-8[8:1],1-4[8:1],5,
{8}6,6,8,8,1,1,3-6[8:1],,
{4}7-2[8:1],4-1[8:1],8-5[8:1],4,
{8}3,3,1,1,8,8,6-3[8:1],,
{4}2-7[8:1],5-8[8:1],1-4[8:1],5<4[4:7],
{1}4,
{1},
{1}5<4[2:3],
{1},
{1},
{1},
E
&inote_6=
(192){1},
{1}4h[16:43]/5h[16:43],
{1},
{1},
{8}7,8,6,4,7,3,8,2,
{8}2,4,3,5,4,6,5,7,
{8}2,1,3,5,2,6,1,7,
{8}7,5,6,4,5,3,4,2,
{8}7,7,6,8,5,5,6,4,
{8}8,8,1,7,4,4,5,3,
{8}6,6,5,7,1,1,8,2,
{8}5,5,4,6,2,2,3,1,
{8}4,4,3,5,1,1,8,2,
{8}5,5,4,6,3,3,4,2,
{8}8,8,1,7,4,4,5,3,
{1}8b>5[2:1],
{8}6,5,4/7,3,6,5,4/7,3,
{8}3,4,2/5,6,3,4,2/5,6,
{8}7,8,1/6,2,7,8,1/6,2,
{8}2,1,3/8,7,2,1,3/8,7,
{8}4/5,3,4/5,6,3/4,2,5/6,7,
{8}3/4,1,5/6,8,2/4,1/8,5/7,1/8,
{16}3,4,2,,6,5,7,,3,4,1,,6,5,8,,
{16}3,5,1,,6,4,8,,2,5,1,,7,4,8,,
{1}1<4[2:1]/2h[1:3],
{1}5v8[2:1],
{1}1-5[2:1],
{2}4h[2:1],5,
{1}5qq8[2:1]/7h[1:3],
{1}8-3[2:1],
{1}3>5[2:1],
{1}5-8[8:3]*q2[8:3],
{8}5,4,6,,5,4,6,,
{8}5,4,6,4,7<5[8:1],,7,,
{8}4,5,3,,4,5,3,,
{8}4,5,3,6,1>3[8:1],,1,,
{8}5,4,6,,5,4,6,,
{8}5,4,6,4,7<5[8:1],,7,,
{8}3,4,5h[2:1],,6,,3h[2:1],,
{8}2,,6h[2:1],,8,,2>5[8:3],1,
{8}8,,,,,,6<1[8:3],5,
{8}4,,,,,2,2>5[8:3],1,
{4}8,,6-2[4:1],2>6[2:1],
{8}1,,,,,,7<4[8:3],8,
{8}1,,,,,,7<4[8:3],8,
{8}1,,,,,2,2>4[4:1],1,
{4}8,,5-1[4:1],1<2[8:5]*>8[8:5],
{1},
{4}1b-5[8:1],1bw5[8:1],1b,,
{8}2-5[8:1],1,2/8,7,2-4[8:1],1,2/8,7,
{24}2-5[8:1],,,1,,,2/8,,,7,,,2/6,,,2,3,4,5,,,8,,,
{8}7-4[8:1],8,1/7,2,7-5[8:1],8,1/7,2,
{24}7-4[8:1],,,8,,,1/7,,,2,,,3/8,,,8,7,6,5,,,1,,,
{8}2-5[8:1],1,2/8,7,2-4[8:1],1,2/8,7,
{24}2-5[8:1],,,1,,,2/8,,,7,,,2/6,,,2,3,4,5,,,7,,,
{8}6-2[8:1],6,1-5[8:1],,1<6[8:1],,1>4[8:1],,
{8}5-1[8:1],,5>2[8:1],,5,,7,8,
{8}1b/3b,4,5/7<4[8:1],,3/7,,2,1,
{8}6/8,5,2>5[8:1]/4,,2/6,7,8<5[8:1],1,
{4}2>5[8:1]/8,2,8-4[4:1],4pp8[2:1]*qq8[2:1],
{8},,,,,,2/4,1,
{8}6/8,5,2>5[8:1]/4,,2/6,,7,8,
{8}1/3,4,5/7<4[8:1],,3/7,2,1>4[8:1],8,
{4}1/7<4[8:1],7,1-5[4:1],5<4[2:1],
{8}8,,,,,5,6,7,
{8}4b/8b,3/7,2-5[8:1]/6,,2/8,7,6<2[16:3],4,
{8}2p6[16:3],,4,,5,4,3/7,2,
{8}1/5,2/6,3/7-4[8:1],,1/7,2,3>7[4:1],5,
{8}7q3[16:3],,5,,1,8,3/7,6,
{8}1/5,2/6,3<6[8:1]/7,,3/7,8,1,3/7-3[8:1],
{8},1-5[8:1]/7,1,4-8[8:1],4,1,2,3,
{8}4/8,3/7,2<7[8:1]/6,,2/6,5,4,2/6,
{16}7,5,6,,1,4,3,,8,4,6,,1b/5b,,,,
{8}4b/8b,3/7,2-5[8:1]/6,,2/8,7,6<2[4:1],4,
{8}2p6[16:3],,4,,8,1,2/6,3,
{8}4/8,3/7,2/6>3[8:1],,2/6,1,8,2-6[8:1]/6,
{8},2/8-4[8:1],8,5-1[8:1],5,8,7,6,
{8}1/5,2/6,3/7>2[8:1],,3/7,4,5,3/7,
{8},3/7,2/6,1/5,4-7[8:1]/8-3[8:1],,4b/8b,,
{16}8,1,8,1,8,2,8,2,8,3,8,3,8,4,8,4,
{16}8,7,6,5,8,1,2,3,8,7,6,5,4,3,2,1,
{16}4,8,4,8,4,7,4,7,4,6,4,6,4,5,4,5,
{16}4,3,2,1,4,5,6,7,4,3,2,1,8,7,6,5,
{16}8,3,8,3,7,2,7,2,6,1,6,1,5,8,5,8,
{16}5,6,7,8,4,3,2,1,5,6,7,8,1,2,3,4,
{16}1,6,1,6,2,7,2,7,3,8,3,8,4,1,4,1,
{16}4,3,2,1,5,6,7,8,4,3,2,1,8,7,6,5,
{16}7b,3,7,3,6,2,6,2,5,1,5,1,4,8,4,8,
{16}4,5,6,7,4,3,2,1,5,6,7,8,1,2,3,4,
{16}2,6,2,6,3,7,3,7,4,8,4,8,5,1,5,1,
{16}5,4,3,2,5,6,7,8,4,3,2,1,8,7,6,5,
{32}8b,,3,,8,,3,,8,7,6,5,,,,,1b,,6,,1,,6,,1,2,3,4,,,,,
{32}5b,,4,,6,,3,,7,,2,,8,,1,,7b,6,5,4,3,2,1,8,3b/7b,,,,,,,,
{8}6,5,4/7,3,6,5,4/7,3,
{4}8<5[4:1],5-1[4:1],1-7[8:1],2,
{8}3,4,2/5,6,3,4,2/5,6,
{4}1>4[4:1],4-8[4:1],8-2[8:1],7,
{8}3/7,4/6,3/7,2/8,3/7,5/6,3/7,1/2,
{8}2/6,3/5,2/6,1/7,2/6,3/4,2/6,7/8,
{32}7b,,1,,7,,1,,7,6,5,4,,,,,2b,,8,,2,,8,,2,3,4,5,,,,,
{32}6b,,5,,7,,4,,8,,3,,1,,2,,8b,7,6,5,4,3,2,1,8b,7,6,5,4,3,2,1,
{1}4b<1[2:3]/8b,
{1},
{1}1s5[2:3],
{1},
{1},
{1},
E
