&title=怒槌
&wholebpm=200
&artist=光吉猛修
&des=譜面ボーイズからの挑戦状
&shortid=779
&genre=オンゲキCHUNITHM
&cabinet=SD
&version=maimai MiLK PLUS
&chartconverter=Neskol
&lv_2=7
&des_2=-
&lv_3=9+
&des_3=-
&lv_4=13
&des_4=Jack
&lv_5=14+
&des_5=譜面ボーイズからの挑戦状
&des_6=
&inote_2=
(200){1},
{1},
{1},
{1},
{1},
{4}1,1,1,,
{4}2,2,2,,
{4}3,3,3,,
{1}4h[2:1]/5h[2:1],
{1}6-1[4:3],
{1},
{4}7/8,7/8,7/8,,
{4}1/2,1/2,1/2,,
{1}3-8[4:3],
{1},
{4}1/2,1/2,1/2,,
{4}7/8,7/8,7/8,,
{4}6,6,5,5,
{4}4,4,3,3,
{1}1h[2:1]/2h[2:1],
{1}1h[2:1]/2h[2:1],
{4}3,3,4,4,
{4}5,5,6,6,
{1}7h[2:1]/8h[2:1],
{1}7h[2:1]/8h[2:1],
{1}1-4[4:3],
{4},,7,7,
{1}8-5[4:3],
{4},,2,2,
{1}1-5[4:3],
{4},,7,7,
{1}8-4[4:3],
{4},,2,2,
{2}1,1/2,
{2}3,3/4,
{2}5,5/6,
{2}7,7/8,
{4}7/8,7/8,7/8,,
{4}5/6,5/6,5/6,,
{4}4,4,3,3,
{4}2,2,1/8,1/8,
{1}2b/7b,
{1}3h[2:3],
{1}4h[2:1],
{4}3/4,3/4,2/5,,
{4}5/6,5/6,4/7,,
{1}6h[2:3],
{1}5h[2:1],
{4}5/6,5/6,4/7,,
{4}3/4,3/4,2/5,,
{1}3-8[4:3]/4-7[4:3],
{1},
{4}7/8,7/8,1/6,,
{4}1/2,1/2,3/8,,
{1}1-6[4:3]/2-5[4:3],
{1},
{4}5/6,5/6,4/7,,
{4}3/4,3/4,2/5,,
{1}4h[1:1]/5h[1:1],
{1},
{1}3h[1:1]/6h[1:1],
{1},
{1}2h[1:1]/7h[1:1],
{1},
{1}1h[1:1]/8h[1:1],
{1},
{1}1/8,
{1}1h[2:1]/8h[2:1],
{1}2h[2:1]/7h[2:1],
{1}3h[2:1]/6h[2:1],
{1}4h[2:1]/5h[2:1],
{2}4/5,3b/4b,
{2}4/5,5b/6b,
{2}4/5,3b/6b,
{1},
{2}4,3/4,
{2}5,5/6,
{2}4,3/4,
{2}5,5/6,
{4}4,4,3/4,3/4,
{4}5,5,5/6,5/6,
{4}4,4,3/4,3/4,
{1}5b,
{4}4/5,,4,4,
{4}3/5,,5,5,
{4}4/6,,3,3,
{4}2/4,,6,6,
{4}5/7,,8,8,
{4}1/7,,1,1,
{2}2/8,1h[4:1]/8h[4:1],
{4}1/8,,1/8,2b/7b,
{4}3,3,4,4,
{4}5,5,6,6,
{2}5h[4:1]/6h[4:1],3h[4:1]/4h[4:1],
{4}4/5,4/5,3/6,,
{1}3h[4:3],
{1}4h[4:3],
{1}5h[4:3],
{1}6h[4:3],
{4}7/8,7/8,7/8,7/8,
{4}7/8,7/8,7/8,7/8,
{4}7/8,7/8,7/8,7/8,
{4}7/8,7/8,7/8,7/8,
{4}1h[4:1],,1/2,1/2,
{4}1/2,1/2,1/2,1/2,
{4}1/2,1/2,1/2,1/2,
{4}1/2,1/2,1/2,1/2,
{4}1/2,1/2,3h[4:1],,
{2}4h[4:1],5h[4:1],
{2}6h[4:1],7h[4:1],
{2}8h[4:1],1h[4:1],
{4}2h[4:1],,3,4,
{4}5,6,7,8,
{8}1,,2,,3,3,3,,
{8}4,4,4,,5,5,5,,
{8}6,6,6,,7b,,,,
{1}8h[2:5],
{12},,,,,1h[12:13],,,,,,,
{1},
{16}8,,,8,,,,,,,1,,,1,,,
{16},,,,1/8,,,1-4[4:3]/8-5[4:3],,,,,,,,,
{1},
{1}3b/6b,
{1},
{1},
{1},
E
&inote_3=
(200){1},
{4}1,2,3/4,,
{4}8,7,5/6,,
{4}2,3,4,4>1[2:1]/5<8[2:1],
{1},
{4}8,7,5/6,3,
{4}1,2,3/4,6,
{4}8,7,6,4/5,
{2}4h[4:1]/5h[4:1],3/6,
{1}1q5[2:1],
{1}5p8[2:1],
{4}1/2,8,7,5/6,
{4}4,3/4,2/5,,
{1}8p4[2:1],
{1}4q1[2:1],
{4}7/8,1,2,3/4,
{4}5,5/6,4/7,,
{4}3h[4:1],4,4h[4:1],5,
{4}5h[4:1],6,4/7,,
{4}8,8,2,2,
{4}1,2,3/8,,
{4}3h[4:1],4,4h[4:1],5,
{4}5h[4:1],6,4/7,,
{4}8,8,2s6[8:7],,
{1},
{8}7,7h[8:3],,,8h[2:1],,,,
{2}1h[2:1],2,
{8}2,2h[8:3],,,1h[2:1],,,,
{2}8h[2:1],7,
{8}8,8h[8:3],,,2h[2:1],,,,
{2}4h[2:1],3,
{8}1,1h[8:3],,,7h[2:1],,,,
{2}5h[2:1],6,
{4}7h[4:1],8,1h[4:1],8,
{4}7h[4:1],8,1/6,,
{4}3h[4:1],4,5h[4:1],4,
{4}3h[4:1],4,2/5,,
{4}5/6,4,3/4,5,
{4}5/7,4,2/5,,
{4}6,5/7,3,2/4,
{4}5/6,3/4,1w5[4:3],,
{1},
{1}4p8[2:1],
{1}8q5[2:1],
{4}3/4,5,6,7/8,
{4}1,1/2,3/8,,
{1}5q1[2:1],
{1}1p4[2:1],
{4}5/6,4,3,1/2,
{4}8,7/8,1/6,,
{4}2h[4:1],1,1h[4:1],8,
{4}8h[4:1],7,1/6,,
{4}5,5,3,3,
{4}4,3,2/5,,
{4}2h[4:1],1,1h[4:1],8,
{4}8h[4:1],7,1/6,,
{4}5,5,3,3,
{1}2>6[2:1],
{2}8h[1:1],7,
{2}7h[1:1],6,
{2}6h[1:1],5,
{2}5h[1:1],4,
{2}4h[1:1],2,
{2}2h[1:1],8,
{2}8h[1:1],7,
{2}7h[2:1],6h[2:1],
{2}5h[2:1],4h[2:1],
{2}3,1h[2:7],
{2}2,3,
{2}4,5,
{2}6,7,
{2}8,5b/7b,
{2}1/8,2b/4b,
{2}1/8,3b-8[4:3]/6b-1[4:3],
{1},
{4}5,6,4/7,,
{4}4,3,2/5,,
{4}6,7,6/8,,
{4}3,2,1/3,,
{4}7,8,1/7,,
{4}2,1,2/8,,
{4}7,8<1[1:1],,,
{1},
{4}1h[4:1]/8h[4:1],,2,3,
{4}4h[4:1]/5h[4:1],,3,2,
{4}1h[4:1]/8h[4:1],,7,5/6,
{4}3h[4:1]/4h[4:1],,6,7/8,
{4}1h[4:1]/2h[4:1],,7/8,6,
{4}4h[4:1]/5h[4:1],,7,1/8,
{4}2h[4:1]/7h[4:1],,3/6,4/5,
{1}4-1[8:3]/5-8[8:3],
{4}8,1b/7b,6,5,
{4}4/5,3,2,1/8,
{4}7,6/8,2,1/3,
{4}8,1/8,2/7,,
{4}1,2,3,4/5,
{4}5,6,7,1/8,
{4}2,1/3,7,6/8,
{4}1,1/8,2/7,,
{4}5/6,7,5/6,8,
{4}5/6,1,5/6,2,
{4}3/4,2,3/4,1,
{4}3/4,8,3/4,7,
{4}6/8,,3/4,1/2,
{4}3/4,1/8,3/4,7/8,
{4}3/4,5/7,5/6,7/8,
{4}1/2,3/4,5/6,3/8,
{4}3/4,1/6,5h[4:1]/6h[4:1],,
{2}5h[4:1]/7h[4:1],4h[4:1]/6h[4:1],
{2}4/7,3h[4:1]/4h[4:1],
{2}2h[4:1]/4h[4:1],3h[4:1]/5h[4:1],
{4}2/5,,5/6,5/7,
{4}4/6,4/7,3/4,2/4,
{8}3/5,,2/5,,6,6,8,,
{8}3,3,1,,7,7,2,2,
{8}8,8,1,,1h[4:1]/8h[4:1],,,,
{4}1/8,2/7,3/6,4qq1[2:3]/5pp8[2:3],
{1},
{1},
{24}3/8,,,,,1/2,,,,,,,,,,1/6,,,,,7/8,,,,
{24},,,,,,2/7,,,,,1h[24:25]/8h[24:25],,,,,,,,,,,,,
{1},
{1}2b/7b,
{1},
{1},
{1},
E
&inote_4=
(200){1},
{8}7h[8:3],,,5h[4:1],,4h[8:3],,,
{8}2h[8:3],,,4h[4:1],,5h[8:3],,,
{8}7h[8:3],,,5h[4:1],,4h[8:3],,,
{8}2h[4:1],,1,7-3[8:1]/8,,2,,,
{8}3h[4:1],,4,6h[4:1],,5,4,3/6,
{8}3/6,,7,4/6,2,3/5,4/6,,
{8}2h[4:1],,1,7h[4:1],,8,1,2/7,
{1}2z6[2:1]/7s3[2:1],
{1}4>5[8:5]/5p4[8:5],
{1}4q5[8:5]/5<4[8:5],
{8}6,5,4/7,,1,1,8,8,
{8}3,4,2/5,,8,8,1,1,
{1}2V41[2:1]/6V85[2:1],
{2}1-4[8:1]/5-8[8:1],4-1[8:1]/8-5[8:1],
{8}2,1,3/8,,5,5,4,4,
{8}7,8,1/6,,4/5,4/5,2/7,2/7,
{8}3,4,3,2/5,6,5,6,4/7,
{8}8,1,8,2/7,3,4,5,3/6,
{8}2/7,2/7,2/7,,3,3,3,2/4,
{8}1/5,1/5,1/5,,8,8,8,1/7,
{8}6,5,6,4/7,3,4,3,2/5,
{8}1,8,1,2/7,6,5,4,3/6,
{8}2/7,2/7,2/7,,6,6,6,5/7,
{8}4/8,4/8,4qq4[8:3]/8qq8[8:3],,,,,,
{8}4/8,1/5h[8:13],,,8h[4:1],,,,
{2}7h[4:1],6h[4:1],
{8}1/5,4h[8:13]/8,,,1h[4:1],,,,
{2}2h[4:1],3h[4:1],
{8}4/8,1/5h[8:13],,,2h[4:1],,,,
{2}3h[4:1],4h[4:1],
{8}1/5,4h[8:13]/8,,,7h[4:1],,,,
{2}6h[4:1],5h[4:1],
{8}1,2h[2:1],,1,8,7h[2:1],,8,
{8}1,2h[4:1],,1,2-6[8:1],,7,,
{8}8,7h[2:1],,8,1,2h[2:1],,1,
{8}8,7h[4:1],,8,7-3[8:1],,2,,
{4}1h[2:1],2,3h[2:1],4,
{4}5h[2:1],6,7h[2:1],8,
{8}1,1,7,7,3,3,5,5,
{8}4,4,3/5,3/5,2/6,2/6,1/7,1/7,
{8}8,8,8,8,1/7,2/6,3/5pp8[8:7],4,
{1},
{1}4p1[8:5],
{8}7,8,1/6,,2,1,3/8,3/8,
{8}7,6,5,4,3,2,1pp4[8:7]/8,,
{1},
{2}8p5[8:5],1-4[8:1],
{8}3,4,2/5,,6,5,4/7,4/7,
{8}3,2,1,8,7,6,4/5,4/5,
{4}3<6[8:1],7>1[8:1],2>5[8:1],6<8[8:1],
{4}1>4[8:1],5<7[8:1],8>3[8:1],5,
{8}7,7,6/8,,2,3,4,5/6,
{8}7,7,6/8,,4/5,,1/8,1/8,
{4}7>2[8:1],3<5[8:1],6<1[8:1],2>4[8:1],
{4}5<8[8:1],1>3[8:1],4<7[8:1],1,
{8}3,3,2/4,,6,7,8,1/2,
{8}3,3,2/4,,1-5[8:1]/8,,,,
{1}6h[1:1],
{1}7h[1:1],
{1}8h[1:1],
{1}1h[1:1],
{1}2h[1:1],
{1}3h[1:1],
{1}4h[1:1],
{1}5<4[2:3],
{1},
{2}8h[2:1],6h[2:1],
{2}4h[2:1],2h[2:1],
{2}8h[2:1],1h[2:1],
{2}3h[2:1],5h[2:1],
{2}7s3[8:3],7b,
{2}2z6[8:3],2b,
{2}8z4[8:3],8b,
{1}4h[4:3]/5h[4:3],
{4}3h[2:1]/6,4,5h[2:1],4,
{4}3h[2:1],4,6h[2:1],5,
{4}4h[2:1],5,7h[2:1],6,
{4}5h[2:1],6,7h[2:1],8,
{4}1h[2:1],8,7h[2:1],8,
{4}2h[2:1],1,8h[2:1],1,
{4}2-4[8:1],8-6[8:1],1-5[8:1],8v7[8:1],
{4}1v2[8:1],6v5[8:1],3v4[8:1],,
{16}6,5,6,5,6,,,,,,3,,3,,3,,
{8}2-5[8:1]/4h[16:3],,,,,7,6,5,
{16}3,4,3,4,3,,,,,,6,,6,,6,,
{8}5h[16:3]/7-4[8:1],,,,,4,3,2,
{16}8,1,8,1,8,,,,,,5,,4,,5,,
{1}3<6[8:1]/6h[16:3],
{8}4-8[8:1]/5-1[8:1],,,,,1/8,2/7,3/6,
{16}4/5,,,2/7,,,,,1,2,3,4,8,7,6,5,
{8}1-5[8:1],,1b,,6,5/7,8,1/7,
{8}6,5/7,3,2/4,1,2/8,3,2/4,
{16}1,,3,4,3,4,3,4,2,,6,5,6,5,6,5,
{8}7,8,1,2,3/4,4/5,5/6,,
{8}8-4[8:1],8,1,1,2-6[8:1],2,8,8,
{8}7-3[8:1],7,8,8,1-5[8:1],1,8,8,
{8}7h[2:1],8,1,2,3h[2:1],4,5,6,
{4}7-3[8:1],2-6[8:1],8-4[8:1],,
{16}3,4,3,,3,5,3,,3,4,3,,3,6,3,,
{16}3,4,3,,3,7,3,,3,4,3,,3,8,3,,
{16}6,5,6,,6,4,6,,6,5,6,,6,3,6,,
{16}6,5,6,,6,2,6,,6,5,6,,6,1,6,,
{16},,,,,,,,2,1,2,,7,8,7,,
{16}2,1,2,,7,8,7,,3,1,3,,6,8,6,,
{16}3,1,3,,6,8,6,,1,8,1,8,1,8,1,8,
{16}1,8,1,8,1,8,1,8,,,7,5,7,5,7,5,
{16},,2,4,2,4,2,4,3-5[8:1]*-6[8:1],,,,,,,,
{2}3-6[8:1]*-7[8:1],3-7[8:1]*-8[8:1],
{2}3-1[8:1]*-8[8:1],6-3[8:1]*-4[8:1],
{2}6-2[8:1]*-3[8:1],6-1[8:1]*-2[8:1],
{4}6-1[8:1]*-8[8:1],,3-5[8:1],7-1[8:1],
{4}3-6[8:1],7-2[8:1],3-7[8:1],6-4[8:1],
{8}2-8[8:1],,7b,,3h[4:1],4,6h[4:1],5,
{16}2h[4:1],,4,,7h[4:1],,5,,1,2,3,4,8,7,6,5,
{16}1,2,3,4,8,7,6,5,1bs5[8:1],,,,,,,,
{8}6,5/7,,3,4,2/5,,6,
{8}5,4/7,4/7-2[8:1],,3-6[8:1],,8-5[8:1],,
{4}4-1[8:1],7-4[8:1],3-8[8:1],5,
{16}6b/7b,,,2b/3b,,,,,,,2b/3b,,,6b/7b,,,
{16},,,,4b/5b,,,1bpp4[16:17]/8bqq5[16:17],,,,,,,,,
{1},
{1}2b/7b,
{1},
{1},
{1},
E
&inote_5=
(200){1},
{8}3h[4:1]/5,,4,3/5h[4:1],,3,4,5,
{8}4/6h[4:1],,5,4h[4:1]/6,,6,5,4,
{8}3h[4:1]/5,,4,3/5h[4:1],,3,4,5,
{8}6b-2[8:1],,6b,1bw5[8:1],,1b,,,
{16}1,,8,,7,,6,5,,5,6,,1/7,,,,
{16}8,,1,,2,,3,4,,4,3,,2/8,,,,
{16}8,,7,,6,,5,4,,4,5,,3/6,,,,
{32}4/8h[32:7],3,2,1h[8:1],,,,,2/7,3/6,4/5,,,,,,3,,4,,2,,5,,1,,6,,8,,7,,
{8}1/6-3[8:1],,8,1,2-7[8:1],,4,5,
{8}6-1[8:1],,4,3,2-5[8:1],,1,8,
{8}3/7,6,1/5,6,3/7,6,1/5,6,
{8}3/7,4,5/8,4,3/7,4/8,1/5,,
{8}3-6[8:1]/8,,1,8,7-2[8:1],,5,4,
{8}3-8[8:1],,5,6,7-3[8:1]*-4[8:1],,,,
{8}2/6,3,4/8,3,2/6,3,4/8,3,
{8}2/6,5,1/4,5,2-5[8:1]/6-1[8:1],,2/6,,
{8}1>5[8:1],7,5-1[8:1],7,1-5[8:1],7,5,7,
{8}8<4[8:1],2,4-8[8:1],2,8-4[8:1],2,4,2,
{16}8,,2,,3/4,,2,,8,1,7,,5,4,6,,
{16}1,,7,,5/6,,7,,1,8,2,,4,5,3,,
{8}8<4[8:1],2,4-8[8:1],2,8-4[8:1],2,4,2,
{8}1>5[8:1],7,5-1[8:1],7,1-5[8:1],7,5,7,
{16}1,,7,,5/6,,7,,1,8,2,,4,5,3,,
{8}8,2,3/4,2,1h[16:1]/7h[16:1],3h[16:1]/5h[16:1],2h[16:1]/8h[16:1],4h[16:1]/6h[16:1],
{8}1/2-6[8:1],1/2h[8:3],,,7h[2:1],,3,,
{4}5h[2:1],1,3h[4:1],2,
{8}7-3[8:1]/8,7h[8:3]/8,,,2h[2:1],,6,,
{4}4h[2:1],8,6h[4:1],7,
{8}1-5[8:1]/2,1h[8:3]/8,,,6h[2:1],,2,,
{4}4h[2:1],8,2h[4:1],3,
{8}7/8-4[8:1],1/8h[8:3],,,3h[2:1],,7,,
{4}5h[2:1],1,7h[4:1],6,
{4}5>2[8:1]/6,7h[4:1],8>3[8:1],6h[4:1],
{4}5>2[8:1],8h[4:1],1<6[8:1],,
{4}3/4<7[8:1],2h[4:1],1<6[8:1],3h[4:1],
{4}4<7[8:1],1h[4:1],8>2[8:1],,
{8}1-5[8:1]/3,,1/8V63[8:1],,6/8,,7,7,
{8}6/8-4[8:1],,1V36[8:1]/8,,1/3,,2,2,
{8}1/3<6[8:1],3,8,8,7p3[8:1],7,8,8,
{8}2-5[8:1],2,2/8-4[8:1],8,1w5[8:1]/8,,1b,,
{8}2<7[8:1],3,4,5,6>3[8:1],7,8,1,
{16}2,,4,,5,,7,,1/5<8[8:1],2,3,4,5,,,,
{16}7,,5,,4,,2,,4>1[8:1]/8,7,6,5,4,,,,
{8}7/8,6,4/5,3,1/2,3,4/5,6,
{8}1/7,6,4/5,3,2-5[8:1]/8-5[8:1],,,,
{16}7,,5,,4,,2,,4>1[8:1]/8,7,6,5,4,,,,
{16}2,,4,,5,,7,,1/5<8[8:1],2,3,4,5,,,,
{8}1/2,3,4/5,6,7/8,6,4/5,3,
{8}2/8,3,4/5,6,1-4[8:1]/7-4[8:1],,,,
{16}3,5,3,6,3,7,3,8,3,1,3,2,3,4,3,5,
{16}3,6,2,6,1,6,8,6,7,6,5,6,4,6,3,6,
{8}3-7[8:1],3,4-6[8:1],4,2-8[8:1],2,7,7,
{8}5,5-1[8:1],,8,8-4[8:1],,1/8,,
{16}6,4,6,3,6,2,6,1,6,8,6,7,6,5,6,4,
{16}6,3,7,3,8,3,1,3,2,3,4,3,5,3,6,3,
{8}6-2[8:1],6,5-3[8:1],5,7-1[8:1],7,2,2,
{4}3-7[8:1]/7-3[8:1],3>5[8:3]/7,,,
{1}3h[4:3]/4b<4[2:7],
{1}5h[4:3],
{1}7h[4:3],
{1}1h[4:3],
{2}7<3[1:1],3,
{2}3s7[1:1],7,
{2}7>3[1:1],3,
{2}3pp1[1:1],1,
{1}1w5[2:1],
{2}1b/7h[4:3],5h[4:3],
{2}3h[4:3],1h[4:3],
{2}7h[4:3],5h[4:3],
{2}3h[2:1],1,
{2}4-8[8:1]/8-4[8:1],2b/6b,
{2}2-6[8:1]/6-2[8:1],4b/8b,
{2}1-5[8:1]/5-1[8:1],3b/7b,
{1}1>8[2:1]/8,
{8}1-5[8:1]/2,,1/8,,8-4[8:1],7,6/8,,
{8}7/8-4[8:1],,1/8,,1-5[8:1],2,1/3,,
{8}1-5[8:1]/2,,1/7,,2/8-4[8:1],7,6/8,,
{8}7/8-4[8:1],,2/8,,1/7,2,3/6,,
{8}1-5[8:1],1,2-6[8:1],2,3-7[8:1],3,4-8[8:1],4,
{8}5-1[8:1],5,6-2[8:1],6,7-3[8:1],7,8-4[8:1],8,
{8}1-5[8:1],1,1/6-1[8:1],6,3-8[8:1]/6,3,3/7,7,
{4}2qq4[4:1]/7pp5[4:1],,,1-5[8:1]/8,
{16}1-7[16:1]/5-3[16:1],,,,,,,,6,5,6,,7/8-4[8:1],,1,,
{16}4-6[16:1]/8-2[16:1],,,,,,,,3,4,3,,1-5[8:1]/2,,8,,
{16}1-7[16:1]/5-3[16:1],,,,,,,,6,5,6,,7/8-4[8:1],,1,,
{16}4-6[16:1]/8-2[16:1],,,,,,,,3,4,3,,1V73[16:5]/2,,8,,
{16}1/6-4[16:1],,,,,,,,6,5,6,,7/8V26[16:5],,1,,
{16}3-5[16:1]/8,,,,,,,,3,4,3,,1/2,,8,,
{16}3-8[16:1]/7-4[16:1],,,3/7,,,,,1/5,2/6,3/7,,1/5,,4/8,,
{16}3-6[16:1]/7-2[16:1],,,3/7,,,,,1,8,7,6,5,4,3,2,
{16}1/8,,,,2b/7b,,,,3,4,3,4,2,,1/7,,
{16}6,5,6,5,7,,2/8,,2,4,3,,7,5,6,,
{16}2h[8:1]/8,,4,3,5,4,6,5,6h[8:1],,,8,7,1,8,2,
{8}1-5[8:1],4-8[8:1],1,4,7<4[8:1]*>2[8:1],,,,
{16}3,4,3,,6,5,6,,2,4,2,,7,5,7,,
{16}2,4,3,,7,5,6,,1,4,3,,8,5,6,,
{16}2,1,2,,3/8,,7,8,7,,1/6,,7,2,6,3,
{4}4/5<4[8:3],,,2b/7b,
{16}3,4,6,5,3,4,6,5,2,3,7,6,2,3,7,6,
{16}2,3,4,5,6,5,4,3,4,5,6,7,6,5,4,3,
{16}1,2,8,7,1,2,8,7,2,3,7,6,2,3,7,6,
{16}4/5,,4/5,,1/8,,1/8,,4,5,3,6,2,7,1,8,
{16}2,7,2,7,2,7,2,7,2/8,3,4,5,1/6,5,4,3,
{16}2/8,3,4,5,1/6,5,4,3,2/7,6,5,4,3/8,4,5,6,
{16}1/7,6,5,4,3/8,4,5,6,1b,8,1b,7,1b,6,1b,5,
{16}1b,5,1b,6,1b,7,1b,8,1h[8:1],,8,2,8,3,8,4,
{16}8h[8:1],,3,7,3,6,3,5,3>8[4:1],,,,8<4[4:1],,,,
{4}4>8[4:1],8<5[4:1],5>8[4:1],8<6[4:1],
{4}6w2[8:1],,6<1[4:1],1>5[4:1],
{4}5<1[4:1],1>4[4:1],4<1[4:1],1>3[4:1],
{4}3w7[8:1],,3-7[12:1],4-8[12:1],
{4}5-1[12:1],6-2[12:1],3q7[12:1],4q8[12:1],
{8}5p1[12:1],,6,,4-8[8:1]/5-1[8:1],3/6,4/5,,
{32}3-8[8:1]/6-1[8:1],,,,4/5,,,,3/6,,,,,,,,3,4,5,6,7,8,1,2,3,4,5,6,7,8,1,2,
{32}3,4,5,6,7,8,1,2,3,4,5,6,7,8,1,2,3h[32:7]/7h[32:7],,,,,,,,2b/6b,1b/5b,4b/8b,,,,,,
{16}6,8,6,,1/7,,2,8,2,,1/7,,5,3,5,3,
{12}8,8,8,6,6,6,4,4,4,2,2,2,
{96}8,,,,,,,,5,,,,,,,,6,,,,,,,,1,,,,,,,,4,,,,,,,,3,,,,,,,,8,,,7,,,6,,,5,,,4,,,3,,,2,,,1,,,8,,,7,,,6,,,5,,,4,,,3,,,2,,,1,,,
{16}8b-4[16:1]*z4[16:1],,,8b,,,,,,,1b-5[16:1]*s5[16:1],,,1b,,,
{16},,,,1bs5[16:1]/8bz4[16:1],,,1b>8[16:17]/8b<1[16:17],,,,,,,,,
{1},
{64}1b/8b,2b/7b,3b/6b,4b/5b,,,,,,,,,,,,,,,,,,,,,,,,,,,,,,,,,,,,,,,,,,,,,,,,,,,,,,,,,,,,,
{1},
{1},
{1},
E
