&title=全力☆Summer!
&wholebpm=158
&artist=angela「アホガール」
&des=緑風 犬三郎
&shortid=744
&genre=POPSアニメ
&cabinet=SD
&version=maimai MiLK PLUS
&chartconverter=Neskol
&lv_2=4
&des_2=-
&lv_3=6
&des_3=-
&lv_4=9
&des_4=はっぴー
&lv_5=10+
&des_5=緑風 犬三郎
&lv_6=12
&des_6=玉子豆腐
&inote_2=
(158){1},
{1},
{1}1,
{1}8,
{1}1,
{1}8,
{2}1,1,
{2}2,2,
{2}3,3,
{2}4/5,4/5,
{2}5,5,
{2}6,6,
{2}7,7,
{2}1/8,1/8,
{1}1h[2:1],
{1}8h[2:1],
{1}1h[2:1]/8h[2:1],
(150){1}1-4[6:5]/8-5[6:5],
{1},
(158){1},
{1},
{4}8b,8,8,,
{4}7,7,7,,
{4}6,6,6,,
{4}5,4,5,,
{4}4,4,4,,
{4}3,3,3,,
{4}2,2,2,,
{1}1h[2:1]/8h[2:1],
{4}1,1,1,,
{4}2,2,2,,
{4}3,3,3,,
{4}4,5,4,,
{1}5h[2:1],
{1}4h[2:1],
{1}5-8[4:3],
{1},
{2}1,1,
{1}1h[2:1]/2h[2:1],
{2}8,8,
{1}7h[2:1]/8h[2:1],
{2}1,1,
{2}2,2,
{4}3h[1:1]/4h[1:1],(152),(146),(138),
(134){1},
{4}4,4,4,,
{4}5,5,5,,
{4}4,4,4/5,,
{4}5,5,4/5,,
{4}4,4,3/5,,
{4}5,5,4/6,,
{4}3/4,3/4,2/5,,
{4}5/6,5/6,4/7,,
{4}3h[16:9]/6h[16:9],(120),(108),(100),
(84){1}4-1[2:1]/5-8[2:1],
(152){1},
(158){4}1b,1,1,,
{4}2,2,2,,
{4}3,3,3,,
{4}4,5,4,,
{4}5,5,5,,
{4}6,6,6,,
{4}7,7,7,,
{1}1h[2:1]/8h[2:1],
{4}8,8,8,,
{4}7,7,7,,
{4}6,6,6,,
{4}5,4,5,,
{1}3h[2:1]/4h[2:1],
{1}5h[2:1]/6h[2:1],
{1}4-1[4:3]/5-8[4:3],
{1},
{2}8,8,
{2}7,7,
{2}6,6,
{2}5,4/5,
{4}4,4,4,,
{4}3,3,3,,
{4}2,2,2,,
{4}1,8,1,,
(133){1}1h[2:1]/8h[2:1],
(120){2}1/8,1-4[4:3]/8-5[4:3],
{1},
{1},
{1},
E
&inote_3=
(158){1},
{1},
{4}3,3,2/4,,
{4}6,6,5/7,,
{4}3,3,4,4,
{4}6,6,4b/5b,,
{4}3,3,4/5,,
{4}6,6,4h[4:1]/5h[4:1],,
{4}2,2,1/8,,
{4}7,7,1h[4:1]/8h[4:1],,
{4}3h[2:1],4,4,,
{4}6h[2:1],5,5,,
{4}2h[2:1],1,1,,
{4}7h[2:1],8,8,,
{2}5h[4:1]/6h[4:1],4b/7b,
{2}3h[4:1]/4h[4:1],2b/5b,
{2}7h[4:1]/8h[4:1],1b/6b,
(150){1}1pp4[0.3999999999999986##3.559493670886077]/8qq5[0.3999999999999986##3.559493670886077],
{1},
(158){1},
{2}4/5,3b/6b,
{4}2,1,1/2,1/2,
{4}3/8,4/7,5/6,,
{4}7,8,7/8,7/8,
{4}1/6,2/5,3/4,,
{4}1/2,1/2,3h[4:1]/8h[4:1],,
{4}7/8,7/8,1h[4:1]/6h[4:1],,
{4}1/8,1/8,2/7,3/6,
{1}4>1[2:1]/5<8[2:1],
{4}7,8,7/8,7/8,
{4}1/6,2/5,3/4,,
{4}2,1,1/2,1/2,
{4}3/8,4/7,5/6,,
{4}3h[4:1]/4h[4:1],,2/5,2/5,
{4}5h[4:1]/6h[4:1],,4/7,4/7,
{4}4/5,4/5,3/6,2/7,
{1}1b/8b,
{4}1,1,2,2,
{4}3,3,4b,,
{4}5,5,6,6,
{4}7,7,8b,,
{4}1,1,2/8,,
{4}8,8,1/7,,
{4}1/8,(152)1/8,(146)2h[4:1]/7h[4:1],(138),
(134){1}3/6,
{2}4h[2:1],5h[2:1],
{2}6h[2:1],7,
{2}8h[2:1],1h[2:1],
{2}2h[2:1],3,
{4}4,4,3/5,,
{4}5,5,4/6,,
{4}4/5,4/5,3h[4:1]/6h[4:1],,
{1}2-4[8:3]/7-5[8:3],
{4}3>6[0.4477611940298516##3.084126984126982],(120),(108),(100),
(84){1},
(152){2}3h[4:1]/4h[4:1],5h[4:1]/6h[4:1],
(158){4}2,1,1/2,3/8,
{4}7/8,7/8,1b/6b,,
{4}7,8,7/8,1/6,
{4}1/2,1/2,3b/8b,,
{4}8,7,6,5b,
{4}1,2,3,4b,
{4}5/6,5/6,3/4,3/4,
{1}4>1[2:1]/5<8[2:1],
{4}7,8,7/8,1/6,
{4}1/2,1/2,3b/8b,,
{4}2,1,1/2,3/8,
{4}7/8,7/8,1b/6b,,
{4}2h[4:3],,1,1b,
{4}7h[4:3],,8,8b,
{1}1-4[8:3]/8-5[8:3],
{2}5h[2:1],4,
{4}3,3,4,4,
{4}5,5,5/6,,
{4}6,6,5,5,
{4}4,4,3/4,,
{4}2,2,1/8,1/8,
{4}7,7,1h[4:1]/8h[4:1],,
{4}6,6,4/5,4/5,
{4}3,3,4h[4:1]/5h[4:1],,
(133){2}3h[2:1],2h[2:1],
(120){2}1h[2:1],8h[1:2],
{1},
{2},1b,
{1},
{1},
{1},
E
&inote_4=
(158){1},
{1},
{4}5/7,5/7,4/6,3/5,
{4}2/4,2/4,3/5,4/6,
{4}5/7,5/7,4/6,3/5,
{8}2/4,,2/4,,1,1,2/7,,
{4}5/6h[4:1],5,3h[4:1]/4,4,
{4}5/6,7/8,1/2,3/4,
{4}3h[4:1]/4,4,5/6h[4:1],5,
{8}3h[4:1]/4h[4:1],,,,6,6,5/7,,
{4}7h[4:1]/8,8,1/2h[4:1],1,
{4}3/4,5/6,2/4,5/7,
{4}1/2h[4:1],1,7h[4:1]/8,8,
{8}1/8,1/8,3/6q3[4:1],,,,,,
{8}1b,1,1,,5/6,,4/7,,
{8}1b,2,3,,4/7,,5/6,,
{8}1b,8,1,,4/7,,2q7[0.37974683544304##0.8000000000000007]/5,,
(150){1},
{8},7pp2[0.3999999999999986##1.7594936708860764],,,,,,,
(158){1},
{8}4/5,,4/5,,1/8,2/7,3/6,,
{8}4h[4:1]/7,,1,1,,2/8,,6,
{8}5/7,,3/4,3h[4:1]/4,,1,1,,
{8}2/5h[4:1],,8,8,,1/7,,3,
{8}2/4,,5/6,5/6h[4:1],,8,8,,
{4}4/6,4/6,3/5,3/5,
{4}4/6,3/5,4/6,3/5,
{2}7-5[8:1]/8,1/2-4[8:1],
{4}7/8,4/5,1/2,3/8,
{8}2/5h[4:1],,8,8,,1/7,,3,
{8}2/4,,5/6,5/6h[4:1],,8,8,,
{8}4h[4:1]/7,,1,1,,2/8,,6,
{4}6h[4:1],8h[4:1],1h[4:1],3q6[8:5],
{1},
{4}5/6h[4:1],8,3h[4:1]/4,1<2[8:5],
{1},
{16}4/5,,,4/5,,,4/5,,,,2/7,,2/7,,,,
{4}6h[4:1],5,3h[4:1],4,
{4}2/4,4/6,6/8,4/6,
{4}3h[4:1],4,6h[4:1],5,
{4}5/7,3/5,1/3,3/5,
{4}5>2[4:1]/6<1[4:1],,,2/3,
{4}3>8[4:1]/4<7[4:1],,,6/7,
{4}5pp2[0.37974683544302934##1.2404783549105076]/6,(152),(146),(138),
(134){1},
{4}5/6,5/6,4/7,,
{4}3/4,3/4,2/5,,
{4}5h[4:1]/6,6,4/7,,
{4}3/4h[4:1],3,2/5,,
{4}4h[4:1]/7h[4:1],,4/5,4/5,
{4}2h[4:1]/5h[4:1],,4/5,4/5,
{4}4h[4:1]/8h[4:1],,4/5,4/5,
{2}1h[4:1]/5h[4:1],4/5,
{4}4h[4:1]/5h[4:1],(120),(108)4h[4:1]/5h[4:1],(100),
(84){16},,,4-1[8:3]/5-8[8:3],,,,,,,,,,,,,
(152){4}3/6,4/5,2/7,4/5,
(158){8}2/5h[4:1],,8,8,,3/7,,2,
{8}1/3,,5/6,5/6h[4:1],,8,8,,
{8}4h[4:1]/7,,1,1,,2/6,,7,
{8}6/8,,3/4,3h[4:1]/4,,1,1,,
{4}2/5,3/6,4/7,3/6,
{4}2/5,4/7,2/5,4/7,
{8}1/2,3,4,,7/8,6,5,,
{4}1/3,4/5,6/8,1/6,
{8}4h[4:1]/7,,1,1,,2/6,,7,
{8}6/8,,3/4,3h[4:1]/4,,1,1,,
{8}2/5h[4:1],,8,8,,2/6,,3,
{4}3h[4:1],1h[4:1],8h[4:1],6p3[8:5],
{1},
{4}3h[4:1]/4,1,5/6h[4:1],8>3[4:1],
{2},4h[8:5]/5h[16:15],
{1},
{8}6,6,5,,3,3,4,,
{8}6,6,5,,4,4,3/5,,
{8}3,3,4,,6,6,5,,
{8}3,3,4,,5,5,4/6,,
{8}3,3,2/4,,6,6,5/7,,
{8}5/6,,3/4,,1/2,1/2,3/8,,
{8}7,7,6/8,,2,2,1/3,,
{8}3/4,,5/6,,7/8,7/8,1/6,,
(133){2}3h[2:1],1h[2:1],
(120){2}8h[2:1],6b>7[2:3],
{1},
{1},
{1},
{1},
E
&inote_5=
(158){1},
{1},
{4}3-1[8:1]/5,4,4/6-8[8:1],5,
{4}3-1[8:1]/5,4,4/6,3/5,
{4}4/6-8[8:1],5,3-1[8:1]/5,4,
{8}4/6-8[8:1],,5,,4/5,3/6,2b/7b,,
{8}6>3[8:1],,1,1,3<6[8:1],,8,8,
{8}6>3[8:1],,2<7[8:1],,5,5,4/6,,
{8}3<6[8:1],,8,8,6>3[8:1],,1,1,
{8}2-7[8:1]/6-3[8:1],,,,1/5,2/6,3/7,,
{8}6q2[8:1],,4,4,3p7[8:1],,5,5,
{8}6q2[8:1],,4,4,3/5,2/6,1/7,,
{8}3p7[8:1],,5,5,6q2[8:1],,4,4,
{8}3p7[8:1],,5,5,4/6,3/5,4/6,,
{8}2/7,3/6,4pp6[4:1]/5qq3[4:1],,,,,,
{8}4/8,3/7,2v5[4:1]/6v1[4:1],,,,,,
{8}1/7,2/8,1z5[8:3]/7,,,,,,
(150){1}7>2[2:1],
{8},3<6[2:1],,,,,,,
(158){4},8h[4:3],,,
{4}1,3/6,5/7,2/4-7[8:1],
{4}3-8[8:1],4-7[8:1],3,2,
{8}1>6[4:1]/5,,8h[4:1],,,8,5-2[8:1]/7,,
{4}6-1[8:1],5-2[8:1],6,7,
{8}4/8<3[4:1],,1h[4:1],,,1/8,2/7,,
{4}3-5[8:1]/6,8,3/6-4[8:1],1>8[2:1],
{4}8,,,3/6,
{4}3h[8:1]/6h[8:1],1h[8:1]/4h[8:1],3h[8:1]/7h[8:1],5h[8:1]/8h[8:1],
{4}1h[8:1]/7h[8:1],2h[8:1]/5h[8:1],4/5,1/5,
{4}3>8[8:1]/7<4[8:1],,1/5,3/7-4[8:1],
{8}2-6[8:1],,8h[4:1],,,1/8,2/7,,
{4}4V28[4:1]/8V64[4:1],,,2-5[8:1]/6,
{4}7-4[8:1],3-8[8:1],6-1[8:1],3>6[4:1],
{2}5,1b/8b,
{8}5/7,,4/5,4/5,,2pp6[8:5]/4,,8,
{4}8h[2:1],,,2/7,
{16}2/7,,,3/6,,,4/5,,4/5,,,,2b/7b,,,,
{8}6,6,5/7-1[8:1],,3-5[8:1],,6-2[8:1],,
{8}1,,2/8,2/8,,1/7,1/7,,
{8}3,3,2-8[8:1]/4,,6-4[8:1],,3-7[8:1],,
{8}8,,1/7,1/7,,2/8,2/8,,
{4}5>2[8:1]/6,8,3/4<7[8:1],1,
{4}5>2[8:1]/6,8,3/4<7[8:1],1,
{4}5p2[0.37974683544302934##1.2404783549105076]/6,(152),(146),(138),
(134){4},4/5,4/5,3/6,
{12}4/5,,4/5,,,6,5h[4:1]/7h[4:1],,,,,,
{12}4/5,,4/5,,,3,2h[4:1]/4h[4:1],,,,,,
{12}4/5,,4/5,,,6,5h[4:1]/7h[4:1],,,,,,
{12}4/5,,4/5,,,3,2h[4:1]/4h[4:1],,,,,,
{4}7<4[8:1]/8>3[8:1],,2/5,2/5,
{4}1<6[8:1]/2>5[8:1],,4/7,4/7,
{2}7<4[8:1]/8>3[8:1],1<6[8:1]/2>5[8:1],
{4}4/5,1/8,2/7,2/7,
{4}2V83[0.4477611940298516##1.3555555555555543]/6V47[0.4477611940298516##1.3555555555555543],(120),(108),(100),
(84){16},,,2V41[16:5]/7V58[16:5],,,,,,,,,,,,,
(152){16}7/8,,,1/6,,,2/5,,1/2,,,3/8,,,4/7,,
(158){4}5/6<1[8:1],5v2[8:1],6,7,
{8}4/8<3[4:1],,1h[4:1],,,1,2/4v7[8:1],,
{4}3>8[8:1],4v7[8:1],3,2,
{8}1>6[4:1]/5,,8h[4:1],,,1/8,2/7,,
{4}3/6-4[8:1],1,3-5[8:1]/6,8<1[2:1],
{4}1,,,3/6,
{4}2-5[8:1],6-1[8:1],3-8[8:1],5<4[2:1],
{4}4,,,4/8,
{4}2>5[8:1]/6<1[8:1],,4/8,2-5[8:1]/6,
{8}7-3[8:1],,1h[4:1],,,1/8,2/7,,
{4}2/6,3-6[8:1]/7-2[8:1],,1p4[8:1]/8<5[8:1],
{4},1>4[8:1]/8q5[8:1],,6<3[8:3],
{2}4,1b/8b,
{8}2/4,,4/5,4/5,,5/7qq3[8:5],,1,
{8}1h[2:1],,,,,,2/7,2/7,
{8},4h[8:1]/6h[8:1],,3h[8:1]/5h[8:1],,,,,
{8}5,5,4,6,4,4,5,3,
{8}5,5,4,6,4,4,3/5,,
{8}4,4,5,2,5,5,4,7,
{8}4,4,5,2,5,5,4/6,,
{8}3-5[8:1],3,8,7,6-4[8:1],6,1,2,
{8}3-5[8:1],3,8,7,7/8,1/6,2/5,,
{8}6-4[8:1],6,1,2,3-5[8:1],3,8,7,
{8}6-4[8:1],6,1,2,1/2,3/8,4/7,,
(133){4}2h[4:1],4h[4:1],5h[4:1],7h[4:1],
(120){4}5h[4:1],4h[4:1],2<3[2:3],,
{1},
{1},
{1},
{1},
E
&inote_6=
(158){1},
{1},
{2}8q4[8:1]*v5[8:1],1q5[8:1]*v6[8:1],
{8}2q6[8:1]*v7[8:1],,,,8,7,1/6,,
{2}1>4[8:1]*q5[8:1],1q5[8:1]*v6[8:1],
{8}1q6[8:1]*v7[8:1],,,,8b,8b,1b/7b,,
{16}8,,4,,6,5,6,,1,,5,,3,4,3,,
{8}8<5[8:1],4>1[8:1],,,5,4,3/6,,
{16}1,,5,,3,4,3,,8,,4,,6,5,6,,
{8}2<8[8:1],4<6[8:1],,,8,1,2/7,,
{16}1,,8,,7,5,7,,8,,1,,2,4,2,,
{8}1/8,7,1/8,2,1b/8b,1b/8b,2b/7b,,
{16}8,,1,,2,4,2,,1,,8,,7,5,7,,
{8}1/8,2,3/4,5,4/6,3/7,2/8,,
{8}1v6[8:1]/7>1[8:1],1/7,,,8,7,1/6,,
{8}4v7[8:1]/6>4[8:1],4/6,,,8,1,2/7,,
{8}3<5[8:1]/5v2[8:1],3/5,,,1,8,2/7,1h[8:1],
(150){12}8h[3:1],,,,7h[3:1],,,,6h[4:1],,,5h[4:1],
{12},,4h[4:1],,,3h[4:1],,,2h[4:1],,,1>7[0.3864978902953595##0.8860759493670862],
(158){8},,,8h[2:1],,,,,
{4}8b,1b/8b,1b/8bw4[8:1],8b,
{4}7b<4[8:1]*p3[8:1],7b,7b<4[8:1]*p3[8:1],7b,
{8}7,6-1[8:1],5,2,,2,3/8,,
{4}2b>5[8:1]*q6[8:1],2b,2b>5[8:1]*q6[8:1],2b,
{8}2,3-8[8:1],4,7,,7,1/6,2,
{8}1<6[8:1]/3,,3-8[8:1],3,,5,,7,
{8}6>3[8:1]/8,1,2-5[8:1]*-6[8:1],,,,4/7,,
{8}2/5,6,4/7,3,2/5,3<2[8:5],6,7h[8:5],
{4},,,3/8,
{4}2b>5[8:1]*q6[8:1],2b,2b>5[8:1]*q6[8:1],2b,
{8}7,6-1[8:1],5,2,,2,3/8,,
{4}7b<4[8:1]*p3[8:1],7b,7b<4[8:1]*p3[8:1],7b,
{4}7/8v2[8:1],8p4[8:1],8v3[8:1],8<4[4:1],
{8}8,,,1,1q5[8:1]*v6[8:1],,,,
{8}7>2[8:1],,3,3<6[8:1],,7,,8,
{1}1>7[2:1]/7<1[2:1],
{16}5/6,,,2/4,,,4/7,,5h[8:1]/6h[8:1],,,,3/8,,,,
{4}8bp4[8:1]*q4[8:1],8b,1bp5[8:1]*q5[8:1],1b,
{8}6h[4:1],,8>4[4:1],8,,,8,7,
{4}1bpp1[4:1]/6b,8b,8bqq8[4:1],1b,
{8}3h[4:1],,1<5[4:1],1,,4,3,2,
{8}1/7,8,1/3,1h[8:3]/3h[8:3],,,,,
{8}2/8,1,6/8,6/8,,3/4,,7/8,
{4}1qq4[0.37974683544302934##1.2404783549105076]/6pp4[0.37974683544302934##1.2404783549105076],(152),(146),(138),
(134){4},4-8[8:1],4b,,
{12}3/8,,1/2,1qq7[8:1]/2pp4[8:1],,,1/2,,,3/8,,,
{12}3q6[3:1]/4,,3,4,,,7b,,,1/8,,,
{12}1/6,,7/8,7qq5[8:1]/8pp2[8:1],,,7/8,,,1/6,,,
{12}6-1[8:1],,6,5-2[8:1],,,1,,,3/8,,,
{12}5/6,,4,3/5,,6,5/7,,2,1/3,,,
{12}7/8,,1,2/8,,7,6/8,,3,2/4,,,
{12}7-4[8:1],,7,1-5[8:1],,1,8,,8,1,,,
{1}1/8w4[16:7],
{12}3-8[0.4477611940298516##0.25]/5,,3,(120)5-1[0.5##0.27777777777777146],,5,(108)4,,4,(100)5,,,
(84){24}4pp6[2:1]/5qq3[2:1],,,,,4b/5b,,,,,,,,,,,,,,,,,,,
(152){4}2b-4[8:1]/7b-5[8:1],2b/7b,2b-5[8:1]/7b-4[8:1],2b/7b,
(158){4}1b-5[8:1]/2b-4[8:1],1b/2b,1bq5[8:1]/2b>4[8:1],1b/2b,
{8}2,4-8[8:1],5,8,,7,1/6,,
{4}7b-5[8:1]/8b-4[8:1],7b/8b,7b<5[8:1]/8bp4[8:1],7b/8b,
{8}7,5-1[8:1],4,1,,2,3/8,7,
{8}6/8>3[8:1],,4-8[8:1],4,,5,,2,
{8}1/3<6[8:1],8,7-2[8:1]*-4[8:1],,,,1/5,,
{8}4/7,3,2/6,7,4/8,6>8[2:1],3,2h[8:5],
{4},,,1/6,
{4}7b<5[8:1]/8bp4[8:1],7b/8b,7b<4[8:1]/8bp3[8:1],7b/8b,
{8}7,5-1[8:1],4,1,,2,3/8,,
{4}1bq5[8:1]/2b>4[8:1],1b/2b,1bq6[8:1]/2b>5[8:1],1b/2b,
{4}1v6[6:1]*v7[6:1],1>4[6:1]*q5[6:1],1v6[6:1]*v7[6:1],1>4[6:1]*q5[6:1],
{8},,,8,8q4[8:1]*v5[8:1],,,,
{8}3>8[8:1],,7,7<4[8:1],,8,,1,
{8}3>5[2:1]/5<3[2:1],,,,,,,4qq2[8:1],
{8}5,4q1[4:1]*V68[4:1],,,,,,,
{16}2,,3,,6,5,6,,7,,6,,3,4,3,,
{8}2,1,7,8,1,1,2/8,,
{16}7,,6,,3,4,3,,2,,3,,6,5,6,,
{8}7,8,2,1,8,8,1/7,,
{16}1/2,,3,,6,5,6,,7/8,,6,,3,4,3,,
{8}1/2,5,7/8,4,1/2,1/2,3/8,,
{16}7/8,,6,,3,4,3,,1/2,,3,,6,5,6,,
{8}7/8,4,1/2,5,7/8,7/8,1/6,,
(133){4}1h[4:1],2h[4:1],3h[4:1],4h[4:1],
(120){4}5,6/7,1s5[4:7]/8h[1:2],,
{1},
{1},
{1},
{1},
E
