&title=ヒビカセ
&wholebpm=140
&artist=GigaReol
&des=サファ太
&shortid=510
&genre=niconicoボーカロイド
&cabinet=SD
&version=maimai MiLK PLUS
&chartconverter=Neskol
&lv_2=4
&des_2=-
&lv_3=7+
&des_3=-
&lv_4=11
&des_4=はっぴー
&lv_5=13
&des_5=サファ太
&des_6=
&inote_2=
(140){1},
{2}1,1,
{4}1,1,1,,
{2}8,8,
{4}8,8,8,,
{2}1,1,
{4}1,1,1,,
{2}8,8,
{1}1b/8b,
{2}1,1,
{2}2,2,
{2}3,3,
{1}4h[2:1],
{2}5,5,
{2}6,6,
{2}7,7,
{2}8,1/8,
{4}8,8,8,,
{4}7,7,7,,
{4}6,6,6,,
{4}5,5,4/5,,
{4}4,4,4,,
{4}3,3,3,,
{1}2h[2:1],
{4}1,1,1/8,,
{2}1/2,1/2,
{4}3,3,3,,
{2}3/4,3/4,
{4}5,4,5,,
{2}5/6,5/6,
{4}7,7,7,,
{2}7/8,7/8,
{4}1,1,8,8b,
{4}1,1,1,,
{4}8,8,8,,
{4}7,7,7,,
{1}5h[2:1]/6h[2:1],
{4}4,4,4,,
{4}3,3,3,,
{1}2h[2:1],
{4}1/8,1/8,2b/7b,,
{4}8,8,8,,
{4}1,1,1,,
{4}2,2,2,,
{1}3h[2:1]/4h[2:1],
{4}5,5,5,,
{4}6,6,6,,
{1}7h[2:1],
{4}8,8,1,1b,
{1}8-5[4:3],
{1},
{1}1-4[4:3],
{1},
{1}7-4[4:3],
{1},
{1}2-5[4:3],
{1},
{1}8b,
{4}1,1,1,,
{4}2,2,2,,
{4}3,3,4,4,
{4}5,4,5,,
{4}6,6,6,,
{4}7,7,7,,
{4}1/8,1/8,1/8,,
{4}8,8,1,1,
{4}8,8,8,,
{4}7,7,7,,
{4}6,6,5,5,
{4}4,5,4,,
{4}3,3,3,,
{4}2,2,2,,
{4}1/8,1/8,1/8,,
{4}8,8,1,1b,
{1}8h[1:1],
{1},
{1}7h[1:1],
{1},
{1}6h[1:1],
{1},
{2}4/5,4/5,
{4}4,4,5,5,
{1}3b/6b,
{1},
{1},
{1},
E
&inote_3=
(140){1},
{2}5,4,
{4}3,4,3,,
{2}4,5,
{4}6,5,6,,
{2}2,1,
{4}8,1,8,,
{2}7/8,1/2,
{1}1b-4[8:3]/8b-5[8:3],
{4}3,3,4,4,
{4}5,6,4/7,,
{4}6,6,5,5,
{4}4,3,2/5,,
{4}2,2,1,1,
{4}8,7,1/6,,
{4}7,7,8,8,
{4}1,2,3b/8b,,
{4}4,3,4,3/4,
{4}5,6,5,5/6,
{4}4,3,4,3/5,
{4}5,6,5,4/6,
{4}8,7,8,7/8,
{4}1,2,1,1/2,
{4}8,7,8,1/7,
{1}1-5[8:3]/8-4[8:3],
{4}5,3/4,5,3/4,
{4}5,2/4,5,2/4,
{4}4,5/6,4,5/6,
{4}4,5/7,4,5/7,
{4}8,1/2,8,1/2,
{4}8,1/3,8,1/3,
{4}1,7/8,1,7/8,
{1}1z5[2:1],
{4}4,3,2/5,1/6,
{4}7/8,1/2,7/8,,
{4}5,6,4/7,3/8,
{4}1/2,7/8,1/2,,
{4}2,1,3/8,4/7,
{4}5/6,3/4,5/6,,
{4}1/2,3/8,7/8,1/6,
{4}1/8,1/8,2h[4:1]/7h[4:1],,
{4}7,8,1/6,2/5,
{4}3/4,5/6,3/4,,
{4}6,5,4/7,3/8,
{4}1/2,7/8,1/2,,
{4}1,2,3/8,4/7,
{4}5/6,3/4,5/6,,
{4}1/2,3/8,7/8,1/6,
{4}4/5,4/5,3h[4:1]/6h[4:1],,
{2}4h[2:3]/5,5,
{2}5,5,
{2}4/5h[2:3],4,
{2}4,4,
{2}1h[2:3]/8,8,
{2}8,8,
{2}1/8h[2:1],1,
{4}1b,8b,1b,1b/8b,
{1}2b/7b,
{4}4,3,2/5,1/6,
{4}7/8,1/2,7/8,,
{4}5,6,4/7,3/8,
{4}1/2,7/8,1/2,,
{4}2,1,3/8,4/7,
{4}5/6,3/4,5/6,,
{4}1/2,3/8,7/8,1/6,
{4}1/8,1/8,2h[4:1]/7h[4:1],,
{4}1/8,1/8,2/7,3/6,
{4}4/5,7/8,4/5,1/2,
{4}4/5,4/5,3/6,2/7,
{4}1/8,5/6,1/8,3/4,
{4}1/8,1/8,2/7,3/6,
{4}4/5,1/2,4/5,7/8,
{4}1/2,3/8,7/8,1/6,
{4}4/5,4/5,3h[4:1]/6h[4:1],,
{4}6,5,6,5/6,
{4}3/4,2h[4:1],1h[4:1],8h[4:1],
{1}7pp4[8:5],
{4}3,4,3,3/4,
{4}6,5,6,5/7,
{4}3,4,3,2/4,
{4}4/5,5/6,4/5,3/4,
{4}4/5,4/5,3/6,2/7,
{1}1b/8b,
{1},
{1},
{1},
E
&inote_4=
(140){1},
{1},
{1},
{1},
{4},,,6b,
{4}4h[2:1],5,5h[2:1],4,
{4}3h[2:1],5,6h[2:1],4,
{4}3h[2:1],4,6h[4:1],5,
{4}2h[2:1]/7h[2:1],,,1/8,
{8}5h[4:5]/6,,6,6,7,,7,,
{4}6,6V82[4:1],,,
{8}3/4h[4:3],,3,3,2,,2z6[2:1],,
{4},,,4/5,
{8}3/4h[4:5],,3,3,2,,2,,
{4}3,3V17[4:1],,,
{8}5h[4:3]/6,,6,6,7,,7s3[2:1],,
{4},,,4/5,
{8}3h[4:1]/4,5,6h[4:1],,8,,5/6,,
{8}3h[4:1]/4,5,6h[4:1],,8,,4/6,,
{8}3h[4:1]/4,5,6h[4:1],,8,,4/7,,
{4}3/4,1<6[4:1]/2>5[4:1],,,
{8}5/6h[4:1],4,3h[4:1],,1,,3/4,,
{8}5/6h[4:1],4,3h[4:1],,1,,3/5,,
{8}6,6,4,3h[2:1],,,,1,
{1}1s5[2:1],
{8}3h[4:1]/6,,4,5,3h[4:1]/6,,4,5,
{4}3/6-3[4:1],,1,4>1[4:1]/5,
{4},5<8[4:1],,4>1[4:1],
{4},5,8,4/5,
{8}3/6h[4:1],,5,4,3/6h[4:1],,5,4,
{4}3-6[4:1]/6,,8,2-7[4:1]/5,
{4},6-3[4:1],,1>8[2:1],
{4},,,2b/7b,
{8}8b,8,1-3[8:1]/7,,8-4[8:1],,1,,
{8}1,1,2/8-6[8:1],,1-5[8:1],,8,,
{8}8,8,1/7-4[8:1],,1-6[8:1],,8,,
{8}1,1,2/8,,4/5,,2/6,,
{4}3/8,1-6[8:1]/2-5[8:1],,8,
{4}1/6,7-4[8:1]/8-3[8:1],,1,
{4}1/2,4/7,7/8,2/5,
{8}1/8,,2/7,,4/5,4/5,3/6,,
{8}1b,1,2/8-4[8:1],,1-5[8:1],,7,,
{8}8,8,1-5[8:1]/7,,8-4[8:1],,2,,
{8}1,1,2/7-4[8:1],,2-5[8:1],,7,,
{8}8,8,1/7,,4/5,,3/7,,
{4}1/6,7<4[4:1]/8>3[4:1],,,
{8}7/8,,1/2,,3/4,,6,6,
{8}5/7,,5,3,2/4,,1/8,,
{8}1/8,,4/5,,2/6,3/7,4/8,,
{2}2b/7b,5,
{2}5,4/5,
{2}4,4,
{4}4,,4/5,3b,
{4}2h[2:3]/4,4,5,5,
{4}4,4,4,3/5,
{4}5/7h[2:3],5,4,4,
{8}5,,5,,5,5,4,,
{4}2h[2:1]/7h[2:1],,,2b/7b,
{8}6b,6,5/7-3[8:1],,1-5[8:1],,8,,
{8}3,3,2-6[8:1]/4,,8-4[8:1],,1,,
{8}6,6,5/7-3[8:1],,2-6[8:1],,8,,
{8}7,7,6/8,,5/6,,3/7,,
{4}2/5,7-4[8:1]/8-3[8:1],,1,
{4}4/7,1-6[8:1]/2-5[8:1],,8,
{4}7/8,5/6,3/4,1/2,
{8}1/8,1/8,2/7,2/7,3/6,,2/7,,
{8}3b,3,2-6[8:1]/4,,8-4[8:1],,1,,
{8}6,6,5/7-3[8:1],,1-5[8:1],,8,,
{8}3,3,2-6[8:1]/4,,7-3[8:1],,1,,
{8}2,2,1/3,,3/4,,2/6,,
{4}4/7,1<6[4:1]/2>5[4:1],,,
{8}1/2,,7/8,,5/6,,3,3,
{8}2/4,,4,6,5/7,,1/8,,
{8}1/8,,4/5,,3/7,2/6,1/5,,
{8}7h[4:3]/8,,5,5,5,,8,,
{4}5/6,7h[4:1],5h[4:1],4h[4:1],
{4}2h[2:1],,7,4/5,
{8}6,6,5/7,,3,3,2h[4:1]/4,,
{8}1,,2h[2:1]/4,4,4,,1,,
{4}3/4,2h[4:1],4h[4:1],5h[4:1],
{2}7-3[4:1],2-6[4:1],
{8}8,,7,,5/6,5/6,4/7,,
{2}3h[4:1]/4h[4:1],3-6[8:1]/4,
{1},
{1},
{1},
E
&inote_5=
(140){1},
{8}4,,,4,4,,,4,
{8},4,,4,4h[1:2],,,,
{8}5,,,5,5,,,5,
{8},5,,5,5,,3b/6b,,
{8}2/4,,,2/4,2/4,,,2/4,
{8},2/4,,2/4,2h[8:15]/4,,,,
{8}7,,,7,7,,,7,
{8},7h[4:1],,,2-5[8:1]/7-4[8:1],,,,
{8}3,,3h[4:1]/4,5,4<6[8:1],,3,,
{8}4,,4h[4:1]/5,6,5<7[8:1],,4,,
{8}5,,5/6h[4:1],7,5>3[8:1],,5pp4[8:3]/6,,
{8},,,,3,3,4,5,
{8}6,,5/6h[4:1],4,5>2[8:1],,6,,
{8}3,,3h[4:1]/4,5,4<7[8:1],,3,,
{8}6,,5/6h[4:1],7,5-1[8:1],,6,,
{8}8,8,1,1,2/7,4/5,,,
{8}6,6,5-3[8:1]/7,6,7-5[8:1],,2,2,
{8}3,3,2/4-6[8:1],3,2-4[8:1],,7,7,
{8}6,6,5-2[8:1]/7,6,7-5[8:1],,1,1,
{16}2,,2,,1/2h[4:1],,,,4,,,4/5,,,5/7,,
{8}7,7,6/8-3[8:1],7,6-8[8:1],,3,3,
{8}2,2,1-6[8:1]/3,2,3-1[8:1],,6,6,
{8}5,4<8[8:3],3,2h[8:3],,,,1,
{16}2/4,,,4/5,,,5/7,,,,1/6,,1/6,,,,
{8}5h[4:3]/7,,6,6,7h[4:1],,,5-2[8:1]/7-4[8:1],
{8},,,1/5,1/5,,3/7,,
{8}5h[4:1]/6,,7,4/6,3/5h[4:1],,2,3/6,
{8}4h[4:1]/7,,8,3/7,2/6h[4:1],,5,,
{8}3/4h[4:3],,2,2,1h[4:1],,,1-5[8:1]/4-8[8:1],
{8},,,3/7,3/7,,1pp3[8:1]/5,1,
{8}5pp7[8:1],5,2pp4[8:1],2,6pp8[8:1],6,3,3,
{16}4/7,,1/6,,7/8,7/8,,5/6,,3/4,,2/5,2b/5b,,,,
{8}2/4-8[8:1],3,4/6,6,7/8-4[8:1],1,2/8,2,
{16}4/5,,6,,7/8,,6,,3,4,,2h[16:3]/5,,,8,,
{8}5-1[8:1]/7,6,3/5,3,1-5[8:1]/2,8,1/7,7,
{16}4/5,,3,,1/2,,3,,6,5,,4/7h[16:3],,,1,,
{8}2/4p8[8:1],3,4/6,6,7/8p4[8:1],1,2/8,2,
{16}4/5,,6,,7/8,,6,,4v1[8:1]/5-8[8:1],4/5,,,,,,,
{16}2h[16:3]/7,,,3,,,4/5,,3/6h[16:3],,,7,,,1/8,,
{16}2,,3/4,,6,5,,4/7h[16:3],,,8,,1b/6b,,,,
{16}5-8[8:1]/7,,4,,3/5,,2,,2,1,,1/6h[16:3],,,7,,
{16}6/8-4[8:1],,1,,2/8,,3,,3,4,,4/7h[16:3],,,8,,
{16}5-1[8:1]/7,,4,,3/5,,2,,2,1,,1/6h[16:3],,,5,,
{16}6/8p4[8:1],,1,,2/8,,3,,3,4,,4h[8:1]/7h[8:1],,,4/7,,
{8}6,5/7,4<8[16:3]/6,3/5,2,,,1,
{16}2/8,,3/7,,6,5,,2h[16:3]/5,,,1,,3/8,,4,,
{16}5/7h[16:3],,,8,,,1/6,,2h[16:3]/4,,,1,,,3/8,,
{16}5/6,,,3/4,,,1V38[4:1]/5V74[4:1],,4/8,,,,,,,,
{8}5,,,5,5,,,5,
{8},5,,5,5h[1:2],,,,
{8}4,,,4,4,,,4,
{8},4,,4,4,,3b/6b,,
{8}2h[4:1]/4h[4:1],,,2/4,2h[4:1]/4h[4:1],,,2/4,
{8},4/5,,5/7,5h[4:1]/7h[4:1],,,,
{8}5h[4:1]/7h[4:1],,,5/7,5h[4:1]/7h[4:1],,,4/6,
{4}3h[8:1]/5h[8:1],3h[8:1]/5h[8:1],2h[8:1]/6h[8:1],1h[8:1]/7h[8:1],
{4},,,2b/7b,
{8}5v8[8:1]/7,4,3/5,3,1v4[8:1]/2,8,1/7,7,
{16}3/5,,6,,1/7,,6,,3,4,,4/7h[16:3],,,8,,
{8}4v7[8:1]/6,3,2/4,2,1/8v3[8:1],7,6/8,6,
{16}2/4,,5,,6/8,,5,,3,4,,2h[16:3]/4,,,1,,
{8}3/5v2[8:1],6,5/7,7,1v6[8:1]/8,2,1/3,3,
{16}5/7,,4,,1/3,,4,,5v8[8:1]/6v1[8:1],5/6,,,,,,,
{16}2/7h[16:3],,,6,,,4/5,,3h[16:3]/6,,,2,,,1/8,,
{16}7,,5/6,,3,4,,2h[16:3]/5,,,1,,3b/8b,,,,
{16}2/4p8[8:1],,5,,4/6,,7,,7,8,,3h[16:3]/8,,,4,,
{16}1q5[8:1]/3,,8,,1/7,,6,,6,5,,2h[16:3]/5,,,3,,
{16}2/4V28[8:1],,5,,4/6,,7,,7,8,,3h[16:3]/8,,,4,,
{16}1V35[8:1]/3,,8,,1/7,,6,,6,5,,2h[8:1]/5h[8:1],,,2/5,,
{8}3,2/4,3/5>1[16:3],4/6,7,,,8,
{16}1/7,,2/6,,3,4,,4h[16:3]/7,,,5,,6/8,,5,,
{16}2h[16:3]/4,,,1,,,3/8,,5/7h[16:3],,,8,,,1/6,,
{16}3/4,,,5/6,,,4V25[4:1]/8V61[4:1],,1/5,,,,,,,,
{8}3b/7b-4[8:1],,8,8,2-5[8:1]/5,,1,1,
{4}4/8>3[8:1],5/8<5[8:1],4/8-4[8:1],4/8,
{8}2-5[8:1]/5,,1,1,4/7-4[8:1],,8,8,
{8}2/5,3,4/7,6,4/5,3,2-5[8:1]/4-7[8:1],,
{16}2/4,,,,1/8,,7,,5/6,,2,4,,7,5,,
{48}1/2h[16:3],,,,,,,,,4,,,,,,,,,5/7,,,,,,1,,8,,1,,8,,,2,,,7,,,,,,4/5,,,,,,
{16}2h[16:3]/4,,,1,,,3/8,,5/7h[16:3],,,8,,,1/6,,
{16}3/4,,,5/6,,,4V25[4:1]/8V61[4:1],,1/5,,,,,,,,
{16}4/8,,,2/6,,,1V36[4:1]/5V72[4:1],,4/8,,,,,,,,
{1},
{1},
{1},
E
