&title=ジンギスカン
&wholebpm=150
&artist=仁井山征弘 Feat. GREAT G and surprise
&des=はっぴー
&shortid=775
&genre=POPSアニメ
&cabinet=SD
&version=maimai MiLK PLUS
&chartconverter=Neskol
&lv_2=4
&des_2=-
&lv_3=7+
&des_3=-
&lv_4=10
&des_4=サファ太
&lv_5=13
&des_5=はっぴー
&des_6=
&inote_2=
(150){1},
{1},
{2}1,1,
{4}1,1,1,,
{2}8,8,
{4}8,8,8,,
{2}1,1,
{4}1,1,1,,
{2}8,8,
{4}8,8,8b,,
{1}1-4[4:3],
{1},
{1}5h[2:1],
{2}4,4,
{4}3,3,3,,
{2}2,2,
{4}1,8,1,,
{2}8,8,
{4}7,7,7,,
{2}6,6,
{4}5,4,5,,
{1}6h[2:1],
{1}7h[2:1],
{1}8h[2:1],
{1}1h[2:1],
{1}2h[2:1],
{1}3h[2:1],
{4}4,4,4/5,,
{4}5,5,4b/5b,,
{4}4,4,4,,
{4}4,4,4,,
{4}3,3,3,,
{4}3,3,3,,
{4}2,2,2,,
{4}2,2,2,,
{4}1,1,1,,
{4}1,1,1,,
{1}8-5[4:3],
{1},
{1}1-4[4:3],
{1},
{1}8-4[4:3],
{1},
{1}1-5[4:3],
{1},
{2}8,8,
{4}1,1,1b,,
{1}2h[2:1],
{4}2,2,2b,,
{1}3h[2:1],
{4}3,3,3b,,
{1}4h[2:1],
{4}4,4,4b,,
{1}5h[2:1],
{4}5,5,5b,,
{1}6h[2:1],
{1}7h[2:1],
{1}8h[2:1],
{1}1h[2:1],
{4}8,8,8,,
{4}1,1,1,,
{4}8,8,1/8,,
{4}1,1,1/8,,
{2}1b/8b,1b/8b,
{4}1/8,1/8,2b/7b,,
{1}1-4[4:3],
{1},
{1}8-5[4:3],
{1},
{1}2-5[4:3],
{1},
{1}7-4[4:3],
{1},
{1}4h[1:1]/5h[1:1],
{1},
{4}4,4,4,,
{4}4,4,4,4b,
{4}3,3,3,,
{4}3,3,3,3b,
{4}2,2,2,,
{4}2,2,2,2b,
{4}1,1,1,1,
{4}8,8,8,1b/8b,
{1},
{1},
{1},
E
&inote_3=
(150){1},
{1},
{1}1h[2:3]/8h[2:3],
{1},
{1}7h[2:1]/8h[2:1],
{1}1h[2:1]/2h[2:1],
{1}5h[2:1]/6h[2:1],
{1}3h[2:1]/4h[2:1],
{4}5,5,4,4,
{4}4/5,3/6,2/7,1b/8b,
{1}1-4[2:1]/8-5[2:1],
{4}6,5,4,5,
{4}3,4,5,4b,
{4}6,5,4,5,
{4}6,5,4/5,,
{4}3,4,5/6,,
{4}6,5,3/4,,
{4}2,1,7/8,,
{4}7,8,1/2,,
{4}3,4,4/5,,
{4}3b/6b,,4/5,4/5,
{4}3,4,3/4,3/4,
{4}6,5,5/6,5/6,
{4}7,8,1,2,
{4}1/8,1/8,2b/7b,,
{4}7,8,7/8,7/8,
{4}2,1,1/2,1/2,
{4}3,4,5,6,
{4}4/5,4/5,3b/6b,,
{8}1/2,,7/8,,1,1,1b,,
{8}7/8,,1,1,1,,8b,,
{8}7/8,,1/2,,8,8,8b,,
{8}1/2,,8,8,8,,1b,,
{8}3/4,,5/6,,4,4,4b,,
{8}5/6,,4,4,4,,5b,,
{8}5/6,,3/4,,5,5,5b,,
{8}4,4,4,,4/5,,3/6,,
{1}3-8[2:1],
{1}7-4[2:1],
{1}2-5[2:1],
{1}6-1[2:1],
{1}3-8[2:1]/4-7[2:1],
{1}5-2[2:1]/6-1[2:1],
{1}1-4[2:1]/8-5[2:1],
{4}4/5,4/5,3/6,,
{2}3h[2:1],4h[2:1],
{4}5h[2:1],,6,5b/6b,
{4}3,4,3,3/4,
{4}6,5,6,5/6,
{4}3,3,4,3/5,
{4}6,6,5,4/6,
{4}2,1,2,1/2,
{4}7,8,7,7/8,
{4}2,2,1,2/8,
{4}7,7,8,1/7,
{4}3h[4:1],4,2/5,,
{4}6h[4:1],5,4/7,,
{4}2h[4:1],1,3/8,,
{4}7h[4:1],8,1/6,,
{4}3h[4:1],4,5/6,,
{4}6h[4:1],5,3/4,,
{4}2h[4:1],1,7/8,,
{4}7h[4:1],8,1/2,,
{2}7h[4:1]/8h[4:1],1h[4:1]/2h[4:1],
{4}1/8,1/8,2b/7b,,
{2}6h[2:1],5h[2:1],
{2}4h[2:1],3,
{2}3h[2:1],4h[2:1],
{2}5h[2:1],6,
{2}7h[2:1],8h[2:1],
{2}1h[2:1],2,
{2}2h[2:1],1h[2:1],
{2}8h[2:1],7,
{1}5>2[2:1]/6<1[2:1],
{1}1b/2b,
{8}1/2,,3/8,,7,7,7b,,
{8}7/8,,1,1,1,,8b,,
{8}7/8,,1/6,,2,2,2b,,
{8}1/2,,8,8,8,,1b,,
{8}3/4,,2/5,,6,6,6b,,
{8}5/6,,4,4,4,,5b,,
{8}3/4,,5/6,,4,4,4,,
{8}4/5,4/5,4/5,,3/6,,2b,,
{1},
{1},
{1},
E
&inote_4=
(150){1},
{1},
{1}2b/7b,
{1},
{1}2b/4b,
{1}5b/7b,
{4}6,6,5/6,6,
{4}3,3,3/4,,
{4}5/6,4/5,3/4,2,
{4}3/4,4/5,5/6,7,
{4}1/8,2/7,3/6,4/5,
{8}6h[2:1],,,5,5,,4/5,,
{8}3h[2:1],,,4,4,,2b/5b,,
{4}3,4,5/6,4/7,
{4}6,5,3/4,2/5,
{8}3/4h[2:1],,2,,1,1,1,,
{8}5h[2:1]/6,,7,,8,8,8,,
{8}1/2h[2:1],,3,,4,4,4,,
{8}7h[2:1]/8,,6,,5,5,5,,
{8}4/5,,3/6,,1/8,1/8,1/8,,
{2}2-4[8:1]/7-5[8:1],2b/7b,
{4}6h[4:3],5,4,5,
{4}3h[4:3],4,5,4,
{4}5/6h[2:3],4,5,3,
{4}5,2,5,4/7,
{4}2h[4:3],1,3,1,
{4}7h[4:3],8,6,8,
{4}1/8,2/4,5/7,1/8,
{8}2h[4:1]/7h[4:1],,,,2/7,2/7,2b/7b,,
{8}6,6,5/7,,3,3,2/4,,
{8}7,7,4,4,5h[4:1],,1b,,
{8}2,2,4,,7,7,5,,
{8}2,2,5,5,4h[4:1],,8b,,
{8}6,6,5/7,,3,3,2/4,,
{8}7,7,4,4,5h[4:1],,1b,,
{8}3/4,3/4,3/4,,5/6,5/6,5/6,,
{8}3/6,3/6,3/6,,4b/5b,4b/5b,4b/5b,4b/5b,
{4}4/5<8[4:1],,,1/8,
{4}1p4[4:1]/2,,,3/4,
{4}5p8[4:1]/6,,,7/8,
{4}1/2,3/4,2b/5b,,
{4}7q4[4:1]/8>3[4:1],,,5/6,
{4}7<4[4:1]/8p3[4:1],,,3/4,
{4}1q6[4:1]/2>5[4:1],,,1/8,
{4}3/6,4/5,2b/7b,,
{4}5/6h[2:1],7,5,4/5,
{4}3h[2:1]/4,2,4,1b/8b,
{8}2/7-5[8:1],,,,3,3,3/4,,
{8}2-4[8:1]/7,,,,6,6,5/6,,
{8}2/7-4[8:1],,,,3,3,3/4,,
{8}2-5[8:1]/7,,,,6,6,5/6,,
{8}2h[4:1]/4h[4:1],,,,8,8,1/8,,
{8}5h[4:1]/7h[4:1],,,,1,1,1/8,,
{8}3h[4:1]/4h[4:1],,,,7,7,7/8,,
{8}5h[4:1]/6h[4:1],,,,2,2,1/2,,
{8}6h[4:1],,7h[4:1],,8,8b,8b,8b,
{8}3h[4:1],,2h[4:1],,1,1b,1b,1b,
{8}5h[4:1],,7h[4:1],,8,8b,8b,8b,
{8}4h[4:1],,2h[4:1],,1,1b,1b,1b,
{8}7h[4:1],,5h[4:1],,4,4b,4b,4b,
{4}2h[4:1],4h[4:1],5b-1[8:1],,
{8}7h[4:1],,5h[4:1],,1,1b,1b,1b,
{8}2h[4:1],,4h[4:1],,8,8b,8b,8b,
{2}1/7b-4[8:1],2b-5[8:1],
{4}7b>4[4:1],,,1b/8b,
{4}4/7h[4:1],5,2h[4:1]/5,4,
{4}3/7h[4:1],5,2h[4:1]/6,4,
{4}5/7h[4:1],6,2h[4:1]/4,3,
{4}1/8<4[4:1]*p4[4:1],,,2/5,
{4}3/6h[4:1],5,3h[4:1]/6,4,
{4}4/7h[4:1],6,2h[4:1]/5,3,
{4}5/7h[4:1],8,2h[4:1]/4,1,
{4}1/8,6/7,4/5,2/3<1[4:3],
{1},
{1}2b/7b,
{8}3,4,2/5,,6,5,4/7,,
{8}2,2,5,5,4-1[8:1],,8b,,
{8}6,6,7/8,,3,3,1/2,,
{8}7,7,4,4,5-8[8:1],,1b,,
{8}2,1,3/8,,7,8,1/6,,
{8}2/7,2/7,1/8,1/8,1b-3[8:1]/8b-6[8:1],,,,
{8}5/6,5/6,5/6,5/6,4/5,4/5,4/5,4/5,
{8}3/4,3/4,3/4,3/4,3b/4b-1[4:1]*-7[4:1],,,,
{1},
{1},
{1},
E
&inote_5=
(150){1},
{1},
{8}1,1,1,1,1,1,1,,
{8}8,8,8,8,8,,,,
{8}2/6h[4:3],2,2,2,2,2,2,,
{16}1h[2:1]/5,,5,,5,,5,,5,,3,4,3,,6,,
{8}3/7h[4:3],3,3,3,3,3,3,,
{8}1/6,6,6,6,4/6,,,,
{8}5,4,3/5,4/6,3/5<8[8:1],2,1,,
{8}4/6,3/5,4>1[8:1]/6,7,8,,2/7,,
{16}3,,3,,6,,6,,1s5[4:1],8,1,8,,,,,
{8}8h[4:1],,5-1[8:1],5,6,,3/7,6,
{4}1>8[4:1]/5,8,1,2b/7b,
{8}1/6,1,4,4,5<8[8:1],5,1h[4:1],,
{8}8<5[8:1],8,4pp4[4:1]*qq4[4:1],4,,,,,
{8}2/5,3,4>1[8:1]/7,8,7,6,1/5,,
{8}2h[4:1]/4,4,5<8[8:1],5,2,3,4w8[8:1]/8,,
{8},,4>1[8:1]/7,8,7,6,1/5,,
{8}4h[8:1]/7h[8:1],,2/5<8[8:1],1,2,3,4/8<5[8:1],,
{8}2,3,4>1[8:1]/7,8,7,6,1/5,,
{8}2/7,3,5p3[8:3]/6,,8h[4:1],,,,
{8}4p5[4:1]/5,6,5<4[4:1]*q4[4:1],,,,,,
{8}4/5q4[4:1],3,4>5[4:1]*p5[4:1],,,,,,
{4}2v7[4:1],7>2[4:1],2q7[4:1],7>2[4:1],
{8}2V46[4:1],,7,7,8,,2/7,,
{8}7p8[4:1]/8,1,8>7[4:1]*q7[4:1],,,,,,
{8}1/2q1[4:1],8,1<2[4:1]*p2[4:1],,,,,,
{8}4-1[8:1]/8,4,5-8[8:1],5,4-2[8:1],4,5-7[8:1],5,
{8}4-8[8:1],4,5-1[8:1],5,4,4,3/7,,
{8}2-6[8:1]/8,8,2b/8,8,8,1/7,2/6,,
{8}5/7,8,1,2/4,4-1[8:1]/5>2[8:1],,4b/5b,,
{8}8,8,4,4,6<1[8:1],6,4,,
{8}2/4,1,8,5/7,4-1[8:1]/5>2[8:1],,4b/5b,,
{8}1/6-2[8:1],1,1/6b,1,1,2/8,3/7,,
{8}2/4,1,8,5/7,4-1[8:1]/5>2[8:1],,4b/5b,,
{8}4,5,4/6,3/5,4>1[8:1]/6,7,8,,
{8}3/5,4/6,3/5,2,1b,1b,2b,2b,
{4}3/5-7[8:1],2-4[8:1]/5,2/5<8[8:1],2-4[8:1]/5,
{4}2/5-7[8:1],2pp1[8:3]/5,2/5,8,
{4}3/5-7[8:1],2-4[8:1]/5,2/5<8[8:1],2/5,
{8}4/7,,2-6[8:1]/5,6,2/7h[4:1],,8,,
{4}4-2[8:1]/6,4/7-5[8:1],4>1[8:1]/7,4/7-5[8:1],
{4}4-2[8:1]/7,4/7qq8[8:3],4/7,1,
{4}4-2[8:1]/6,4/7-5[8:1],4>1[8:1]/7,4/7,
{4}2/5,4/7-3[8:1],2h[4:1]/7,1,
{4}4/5,3/4,4/5,5V72[2:1]/6h[4:3],
{4},,,1b,
{8}8,8,3/7,8,8,8,3/7,,
{8}4/8h[4:3],4,6,4,4,4,2,,
{8}8,8,3/7,8,8,8,3/7,,
{8}3/6h[4:3],3,5,3,3,3,1,,
{8}1h[4:1]/5,5,6,6,4>2[8:1]/7,7,8,,
{8}5,5,3,3,6,6,2/7,,
{8}2h[4:3]/4,4,6,6,4,4,8,,
{8}4,4,6,6,3,3,2/7,8,
{8}2-5[8:1],7-3[8:1],2,7,1,3b/4b,2b/3b,1b,
{8}7-4[8:1],2-6[8:1],7,2,8,5b/6b,6b/7b,8b,
{8}1-5[8:1],6-2[8:1],1,6,1,3b/4b,2b/3b,1b,
{8}8-4[8:1],3>1[8:1],8,3,8,5b/6b,6b/7b,8b,
{8}3-8[8:1],6-2[8:1],3,6,1,3b/4b,2b/3b,1b,
{8}6-1[8:1],3-7[8:1],6,3,8w4[8:1],,,,
{8}3>8[8:1],7<4[8:1],3,7,1,3b/4b,2b/3b,1b,
{8}6<1[8:1],2>5[8:1],6,2,8,5b/6b,6b/7b,8b,
{8}2-5[8:1]/6,7,2/8,8b,3/7-4[8:1],2,1/7,1b,
{8}2/7,3/6,4>1[8:1]/5<8[8:1],4/5,,,3bqq6[2:1]/7b,,
{4}5,6pp3[2:1],4,3qq6[2:1],
{4}5,6pp3[2:1],4,3qq6[2:1],
{4}5,6pp3[2:1],4,3qq6[2:1],
{4}5,6pp3[2:1],4,3qq6[2:1],
{4}5,6pp3[2:1],4,3qq6[2:1],
{4}5,6pp3[2:1],4,3qq6[2:1],
{4}5,6pp3[2:1],4,3qq6[2:1],
{4}5,6pp3[2:1],4,3qq6[2:1],
{4},8<1[4:1],,,
{4}2b/7b,,2-6[8:1]/4,2b/8b,
{8}1/7-3[8:1],1,1/7b,1,1/2,3/4,4/7,,
{8}2/4,1,8,5/7,4-1[8:1]/5>2[8:1],,4b/5b,,
{8}1,1,5,5,3>8[8:1],3,5,,
{8}5/7,8,1,2/4,4-1[8:1]/5>2[8:1],,4b/5b,,
{8}3-7[8:1]/8,8,3b/8,8,7/8,5/6,2/5,,
{8}5/7,8,1,2/4,4-1[8:1]/5>2[8:1],,4b/5b,,
{16}4/5,,4/5,,3,5,3,5,4,6,4,6,3,5,3,5,
{16}3<6[8:1],6,3,6,3,,,,4-1[8:1]*-7[8:1],,,,,,,,
{1},
{1},
{1},
E
