&title=にめんせい☆ウラオモテライフ!
&wholebpm=170
&artist=土間うまる(田中あいみ)「干物妹!うまるちゃんR」
&des=緑風 犬三郎
&shortid=729
&genre=POPSアニメ
&cabinet=SD
&version=maimai MiLK PLUS
&chartconverter=Neskol
&lv_2=4
&des_2=-
&lv_3=6
&des_3=-
&lv_4=9
&des_4=サファ太
&lv_5=10+
&des_5=緑風 犬三郎
&lv_6=11+
&des_6=LabiLabi
&inote_2=
(170){1},
{1},
{1}1,
{1}2,
{1}3,
{1}4/5,
{1}5,
{1}6,
{1}7,
{1}1/8,
{1}1b/8b,
{2}7,7,
{1}7,
{2}8,8,
{1}8,
{2}1,1,
{1}1,
{2}2,2,
{1}2,
(270){1},
(225){1}1h[1:1],
{1},
{1}2h[1:1],
{1},
{1}3h[1:1],
{1},
{1}4h[1:1],
{1},
(170){1},
{2}5,5,
{1}5,
{2}6,6,
{1}6,
{2}7,7,
{1}7,
{2}8,8,
{1}1/8,
{1}1-4[4:3],
{1},
{1}8-5[4:3],
{1},
{1}1-6[4:3],
{1},
{1}8-3[4:3],
{1},
{4}1b,1,1,,
{4}8,8,8,,
{4}7,7,7,,
{4}6,6,5/6,,
{4}5,5,5,,
{4}4,4,4,,
{4}3,3,3,,
{4}2,2,1/2,,
{4}1b,1,1,,
{4}2,2,2,,
{4}3,3,3,,
{4}4,4,4/5,,
{4}5,5,5,,
{4}6,6,6,,
{4}7,7,7,,
{4}8,8,1/8,,
{1}1-4[4:3],
{1},
{2}8,8,
{2}1,1,
{4}1/8,1/8,1b/8b,,
{1},
{1},
{1},
E
&inote_3=
(170){1},
{1},
{1}4>1[8:3],
{1}5<8[8:3],
{1}1-4[8:3],
{1}8-5[8:3],
{2}3/4,5/6,
{2}4/5,3/6,
{1}1>4[8:3]/8<5[8:3],
{8}4,4,4,,5,5,5,,
{4}4/5,4/5,3b/6b,,
{4}4/5,3/6,4/5,3/6,
{1}2<7[8:3],
{4}5/6,4/7,5/6,4/7,
{1}8>3[8:3],
{4}3/4,2/5,3/4,2/5,
{1}1<6[8:3],
{2}7b/8b,1b/2b,
{4}1/8,1/8,2h[2:1]/7h[2:1],,
(270){1},
(225){1}3h[1:1],
{1}4h[1:1],
{1}5h[1:1],
{1}6h[1:1],
{1}7h[1:1],
{1}8h[1:1],
{1}1h[1:1],
{1}8b,
(170){2}7b/8b,1b/2b,
{4}3h[2:1],,4,3/4,
{4}6h[2:1],,5,5/6,
{4}3/4,3/4,4qq1[4:3]/5pp8[4:3],,
{1},
{4}2h[2:1],,1,1/2,
{4}7h[2:1],,8,7/8,
{4}5/6,5/6,3/4,3/4,
{4}4/5,3/6,2/7,1b/8b,
{4}6,6,4/5,,
{4}3,3,4/5,3b/6b,
{4}2,2,1/8,,
{4}7,7,1/8,2/7,
{1}4>1[8:3]/5<8[8:3],
{1}6-2[8:3],
{1}1-5[8:3]/8-4[8:3],
{4}4/5,4/5,3/6,1b,
{4}7/8,1/6,1/6,,
{4}1/2,3/8,3/8,,
{4}7/8,7/8,1/2,1/2,
{1}1-4[8:3]/8-5[8:3],
{4}7h[4:3],,8,8,
{4}2h[4:3],,1,1,
{2}7h[4:1]/8h[4:1],1h[4:1]/2h[4:1],
{4}1/8,2/7,3/6,5b,
{4}3/4,2/5,2/5,,
{4}5/6,4/7,4/7,,
{4}5/6,5/6,3/4,3/4,
{4}5<8[8:3],,,1b,
{4}2,1/2,7,7/8,
{4}6,5/6,3,3/4,
{4}3,2/4,6,5/7,
{1}1-4[8:3]/8-5[8:3],
{2}7h[4:1]/8h[4:1],1h[4:1]/2h[4:1],
{2}1h[4:1]/8h[4:1],2/7,
{1}4>1[8:3]/5<8[8:3],
{8}8,8,8,,1,1,1,,
{4}1/8,1/8,2b/7b,,
{1},
{1},
{1},
E
&inote_4=
(170){1},
{1},
{1}4-1[4:1]/5-8[4:1],
{1}1>4[4:1]/8<5[4:1],
{2}6h[2:1],5h[2:1],
{2}4h[2:1],3,
{2}5h[4:1]/6h[4:1],3h[4:1]/4h[4:1],
{2}5h[4:1]/7h[4:1],2/6,
{4}2/4,4/5,5/7,1/8,
{8}2/4,2/4,2/4,,5b/7b,5b/7b,5b/7b,,
{8}1/8b,1/8b,1/8b,1/8b,1/8b,,,,
{4}3,2/4,6,5>2[4:1]/7,
{8},,,,8,8,8,,
{4}6,5/7,3,2/4<7[4:1],
{8},,,,1,1,1,,
{4}6,7/8,3,1<6[4:1]/2,
{8},,,,4,4,4/5,,
{16}3h[16:3],,,4h[16:3],,,3,,6h[16:3],,,5h[16:3],,,6,,
{16}3h[16:3],,,4h[16:3],,,3,,3<6[0.352941176470587##0.6862745098039227],,,,,,,,
(270){1},
(225){4}6h[4:1],5,6h[4:1],5,
{4}5/6,5/6,4/7,,
{4}3h[4:1],4,3h[4:1],4,
{4}3/4,3/4,2/5,,
{4}7h[4:1],8,7h[4:1],8,
{4}7/8,7/8,1/6,,
{4}3/6,3/6,4/5,4qq2[2:1]/5pp7[2:1],
{1},
(170){2}2b/3b,6b/7b,
{8}2h[2:1],,1,1,1,,3/8,,
{8}7h[2:1],,8,8,8,,1/6,,
{8}2h[4:1],,3h[4:1],,4h[4:1],,5,5>2[8:3]*<8[8:3],
{4},,,1,
{8}6h[2:1],,5,5,5,,4/7,,
{8}3h[2:1],,4,4,4,,1b/7b,,
{8},3,3,6,6,4,4/5,,
{16}4/6,,,3/5,,,4/6,,4/6,,,,,,,,
{8}2h[4:3]/7,,4,,7,,8,8,
{8},1/7,,2/8,,1b,1b,,
{8}2,2,5,5,4,4,7,7h[4:1],
{8},8,,1/6,1/6,,2/7,,
{4}3/4,1/8,5/6,2b/7bp3[8:3],
{4},,2,1pp4[4:3]/8qq5[4:3],
{1},
{16}2/8,,,2/8,,,1/7,,1/7,,,,8b,,,,
{2}1-4[8:1]/2,7/8-5[8:1],
{8}1-5[8:1]/2,,,,4/6,4/6,4/6,,
{8}3,3,2/4,,6,6,5/7,,
{16}2h[16:3],,,3h[16:3],,,4,,4,,,,2/5,,,,
{2}4/7-2[8:1],3-6[8:1]/8,
{16}7/8,,,1/6,,,2/5,,2b/5b,,,,,,,,
{16}3h[16:3],,,2h[16:3],,,1,,1,,,,2/8,,,,
{16}1/7,,,1/7,,,2/8,,2/8,,,,3b/7b,,,,
{2}1-5[8:1]/2,7/8-4[8:1],
{8}1-4[8:1]*-6[8:1]/2,,,,3/7,3/7,3/7,,
{4}2h[4:1],4h[4:1],5h[4:1],6,
{4}7h[4:1],5h[4:1],4h[4:1],2,
{4}3h[4:1]/4,8b,3h[4:1]/4,8b,
{4}5/6h[4:1],1b,5/6h[4:1],1b>4[8:1],
{4},5<8[8:1],,1,
{2}1-4[8:1]/8-5[8:1],3b/6b,
{2}2h[4:1]/4h[4:1],5h[4:1]/7h[4:1],
{1}3>6[8:3]/4p5[8:3],
{4}5/6,1/8,3/4,2/6,
{8}5/7,5/7,5/7,,2b/4b,2b/4b,2b/4b,,
{8}1b/8,1b/8,1b/8,1b/8,1b/8,,2b/7b,,
{1},
{1},
{1},
E
&inote_5=
(170){1},
{4},,,1b>4[2:1]/8b,
{8},,,,,8,8<5[2:1],,
{8},,,,,1,1>4[2:1],,
{2},8h[4:3],
{2}1h[4:1],2/7,
{16}5h[16:3],,,6h[16:3],,,7,,4h[16:3],,,3h[16:3],,,2,,
{16}5h[16:3],,,6h[16:3],,,7,,1/8,,,,4/5,,,,
{4}1-3[8:1]/8-6[8:1],,1b,8b,
{8}3/5,4/6,5/7,,4/6,3/5,2/4,,
{8}1/8,1/8,2/7,2/7,3/6,,2b/7b,,
{8}3,3,2/4,,6,6,5/7,,
{8}8<6[8:1],8,4>2[8:1],4,8,8,1/7,,
{8}6,6,5/7,,3,3,2/4,,
{8}1>3[8:1],1,5<7[8:1],5,1,1,2/8,,
{8}2,2,1/3,,7,7,6/8,,
{8}5<7[8:1],5,1>3[8:1],1,5,5,4/6,,
{16}8h[16:3],,,7h[16:3],,,6,,1h[16:3],,,2h[16:3],,,3,,
{16}4/5,,,4/5,,,2/7,,2/7,,,,,,,,
(270){1},
(225){4}1/7<2[2:1],1,8,8,
{4}2>7[2:1]/8,8,1,1,
{4}1/7<2[2:1],1,8,8,
{4}2>7[2:1]/8,8,1,1,
{4}4/6<3[2:1],4,5,5,
{4}3>6[2:1]/5,5,4,4,
{4}4/6<3[2:1],4,5,5>6[4:3],
{1},
(170){2}8b,1b,
{8}2-6[8:1],,8,8,7-2[8:1],,3,3<6[8:1],
{8},7,8-5[8:1],,1-4[8:1],,8,,
{8}1h[4:1]/8,,6h[4:1],,3h[4:1],,5,4/5,
{8},8,1,2,3,4,5,6,
{8}7-3[8:1],,1,1,2-7[8:1],,6,6>3[8:1],
{8},1,1-5[8:1],,8-4[8:1],,2,,
{8}2,3,4,5,6,7,6>3[4:1]/7>2[4:1],,
{4},,2/7,1b,
{8}3>1[8:1]/5,5,5,,3-1[8:1]/4,4,4,,
{8}4/6<8[8:1],4,4,,5/6-8[8:1],5,5,,
{8}3>8[8:1],,7,7,6q2[8:1],,3,3,
{8}3,,2/4,5,4/6,,3/8,,
{8}2<6[4:1]*p6[4:1],2,,,,8b,8b,,
{8}6<2[4:1]*q2[4:1],6,,,,1b,1b,2,
{8}3/6,,4w8[4:1]/5,4/5,,,,,
{16}1/8,,,3/6,,,4/5,,4/5,,,,1b,,,,
{8}3-8[8:1]/7-4[8:1],,,,1/2,3/8,3/8,7,
{8}2-5[8:1]/6-1[8:1],,,,7/8,1/6,1/6,,
{8}2-7[8:1],2,6-3[8:1],6,2<7[8:1],,,,
{16}5/7,,,2/4,,,4/5,,4/5,,,,2b/7b,,,,
{8}3-6[8:1],3,7-2[8:1],7,4-1[8:1],4,6<3[4:1],6,
{4}3,,2b/7b,4/5,
{16}6h[16:3],,,7h[16:3],,,8,,8-4[8:1],,,,,,,,
{16}2/4,,,4/5,,,5/7,,1/8,,,,2b/7b,,,,
{8}2-5[8:1]/6-1[8:1],,,,7/8,1/6,1/6,2,
{8}3-8[8:1]/7-4[8:1],,,,1/2,3/8,3/8,,
{8}7/8-4[8:1],6,5,,1-5[8:1]/2,3,4-1[8:1],,
{4}8-5[8:1],3-6[8:1],8,1<6[4:1]/2,
{8}3,,4,,5,5,6,6,
{8}7/8>3[8:1],,6,,4,4,3,3,
{8}2/4-8[8:1],,1b,,5-1[8:1]/7,,8b,8,
{16}1/8,,,5/7,,,4/5,,3/6,,,,1/8,,,,
{16}4h[16:3],,,3h[16:3],,,2,,5h[16:3],,,6h[16:3],,,7,,
{16}4h[16:3],,,3h[16:3],,,2,,1/8,,,,4/5,,,,
{8}2>4[8:1]/7<5[8:1],2/7,,,8b,,1b,,
{8}2/5,3/6,4/7,,4/7,3/6,2/5,,
{8}1/5,1/5,2/6,3/7,4/8,,2b/7b,,
{1},
{1},
{1},
E
&inote_6=
(170){1},
{1},
{1}1-4[2:1],
{1}8-5[2:1],
{1}4>1[2:1]/5<8[2:1],
{1}2h[2:1]/7h[2:1],
{16}3/4,,,2,,,1,,5/6,,,7,,,8,,
{16}4/5,,,3/6,,,2/7,,1h[4:1]/8h[4:1],,,,,,,,
{16}4/5,,,3/6,,,4/5,,4-1[8:1]/5-8[8:1],,,,,,,,
{8}7/8,1/6,2/5,,4/7,3/8,1/2,,
{8}5/6,3/4,1/2,7/8,5/6,1b,1b,,
{8}7-4[8:1],8,7,,2-5[8:1],1,2,,
{16}6,5,,5,6,,5/6,,4/7,,3/8,,1b/2b,,,,
{8}2-5[8:1],1,2,,7-4[8:1],8,7,,
{16}3,4,,4,3,,3/4,,2/5,,1/6,,7b/8b,,,,
{8}7<4[8:1],8,7,,2>5[8:1],1,2,,
{16}6,5,,5,6,,4/5,,3/6,,2/7,,1b/8b,,,,
{16}1-5[8:1],,,6,,,7,,8-4[8:1],,,3,,,2,,
{16}1-5[8:1],,,6,,,7,,8bqq4[0.352941176470587##1.0196078431372584],,,,,,,,
(270){1},
(225){4}3,5h[4:1],4h[4:1],5,
{48}5,,,,,,,,4,,,,5,,,,,,,,,5,,,,,,,,,,,,,,,6h[4:1],,,,,,,,,,,,
{4}5,3h[4:1],4,6h[1:1],
{4}5,4,3,2,
{4}3,4h[4:1],5h[4:1],4h[4:1],
{16}5,,,5,,,,4/5,,,,,5h[4:1],,,,
{12}4h[4:1],,,5,,,4/5,,5,4,,2b/7b,
{1},
(170){2}1b-7[8:1]/2b-6[8:1],7b-3[8:1]/8b-2[8:1],
{8}8-5[8:1],,2,2,4,5,4,6-3[8:1],
{8},2,1,2,1/8,,1/8,,
{8}4-2[8:1],,5-7[8:1],,4-1[8:1],,8,8p5[8:5]*pp4[8:5],
{1},
{8}1-5[8:1],,8-4[8:1],,2-6[8:1],,7,7V15[4:1],
{8},4,4,4,3/6,3/6,2/7,2/7,
{8},1,1,1h[8:1],7,7h[8:1],5,5h[8:1],
{16}4,,,3/6,,,4/5,,4/5,,,,1b/8b,,,,
{2}5>2[8:1]/6p1[8:1],3q8[8:1]/4<7[8:1],
{8}4-1[8:1]/5-8[8:1],,,,1,8b,8b,,
{2}7q4[8:1]/8>3[8:1],1<6[8:1]/2p5[8:1],
{1}4qq1[2:1]/5pp8[2:1],
{8}1b<6[8:1]/8b>3[8:1],,,,2/7,1b/8b,1b/8b,,
{8}5bqq3[8:1]/6bq2[8:1],,,,2/7,1b/8b,1b/8b,,
{1}3qq5[2:1]/7qq1[2:1],
{16}1/8,,,4/5,,,4/5,,2/7,,,,1b/8b,,,,
{16}1h[16:3]/8,,,3h[16:3],,,5-1[8:1],,5,,8b,,8b,,2/7,,
{16}1/8h[16:3],,,6h[16:3],,,4-8[8:1],,4,,1b,,1b,,,,
{16}8,,5/6,,4/5,,3/4,,3h[16:3],,,5h[16:3],,,7,,
{16}8h[16:3],,,6h[16:3],,,4,,1-5[8:1]/8-4[8:1],,,,1b/8b,,,,
{16},,3/4,,5,,6,,8-4[8:1],,,3,,,2,,
{16}1,,8,1h[16:3],,,6,,1/6,,,,2b/7b,,,,
{16}1h[16:3]/8,,,3h[16:3],,,4,,4-1[8:1]/5-8[8:1],,,,,,,,
{16}2/7,,,4/5,,,3/6,,2/7,,,,1b/8b,,,,
{16}1/8h[16:3],,,6h[16:3],,,4-8[8:1],,4,,1b,,1b,,2/7,,
{16}1h[16:3]/8,,,3h[16:3],,,5-1[8:1],,5,,8b,,8b,,,,
{16}3,,2/4,,1/5,,6/8,,7-3[8:1],,,1,,,2,,
{4}4-8[8:1],6-2[8:1],1-4[8:1]*-6[8:1],1b,
{4}3-8[8:1]/4,7b,4-1[8:1]/6,8b,
{8}5/6-1[8:1],,2b,,3/5-8[8:1],1b,1b,2,
{8}3h[4:1]/8h[4:1],,,1/6,1h[4:1]/6h[4:1],,,3/8,
{16}6h[16:3],,,5h[16:3],,,4,,6,5,4,3,2b/7b,,,,
{16}3-8[4:1],,,4,,,5,,6-1[4:1],,,5,,,4,,
{16}3>7[4:1],,,4,,,5,,6,,,,3/6,,,,
{8}4/5,3,4/5,6,4-1[8:1]/5-8[8:1],,4b/5b,,
{8}7/8,1/6,2/5,,4/7,3/8,1/2,,
{8}5/6,3/4,1/2,7/8,5/6,1b,1b,,
{1},
{1},
{1},
E
