&title=うまるん体操
&wholebpm=170
&artist=妹S「干物妹!うまるちゃんR」
&des=緑風 犬三郎
&shortid=730
&genre=POPSアニメ
&cabinet=SD
&version=maimai MiLK PLUS
&chartconverter=Neskol
&lv_2=4
&des_2=-
&lv_3=6
&des_3=-
&lv_4=8+
&des_4=某S氏
&lv_5=10+
&des_5=緑風 犬三郎
&lv_6=11
&des_6=チャン@DP皆伝
&inote_2=
(170){1},
{1},
{1},
{1}4/5,
{1}4/5,
{1}4/5,
{1}4/5,
{2}3,3,
{1}3/4,
{2}6,6,
{1}5/6,
{2}3,3,
{1}3/4,
{2}6,6,
{2}5/6,5b/6b,
{2}7,7,
{4}6,6,6,,
{2}5,5,
{4}4,4,4/5,,
{2}3,3,
{4}2,2,2,,
{2}1,1,
{4}8,8,1/8,,
{1}2h[1:1],
{1},
{2}3,3,
{4}4,4,4/5,,
{1}6h[1:1],
{1},
{2}7,7,
{4}8,8,1/8,,
{1}7-4[4:3],
{1},
{1}2-5[4:3],
{1},
{1}7-3[4:3],
{1},
{1}2-6[4:3],
{1},
{1}4h[2:5]/5h[2:5],
{1},
{1},
{1}3/6,
{4}8,8,8,,
{4}7,7,7,,
{4}6,6,6,,
{4}4/5,4/5,4/5,,
{4}4,4,4,,
{4}3,3,3,,
{4}2,2,2,,
{4}1,1,1,,
{1}7h[1:1]/8h[1:1],
{1},
{1}1h[1:1]/2h[1:1],
{1},
{4}8,8,8,,
{4}1,1,1,,
{1}1-4[4:3],
{1},
{2}6,6,
{2}5/6,5/6,
{2}3,3,
{4}2,,2,2b,
{1},
{1},
{1},
E
&inote_3=
(170){1},
{1},
{1},
{1}4h[2:1]/5h[2:1],
{1}4h[2:1]/5h[2:1],
{1}4h[2:1]/5h[2:1],
{1}4h[2:1]/5h[2:1],
{4}3,4,5/6,,
{4}6,5,3/4,,
{4}6,5,3/4,,
{4}3,4,5/6,,
{4}2,3,4,5/6,
{4}7,6,4/5,,
{4}7,6,5,3/4,
{4}2,3,4/5,3b/6b,
{4}7,7,7/8,,
{4}2,2,1/2,,
{4}7,7,7/8,,
{4}1/8,1/8,2/7,,
{4}6,6,5/6,,
{4}3,3,3/4,,
{4}5,5,4,4,
{2}4h[4:1]/5h[4:1],3/6,
{2}6h[2:1],5,
{2}3h[2:1],4,
{2}7h[4:1]/8h[4:1],1h[4:1]/2h[4:1],
{2}1h[4:1]/8h[4:1],2/7,
{2}3h[2:1],4,
{2}6h[2:1],5,
{4}4/5,3/6,4/5,2/7,
{1}4-2[8:3]/5-7[8:3],
{1}1>4[4:3],
{2},4/5,
{1}5<8[4:3],
{2},1/8,
{4}6,6,5/6,,
{4}3,3,3/4,,
{4}6,5,5/6,,
{4}3,4,3/4,,
{1}1/8z4[4:5],
{1},
{1}4-1[2:1]/5-8[2:1],
{4}2b/7b,,4/5,3/6,
{4}7,8,1/6,,
{4}2,1,3/8,,
{4}6,5/6,3,3/4,
{4}6,5/6,4/7,8b,
{4}2,1,3/8,,
{4}7,8,1/6,,
{4}3,3/4,6,5>1[4:3]/6,
{1},
{4}8,8,7,7,
{4}6,5,4/7,,
{4}1,1,2,2,
{4}3,4,2/5,,
{4}6h[4:1],5,4/7,,
{4}3h[4:1],4,2/5,1>5[4:3]/6,
{1},
{4}6,4/5,3/6,,
{4}4/5,6,4/5,3,
{4}4/5,6,7/8,,
{4}4/5,7,4/5,2,
{4}4/5,7,4/5,2b/6b,
{1},
{1},
{1},
E
&inote_4=
(170){1},
{1},
{1},
{1}4h[2:1]/5h[2:1],
{1}4h[2:1]/5h[2:1],
{1}4h[2:1]/5h[2:1],
{1}4h[2:1]/5h[2:1],
{4}4/5,5/6,4/5,3/4,
{4}5/7,1/8,2/4,,
{4}4/5,3/4,4/5,5/6,
{4}2/4,1/8,5/7,,
{4}4/6,5/7,3/5,2/4,
{4}5/7,1/8,2/4,,
{4}3/5,2/4,4/6,5/7,
{4}2/4,1/8,5/6,1b,
{4}2/8,2/8,1/7,1/7,
{4}1h[4:1]/2h[4:1],,7/8,7/8,
{4}1/7,1/7,2/8,2/8,
{4}7h[4:1]/8h[4:1],,1/2,1/2,
{4}2h[4:1],3,3h[4:1],4,
{4}4/5,4/5,3/6,3/6,
{4}7h[4:1],6,6h[4:1],5,
{4}4/5,4/5,3b/6b,,
{4}5/6h[4:3],4,5,4,
{4}3h[4:3]/4,5,4,5,
{2}7/8,1/2,
{4}3/4,4/5,5/6,7/8,
{4}5/7h[4:3],6,5,6,
{4}2h[4:3]/4,3,4,3,
{4}5/6,3/8,3/4,1/6,
{4}4/5,1>4[8:1]/8<5[8:1],,,
{8}3h[2:1],,,4,4,,2/8,,
{8}6h[2:1],,,5,5,,1/7,,
{1}1s5[2:1]/8,
{1}1/8z4[2:1],
{4}3,3/4,6,5/6,
{4}3,2/4,6,5/7,
{4}2/7,2/7,3/6,3/6,
{1}4h[2:1]/5h[2:1],
{2}6h[4:1],3h[4:1],
{2}5h[4:1],4h[4:1],
{4}4/5,4/5,3/6,3/6,
{2}8b,4h[4:1]/5h[4:1],
{4}2b/4,2b/4,2b/4,4/5,
{4}5/7,5/7,5/7,4/5,
{2}3h[4:1]/4h[4:1],5h[4:1]/6h[4:1],
{4}1/8,2/7,4/5,2/7,
{4}2b/4,2b/4,2b/4,4/5,
{4}5/7,5/7,5/7,4/5,
{2}3h[4:1]/4h[4:1],5h[4:1]/6h[4:1],
{4}1/8,2/7,4/5,1<6[4:1]/8>3[4:1],
{4},,4/5,4/5,
{4}3h[4:1]/6h[4:1],,4/6,3/5,
{1}2q3[4:3]/4<2[4:3],
{4},,4/5,3/6,
{4}6/8,5/7,6h[4:1]/8h[4:1],,
{4}2/4,3/5,2/4,1-4[2:1]/3,
{1},
{1},
{4}4/6,5/7,3/5,2/4,
{4}5/7,1/8,2/4,,
{4}3/5,2/4,4/6,5/7,
{4}2/4,1/8,5/7,2b/6b,
{1},
{1},
{1},
E
&inote_5=
(170){1},
{1},
{1},
{4},4/5,,4/5,
{4},4/5,,4/5,
{4},4/5,,4/5,
{4},4/5,,4/5,
{4}4/7<5[8:1],3,2>4[8:1]/5,6,
{4}4/7>4[4:1],5,5,4/5,
{4}2>4[8:1]/5,6,4/7<5[8:1],3,
{4}2<5[4:1]/5,4,4,4/5,
{4}4/7<5[8:1],3,2>4[8:1]/5,6,
{4}4/7>4[4:1],5,6,4/5,
{4}2>4[8:1]/5,6,4/7<5[8:1],3,
{4}2/5,1/4,4/5,2b/7b,
{8}2,1,8,7<4[8:1],,2,2,1-5[8:1],
{8},7,6-1[8:1],,2-5[8:1],,8,,
{8}7,8,1,2>5[8:1],,7,7,8-4[8:1],
{8},2,3-8[8:1],,7-4[8:1],,1,,
{8}3,4,5,6-1[8:1],,4,4,3-6[8:1],
{8},8,8<5[8:1],,4>1[8:1],,6,,
{8}6,5,4,3-8[8:1],,5,5,6-3[8:1],
{8},1,1>4[8:1],,5,,3/7,,
{4}1-3[8:1]/8-6[8:1],,1/8,1/8,
{4}1-3[8:1]/8-6[8:1],,1/8,1/8,
{2}7-5[8:1]/8-2[8:1],1-7[8:1]/2-4[8:1],
{2}7-5[8:1]/8-2[8:1],1-7[8:1]/2-4[8:1],
{2}2h[4:1]/6h[4:1],3h[4:1]/7h[4:1],
{4}4/5,2/7,5/6,3-8[8:1]/4-7[8:1],
{4},5-2[8:1]/6-1[8:1],,4-8[8:1]/5,
{4}6-1[8:1],3-8[8:1],5,4/5,
{8}5>1[4:1]/6,,,8,8,,1/6,,
{8}3/4<8[4:1],,,1,1,,3/8,,
{8}5>1[4:1]/6,,,8,8,,1/6,,
{8}3/4<8[4:1],,,1,1,,3/8,,
{4}2-5[8:1],6-1[8:1],2-5[8:1],6-1[8:1],
{4}2-5[8:1],6-1[8:1],2,2/6,
{4}7<4[8:1],3>8[8:1],7<4[8:1],3>8[8:1],
{4}7<4[8:1],3>8[8:1],7,3/7,
{2}1h[2:1],8h[2:1],
{4}2h[4:1],7h[4:1],2h[4:1],7h[4:1],
{8}3h[8:1],6h[8:1],3h[8:1],6h[8:1],4h[8:1],5h[8:1],4-2[8:1]*-8[8:1],,
{4},,2b/7b,2b/7b,
{8}2/4,1,2/4,1,2/4,,5/7,8,
{8}5/7,8,5/7,,6-3[8:1]/7q3[8:1],,,,
{2}2bp6[8:1]/3b-6[8:1],2-5[8:1]/7-4[8:1],
{4}3/6,4/5,3/6,2b/7b,
{8}2/4,1,2/4,1,2/4,,5/7,8,
{8}5/7,8,5/7,,6-3[8:1]/7q3[8:1],,,,
{2}2p6[8:1]/3-6[8:1],2-5[8:1]/7-4[8:1],
{4}3/6,4/5,2/7,3qq2[4:1]/6pp7[4:1],
{8},,,,4/5,4>1[4:1]/5<8[4:1],,,
{8},,4/5,,7-3[8:1],,2,2,
{8}1>4[8:1],,7,8<5[8:1],,4>5[8:5],,,
{4},,,5/7,
{4}6/8,5/7,6/8,4/5,
{4}5h[4:1],3h[4:1],7h[4:1],8>5[2:1],
{1},
{8}1/8,2/7,3/6,,1/8,,3,,
{4}4/7<5[8:1],3,2>4[8:1]/5,6,
{4}4/7>4[4:1],5,6,4/5,
{4}2>4[8:1]/5,6,4/7<5[8:1],3,
{8}2/5,,1/4,,4/5,3,2b/6b,,
{1},
{1},
{1},
E
&inote_6=
(170){1},
{1},
{1},
{4},4/5,,4/5,
{4},4/5,,4/5,
{4},4/5,,4/5,
{4},4/5,4/5,4<7[8:1]/5<7[8:1],
{4},6>3[8:1]/7<3[8:1],,2>1[8:3]/3<1[8:3],
{4},,,4>2[8:1]/5>2[8:1],
{4},2>6[8:1]/3<6[8:1],,6>8[8:3]/7<8[8:3],
{4},,,4<7[8:1]/5<7[8:1],
{4},6>3[8:1]/7<3[8:1],,2>1[8:3]/3<1[8:3],
{4},,,4>2[8:1]/5>2[8:1],
{4},2>6[8:1]/3<6[8:1],,6>8[8:3]/7<8[8:3],
{4},,5w1[8:1],5b,
{8}7,8-4[8:1],7,8,,1,2qq6[8:3],2,
{2},8<5[8:1],
{8}2,1-5[8:1],2,1,,8,7pp3[8:3],7,
{2},1>4[8:1],
{8}7,8-4[8:1],7,8,,8,1pp5[8:3]*qq5[8:3],1,
{2},4v1[8:1]/6v1[8:1],
{8}8,1-5[8:1],8,1,,3/6,4qq1[8:3]/5pp8[8:3],4/5,
{8},,,,,1,1,8,
{8}1,,7/8,,1,1,7/8,1,
{8},1,7/8,,1,1,7/8,,
{2}3V17[8:1],6V82[8:1],
{2}3V17[8:1]/4v6[8:1],5v3[8:1]/6V82[8:1],
{8}8,,1/2,,8,8,1/2,8,
{8},8,1/2,,8,1/2,1/2,1/2,
{2}3-5[8:1]/7-1[8:1],2-8[8:1]/6-4[8:1],
{1}3qq7[8:3]/7qq3[8:3],
{8}6p1[4:1],,,3,3,,2/7,,
{8}3q8[4:1],,,6,6,,2/7,,
{8}6p1[4:1],,,3,3,,2/7,,
{4}4/5,3/6,2/7,2>5[8:1],
{4}1<6[8:1],2-5[8:1],1-6[8:1],8>3[8:1],
{4}7<4[8:1],8-3[8:1],7-4[8:1],1,
{4}1<5[4:1],5>1[4:1],1<5[4:1],5>2[4:1],
{4}2<7[4:1],7<4[4:1],4>1[4:1],1b>5[4:9]*s5[4:9],
{1},
{1},
{4},,,5w1[8:1],
{4}5b,,3b/6b,1b-4[8:1]/8b,
{8}1b-6[8:1]/2b,,1bw5[8:1]/8b,,1b,,6,6h[4:1],
{8},8h[4:1],,1h[4:1],,3,,6>2[8:1]*V42[8:1],
{8}6,,,3<7[8:1]*V57[8:1],3,,,3<6[8:1]/6-3[8:1],
{4},,2/7,1b-4[8:1]/8b,
{8}1b-6[8:1]/2b,,1bw5[8:1]/8b,,1b,,6,6h[4:1],
{8},8h[4:1],,1,1,,,5>1[8:1]*V31[8:1],
{8}5,,,4<8[8:1]*V68[8:1],4,,,2h[4:1],
{8},1,8<4[4:1],,4q8[4:1],,8<5[4:1]*>4[4:1],,
{8},,,,8,1,2v3[4:1]/7v6[4:1],2/7,
{4},,1/2,7/8,
{8}2q6[4:1],,2,7p3[4:1],,7,,1>7[8:3],
{4},,,1v6[8:1]/6-1[8:1],
{8}1/6,,,1/8,3/6,,3/4qq8[2:1],,
{4}3/4,,1,7h[4:3]/8>5[2:1],
{1}8,
{8},1,1-4[8:1],,,,4<7[8:1]/5<7[8:1],,
{4},6>3[8:1]/7<3[8:1],,2>1[8:3]/3<1[8:3],
{8},,,,,4b/5b,4b>2[8:1]/5b>2[8:1],,
{4},2>6[8:1]/3<6[8:1],,6>8[8:3]/7<8[8:3],
{4},,4v2[8:1]/8v6[8:1],4b/8b,
{1},
{1},
{1},
E
