&title=fantastic dreamer
&wholebpm=185
&artist=Machico「この素晴らしい世界に祝福を!」
&des=サファ太
&shortid=698
&genre=POPSアニメ
&cabinet=SD
&version=maimai MiLK
&chartconverter=Neskol
&lv_2=5
&des_2=-
&lv_3=7
&des_3=-
&lv_4=10
&des_4=ミストルティン
&lv_5=12
&des_5=サファ太
&des_6=
&inote_2=
(185){1},
{1},
{1}1,
{1}2,
{1}3,
{1}4/5,
{1}5,
{1}6,
{1}7,
{1}1/8,
{2}7,7,
{2}6,6,
{2}5,5,
{4}4,5,4,,
{2}3,3,
{2}2,2,
{1}1h[1:1]/2h[1:1],
{1},
{1}7h[1:1]/8h[1:1],
{1},
{2}1,1,
{4}2,2,2,,
{2}3,3,
{4}4,4,4/5,,
{2}5,5,
{4}6,6,6,,
{2}7,7,
{4}8,8,1/8,,
{2}7,7,
{4}6,6,6,,
{2}5,5,
{4}4,4,4/5,,
{2}3,3,
{4}2,2,2,,
{2}1,1,
{4}8,8,1/8,,
{1}1-5[4:5],
{1},
{1},
{2}6,5/6,
{2}7,7/8,
{2}1,1/8,
{1}1b/8b,
{4}8,8,8,,
{4}7,7,7,,
{4}6,6,6,,
{4}5,4,4/5,,
{4}4,4,4,,
{4}3,3,3,,
{4}2,2,2,,
{4}1,8,1/8,,
{4}2,2,2,,
{4}3,3,3,,
{4}4,4,4,,
{4}4/5,4/5,4/5,,
{4}6,6,6,,
{4}7,7,7,,
{4}8,8,8,,
{4}1/8,1/8,1/8,,
{1}2-6[4:3],
{1},
{1}7-3[4:3],
{1},
{2}2,2,
{4}1,1,1,,
{2}8,8,
{4}7,7,7,,
{1}1b/8b,
{1},
{1},
{1},
E
&inote_3=
(185){1},
{1},
{4},2,,3,
{4},4,,5,
{4},6,,7>4[4:3],
{1},
{4}6,6,5/6,,
{4}3,3,3/4,,
{1}2<5[4:3]/5,
{2},2b/7b,
{4}7,7,8,,
{4}2,2,1,,
{4}7,7,8,,
{4}1/8,1/8,1/8,,
{4}3,3,3/4,,
{4}6,6,5/6,,
{1}4/5<8[8:3],
{1}1>4[8:3],
{1}5<8[8:3],
{4}1,8,2b/7b,,
{4}6,6,5,,
{4}3,3,4,,
{4}6,6,5,,
{4}4,5,4/5,,
{4}3,3,4,,
{4}6,6,5,,
{1}4-1[2:1]/5-8[2:1],
{2},2/7,
{4}7,7,8,,
{4}2,2,1,,
{4}8,8,1,1,
{1}2h[2:1]/7h[2:1],
{4}3,3,3/4,,
{4}6,6,5/6,,
{4}4,4,5,5,
{2}4h[4:1]/5h[4:1],3/6,
{4}3h[4:3],,,4h[4:3],
{2},5h[4:3],
{4},6,,,
{4}6,6,5/7,,
{4}3,3,2/4,,
{4}5,5,4,4,
{1}4b>1[8:3]/5b<8[8:3],
{4}7,7,7/8,,
{4}2,2,1/2,,
{4}8,8,1,1,
{4}8,1,2/7,,
{4}6h[4:1],5,4/7,,
{4}3h[4:1],4,2/5,,
{4}1/8,1/8,1>4[16:9]/8<5[16:9],,
{1},
{4}3,4,2/5,,
{4}6,5,4/7,,
{4}1,1,8,8,
{4}1/8,2/7,3/6,,
{4}6,6,5,5,
{4}4,3,2/5,,
{4}3,3,4,4,
{4}4/5,3/6,2/7,,
{4}7/8,7/8,1/6,,
{4}1/2,1/2,3/8,,
{1}1pp4[4:5]/8qq5[4:5],
{1},
{4}1,2,3,4,
{4}5/6,5/6,4/7,,
{4}8,7,6,5,
{1}4h[2:1]/5h[2:1],
{1}3b/6b,
{1},
{1},
{1},
E
&inote_4=
(185){1},
{4}7,7,7,2-5[2:1],
{4},,,7-4[2:1],
{4},,,3<6[2:1],
{4},,,7>2[2:1],
{4},,,3/6,
{4}1/2,3/8,4/7,5/6,
{8}2/7,,4/5,4/5,,1<6[8:3]/2,,,
{4},,2/7,3/6,
{2}4/5,1b/8b,
{4}2,3,4/5,6,
{4}7/8,1/6,2/5,3/4,
{4}7,6,4/5,3,
{4}1/2,3/8,4/7,5/6,
{4}2,3/4,7,5/6,
{4}2,3/4,7<4[4:1],,
{4},4/7,5/6,4/7,
{4}5/6,3/8,5>3[4:1]/6<8[4:1],,
{4},3/4,2/5,3/4,
{4}1/6,3/4,2/7,,
{4}6h[4:3],3,4,5,
{4}3h[4:3],6,5,4,
{4}7h[4:3],6,5,4,
{4}1h[2:1]/2>5[4:1],,,4/5,
{4}7h[4:3],4,5,6,
{4}2h[4:3],5,4,3,
{8}1/6,,4/5,4/5,,1/6,,7v4[4:1]/8v3[4:1],
{4},,,2/7,
{4}3h[4:1],4,6h[4:1],5,
{4}2h[4:1],3,7h[4:1],6,
{4}4h[4:1],3,5h[4:1],6,
{2}1-5[4:1],8-4[4:1],
{4}2h[4:1],1,6h[4:1],5,
{4}3h[4:1],4,7,5/6,
{8}3/4,,5/6,5<1[8:3]/6,,,,,
{4},2b/7b,2b/7b,,
{4}7h[4:3],6,5,4h[4:3],
{4}7,8,1h[4:3],4,
{4}3,2,3/6,4/5,
{8}2/5,,3,4,3,,1/8,,
{8}4/7,,6,5,6,,1/8,,
{8}2/7,,1,8,1,,4>1[4:1]/5<8[4:1],,
{2},1-4[8:1]/8-5[8:1],
{4},5/6h[4:1],7>3[4:1],,
{4},4h[4:1]/5,3>7[4:1],,
{4},4/5h[4:1],6,7/8,
{4}4h[4:1],3h[4:1],2h[4:1],1>6[2:1],
{4},,,6/8<3[2:1],
{4},,,2/6,
{8}7h[2:1],,8,,2h[8:3],,1,1b,
{8},3b/8b,,4b/5b,,1b-4[8:1]/8b-5[8:1],,,
{4},5/6h[4:1],7>4[4:1],,
{4},5h[4:1]/6,4>7[4:1],,
{4},5/6h[4:1],7,3/4,
{4}1/6,3/4,7/8,3/6,
{8}7h[2:1],,5,5,5,,1/2,,
{8}2h[2:1],,4,4,4,,7/8,,
{8}5h[2:1]/7,,3,3,3,,1/2,,
{8}2/4h[2:1],,6,6,6,,7/8<1[2:1],,
{4},,,2/7,
{8}7/8,,5/6,5/6,,3<8[8:3]/4,,,
{4},,3/7,2/6,
{2}1-4[8:1]/5-8[8:1],2b/7b,
{4}1h[4:7]/5,5,7,7,
{4}5,7,5,7,
{4}4/8h[1:1],4,2,2,
{1}4qq8[2:1],
{1}2h[1:2]/7h[1:2],
{1},
{1},
{1},
{1},
E
&inote_5=
(185){1},
{8}1,,1,,4/6,5,4/6<3[8:3],4/6,
{8},,,,,,3,3>6[8:3],
{8},,,,,,8,8h[2:1],
{8},,2,2h[4:1],,1,,5/7,
{8},2/4,,1/8,,2/7,2/7,,
{1}4qq1[2:1]/5pp8[2:1],
{8}2/7,,5/6,5/6-1[8:1],,2,,3/4,
{8},6,5/7,,3,4,2<5[4:1]/5,,
{2},2b/7b,
{2}3/4-7[8:1],3/4-8[8:1],
{2}5-2[8:1]/6,5-1[8:1]/6,
{2}3/4<7[8:1],5>2[8:1]/6,
{4}3-8[8:1]/4-7[8:1],,1/6,2/5,
{2}5>2[8:1]/6,3/4<7[8:1],
{8}5-2[8:1]/6-1[8:1],,,,3/8,3/8,,1b/6b,
{8},7,7-4[8:1],,8-3[8:1],,7-4[8:1],,
{8}8-3[8:1],,7,,4,4-1[8:1]*-7[8:1],,,
{8},2,2-5[8:1],,1-6[8:1],,2-5[8:1],,
{8}1-6[8:1],,2,,1/8,1/8,,2b/7b,
{8},,,,3h[4:1]/4h[4:1],,,5h[4:1]/6h[4:1],
{8},,4/7,,1h[4:1]/2h[4:1],,,7h[4:1]/8h[4:1],
{8},,1/6,,3,3,4,2h[8:3],
{8},1,1,,3/8,3/8,,5h[4:1]/6h[4:1],
{8},,5/6,,6,6,5,7h[8:3],
{8},8,8,,2/4,2/4,,,
{8}5h[4:1]/6h[4:1],,,4/7>2[4:1],,2>5[4:1],,5<8[4:1],
{8},8w4[4:1],,,,,2/7,,
{8}5h[4:1]/6h[4:1],,,2/4,2/4,,1/8,,
{8}3h[4:1]/4h[4:1],,,5/7,5/7,,1/8,,
{8}5h[4:1]/6h[4:1],,,2/4,2/4,,1/8,,
{4}5pp5[8:3]*qq5[8:3]/6,,,3/7,
{8}4/5h[4:1],,6,6-2[8:1],,8,8,,
{8}4h[4:1]/5,,3,3-7[8:1],,1,1,,
{8}3/4,,5/6,5h[4:1]/6h[4:1],,,5/6,,
{4}4/5,2/4,4/5,5/7,
{12}3h[4:1],,4,4,,,4/7,,,6h[4:1],,5,
{4}5,2-7[4:1]/3-5[4:1],,,
{4}4/7,5h[4:1],4,2/4q8[4:1],
{8}3,,,1,1,,5p1[4:1]/7,,
{8}6,,,8,8,,4/8-4[8:1],,
{8}2-5[8:1],,6<3[4:1],,,,,1/8,
{8},4/5,4-1[8:1]/5,,8b,8bw4[8:1],,8b,
{8},2/6,2/6,,7h[4:3]/8>6[4:1],,,,
{8},1,1,,3/4,,2/6,2h[2:1]/6>3[8:1],
{8},,,8-4[8:1],,1qq6[2:1],,5h[8:5],
{4},,2,1-6[8:1]/8-6[8:1],
{4}1/8,1-5[8:1]/8-5[8:1],1/8,1-6[8:1]/2-6[8:1],
{4}1/2,1-5[8:1]/2-5[8:1],1/2,5bw1[8:1]/7b,
{8},,2/4,2/4-8[8:1],,1,,5-1[8:1]/7,
{8},8,,2/4,,4/8w4[8:1],,8b,
{8},2/6,2/6,,1<3[4:1]/2h[4:3],,,,
{8},8,8,,4/5,,3/7,3<6[8:1]/7h[2:1],
{8},,,1-5[8:1],,8<3[4:1],,2h[8:3],
{8},,1,8,2/7,,1b-5[8:1]/5,,
{4}1b-6[8:1],1b-4[8:1],1b<6[8:1],1b>4[8:1],
{4}1b-5[8:1],1bw5[8:1],1b,8<5[8:1],
{4}8>3[8:1],8-5[8:1],8-3[8:1],8-4[8:1],
{4}8<5[8:1]*>3[8:1],8,2b/6b,2-5[8:1]/5,
{4}7-4[8:1],2-6[8:1],8-4[8:1],3,
{8}2/7,,3/4,3-8[8:1]/4,,7<2[4:1],,1h[4:1],
{4},1/8>7[4:3],,,
{8},,,,1,8,2/7,,
{8}3,2h[4:1]/4,,1,3/8h[4:1],,1,2z6[2:1]/7,
{4},,,4/5,
{8}6,5/7h[4:1],,8,1/6,,3qq5[2:1]/6pp4[2:1],,
{4},,,3>5[2:3]/6<4[2:3],
{1}3b/6b,
{1},
{1},
{1},
E
