&title=WARNING×WARNING×WARNING
&wholebpm=172
&artist=暁Records
&des=はっぴー
&shortid=702
&genre=東方Project
&cabinet=SD
&version=maimai MiLK
&chartconverter=Neskol
&lv_2=6
&des_2=-
&lv_3=7+
&des_3=-
&lv_4=10+
&des_4=LabiLabi
&lv_5=12+
&des_5=はっぴー
&des_6=
&inote_2=
(172){1},
{1},
{1},
{1},
{2}1,1,
{1}1h[2:1],
{2}7/8,7/8,
{1}7h[2:1]/8h[2:1],
{2}8,8,
{1}8h[2:1],
{2}1/2,1/2,
{1}1h[2:1]/2h[2:1],
{1},
{2}2,2,
{4}3,3,3,,
{2}3/4,3/4,
{4}5,4,5,,
{2}6,6,
{4}7,7,7,,
{2}7/8,7/8,
{4}1,1,1/8,,
{2}7,7,
{4}6,6,6,,
{2}5/6,5/6,
{4}4,5,4,,
{2}3,3,
{4}2,2,2,,
{2}1/2,1/2,
{4}8,1,8b,,
{1}7-3[4:3],
{1},
{1}1h[1:1],
{1},
{1}2-6[4:3],
{1},
{1}8h[1:1],
{1},
{2}1,1,
{4}8,8,8,,
{1}1-4[4:3]/8-5[4:3],
{1},
{4}4,4,4,,
{1}5h[2:1]/6h[2:1],
{4}7,7,7,,
{2}7/8,7/8,
{4}1,1,1,,
{1}1h[2:1]/2h[2:1],
{2}3/4,5/6,
{1}4-1[4:3]/5-8[4:3],
{1},
{2}1,1,
{2}2/8,2/8,
{2}8,8,
{2}1/7,1/7,
{1}1-5[4:3],
{1},
{1}1b/8b,
{1},
{4}1,1,1,,
{1}7h[2:1]/8h[2:1],
{4}6,6,5,5,
{2}5/6,5/6,
{4}4,4,3,3,
{1}3h[2:1]/4h[2:1],
{2}1/2,7/8,
{1}1-4[4:3]/8-5[4:3],
{1},
{4}8,8,8,,
{1}1h[2:1]/2h[2:1],
{4}3,3,4,4,
{2}3/4,3/4,
{4}5,5,6,6,
{1}5h[2:1]/6h[2:1],
{2}7/8,1/2,
{1}1-4[4:3]/8-5[4:3],
{1},
{2}7/8,1/2,
{4}8,1,8,,
{2}1/2,7/8,
{1}1h[2:1],
{4}8,8,7,7,
{4}6,6,4/5,,
{2}4/5,4/5,
{1}3h[2:1]/6h[2:1],
{4}3,3,3/4,,
{4}6,6,5/6,,
{4}4,4,5,5,
{1}3h[2:1]/6h[2:1],
{1}2-7[4:3],
{1},
{1}6-3[4:3],
{1},
{1}1-4[4:3],
{1},
{1}5-8[4:3],
{1},
{4}1,1,1b,,
{4}8,8,8,,
{1}8h[2:1],
{2}1/2,7/8,
{4}1,1,8,8,
{1}1h[4:3],
{1},
{1},
{1},
E
&inote_3=
(172){1},
{1},
{1},
{1},
{4}3,3/4,6,5-1[2:1]/6,
{4},,,8,
{4}7,6,4/5,,
{4}4,5,3/6,,
{4}6,5/6,3,3/4-8[2:1],
{4},,,1,
{4}1/8,1/8,2/7,2>7[4:3]/7,
{1},
{2}1h[4:1]/8h[4:1],2b/7b,
{4}4h[4:1]/5h[4:1],,3,3,
{4}4,3,3/4,,
{4}7,7,8,,
{4}2,2,1,,
{4}1h[4:1]/8h[4:1],,7,7,
{4}8,7,7/8,,
{4}3,3,4,,
{4}5,4,3b/6b,,
{4}4h[4:1]/5h[4:1],,6,6,
{4}5,6,5/7,,
{4}2,2,1/2,,
{4}8,1,2/7,,
{4}4/5,4/5,6,6,
{4}7,7,6/8,,
{1}1-4[8:3]/8-5[8:3],
{4}4/5,4/5,3/6,,
{2}6h[2:1],5,
{2}3h[2:1],4,
{2}5h[2:1],4h[2:1],
{2}5,3/6,
{1}4-1[8:3],
{1}8-5[8:3],
{1}4>1[8:3],
{4}1/8,1/8,2/7,,
{4}6,5,3/4,,
{4}2,3,4/5,4-1[8:5]/5-8[8:5],
{1},
{4}8,1,2b/7b,,
{4}6,5/6,3,3/4-8[2:1],
{4},,,1,
{4}1,1,2/8,,
{4}8,8,1/7,,
{4}3,3/4,6,5-1[2:1]/6,
{4},,,8,
{4}8,1,2,1-6[2:1]/2-5[2:1],
{1},
{4}3/4,5/6,4b/7b,,
{1}7h[2:1]/8h[2:1],
{1}1h[2:1]/2h[2:1],
{4}5,6,7/8,,
{4}4,3,2,1-4[8:5]/8-5[8:5],
{1},
{4}3/6,2/7,1/8,1pp4[1:1]/8qq5[1:1],
{1},
{2},3b/6b,
{4}2,1/2,7,7/8>4[2:1],
{4},,,5,
{4}6,5,4/7,,
{4}3,4,2/5,,
{4}7,7/8,2,1<5[2:1]/2,
{4},,,4,
{4}3,2,1,1/8<3[4:3],
{1},
{4}1/2,3/8,4/7,5b/6b,
{4}3,2/4,6,5>1[2:1]/7,
{4},,,8,
{4}7,7/8,1/6,,
{4}2,1/2,3/8,,
{4}6,5/7,3,2/4<8[2:1],
{4},,,1,
{4}2,3/4,5/6,4/7>4[4:3],
{1},
{4}5/6,4/5,3b/6b,,
{2}3h[4:1]/4h[4:1],5h[4:1]/6h[4:1],
{4}3/4,3/4,2/5,,
{2}7h[4:1]/8h[4:1],1h[4:1]/2h[4:1],
{4}1/8,1/8,2/7,,
{4}3,3,3/4,2/5,
{4}6,5,4/7,,
{4}7/8,7/8,1/2,1<6[2:1]/2>5[2:1],
{1},
{2}7h[2:1],8,
{2}2h[2:1],1,
{1}1h[2:1]/8h[2:1],
{4}1/8,1/8,2/7,1b,
{4}8,7,6,5,
{4}4,3,2,1,
{4}7/8,7/8,1/2,1/2,
{4}1/8,2/7,3/6,,
{4}5,6,7,8,
{4}1,2,3,4,
{4}5/6,5/6,3/4,3/4,
{4}1/2,1/2,7/8,7/8,
{4}5/6,4/7,3/8,1b/2b,
{4}8,1/7,2/6,,
{4}1,2/8,3/7,,
{4}5,4/6,3/7,,
{4}4,3/5,2/6,,
{4}4/5,3/6,2/7,1b/8b,
{1},
{1},
{1},
E
&inote_4=
(172){1},
{1},
{4},1b/8b,,3b/4b,
{1}5b>8[2:1]/7b,
{8}1,1,8,8,2-5[8:1],,6<3[2:1],,
{4},,,4/5,
{8}6,,2,1/2,,7,7/8,,
{2}7-3[8:1],1-5[8:1],
{8}8,8,1,1,7-4[8:1],,3>6[2:1],,
{4},,,4/5,
{4}3/4,4/6,3/4,4qq1[4:3]/5pp8[4:3],
{1},
{8}1/8,1/8,,3/8,,1/6,1/6,,
{4}8-4[8:1],,3h[4:1],4,
{4}6h[4:1],5,4/5,3/6,
{4}2h[4:1],1,7h[4:1],8,
{4}2h[4:1],1,7/8,1/6,
{4}1-5[8:1],,6h[4:1],5,
{4}3h[4:1],4,4/5,3/6,
{4}7h[4:1],8,2h[4:1],1,
{4}7h[4:1],8,1/2,3/8,
{4}1/8-4[8:1],,3h[4:1],4h[4:1],
{4}5h[4:1],6h[4:1],7,1/8,
{4}2h[4:1],1,7h[4:1],8h[4:1],
{4}1h[4:1],2h[4:1],3,4/5,
{4}7h[4:1],6h[4:1],5h[4:1],4h[4:1],
{4}3h[4:1],2h[4:1],1,1/8,
{8}3h[4:1]/4h[4:1],,,5h[4:1]/6h[4:1],,,,,
{4}3/4,4/6,6/8,1b/8b,
{1}2>5[2:1],
{1}6<1[2:1],
{1}2pp6[4:3],
{2},4/5,
{1}4>1[4:1]/5h[2:1],
{1}4h[2:1]/5<8[4:1],
{1}3>8[4:1]/4h[2:1],
{1}5h[2:1]/6<1[4:1],
{4}3,3/4,6,5/6,
{4}1/8,2/7,3/6,4qq1[4:3]/5pp8[4:3],
{1},
{4}1/8,4/5,2b/7b,,
{8}4,4,6,6,3-6[8:1],,7>4[2:1],,
{4},,,2/6,
{8}3/4,,5,4/6,,2,1/3,,
{8}8-3[8:1]*-5[8:1],,,,2/6,2/6,2/6,,
{8}5,5,3,3,6-3[8:1],,2<5[2:1],,
{4},,,3/7,
{8}6,4,6,,3,5,3,,
{1}3qq4[2:1]/6pp5[2:1],
{8}4/5,4/5,,1/6,,3/8,3/8,,
{2}2-5[8:1],6-1[8:1],
{2}2>5[8:1],6<1[8:1],
{4}2,1/3,7,6/8,
{4}1/2,1/3,7/8,6/8,
{2}1-6[8:1],8-3[8:1],
{2}4-7[8:1],5-2[8:1],
{8}4h[4:3],,,8,8h[4:1],,,,
{16}4/5,,,4/5,,,4/5,,2b/7b,,,,,,,,
{8}6,6,2,2,5-8[8:1],,1pp4[2:1],,
{4},,,3/7,
{8}5/6,,3/4,2/5,,5/6,4/7,,
{8}1-4[8:1]*-6[8:1],,,,3/7,3/7,3/7,,
{8}2,2,7,7,4-1[8:1],,8qq5[2:1],,
{4},,,2/6,
{2}3/4-1[8:1],5-8[8:1]/6,
{1}3>6[2:1]/4p5[2:1],
{4}8b,8b,1b/8b,1b/8b,
{8}3,3,7,7,4-7[8:1],,8pp4[2:1],,
{4},,,2/6,
{8}4/5,,7/8,1/6,,1/2,3/8,,
{2}8-4[8:1]*-6[8:1],1-3[8:1]*-5[8:1],
{8}6,6,2,2,5-2[8:1],,1qq5[2:1],,
{4},,,3/7,
{2}5-1[8:1]/6,3/4-8[8:1],
{1}1<4[2:1]/2h[4:3],
{8}5/6,5/6,,3/7,,1/2,1/2,,
{2}7/8-5[8:1],1-4[8:1]/2,
{2}7/8-5[8:1],1-4[8:1]/2,
{2}7/8-4[8:1],1-5[8:1]/2,
{8}3,3,5,5,4,4,6,,
{4}3h[4:1],1h[4:1],8h[4:1],6,
{4}6h[4:1],8h[4:1],1h[4:1],3,
{2}3-8[8:1]/4,5/6-1[8:1],
{8}1/8,1/8,1/8,,2-5[8:1]/7-4[8:1],,,,
{4}3/4,1/2,7-5[8:1]/8-4[8:1],,
{4}5/6,7/8,1-5[8:1]/2-4[8:1],,
{2}7-4[8:1]/8-3[8:1],1-6[8:1]/2-5[8:1],
{8}4/5,4/5,4/5,,3/6,,1b/8b,,
{8}1,1h[8:1],8,8h[8:1],1,1h[8:1],8,8h[8:1],
{8}4,4h[8:1],5,5h[8:1],4,4h[8:1],5,5h[8:1],
{8}2,2h[8:1],3,3h[8:1],2,2h[8:1],3,3h[8:1],
{8}1,1h[8:1],5,5h[8:1],1,1h[8:1],5,5h[8:1],
{8}4,4h[8:1],8,8h[8:1],4,4h[8:1],8,8h[8:1],
{8}6,6h[8:1],7,7h[8:1],6,6h[8:1],7,7h[8:1],
{8}1,1h[8:1],2,2h[8:1],3,3h[8:1],4,4h[8:1],
{8}5,5h[8:1],6,6h[8:1],7,7h[8:1],8,,
{4}1b,1b,1b/8b,1b/8b,
{4}2h[4:1],4h[4:1],5h[4:1],7,
{4}7h[4:1],5h[4:1],4h[4:1],2,
{4}4/5,6/7,1/8,2/3,
{1}4qq1[2:1]/5pp8[2:1],
{8}2/7,2/7,,4/5,3/6>3[8:1],,,,
{1},
{1},
{1},
E
&inote_5=
(172){1},
{4},,,8b,
{4}4h[4:1],6h[2:1],,2h[4:1],
{8}8h[4:1],,1,2/7,,4/5,3/6-3[8:1],,
{4}2-7[8:1],5-8[8:1],1-4[8:1],6<4[2:1],
{8},,,,,,4,5,
{8}3,5,6,2,4,5,1>6[4:1],8,
{4},,1/8,3-6[8:1]/6,
{4}7-2[8:1],4-1[8:1],8-5[8:1],3>5[2:1],
{8},,,,,,5,4,
{8}6,4,3,,2/4,,5>6[4:3]/7,,
{1},
{8}4/5,4/5,,1/8,,2/7,2/7,,
{8}3-1[8:1]/5-7[8:1],,,,8,8,1,1,
{4}2/8,1/7,3/8,1/6,
{4}7-2[8:1],4,3-6[8:1],8w4[4:1],
{4},,2/7,2/7,
{8}4-2[8:1]/6-8[8:1],,,,1,1,8,8,
{4}2/4,5/7,2/5,4/7,
{4}3/4<7[8:1],2,5>2[8:1]/6,7,
{4}4/5,1/8,2-5[8:1]/7-4[8:1],,
{8}3-1[8:1]/5-7[8:1],,,,8,8,1,1,
{8}6,6,3,3,4/5,,2/7,,
{4}3<6[8:1],8,7>2[8:1],4,
{4}3<6[8:1],8-4[8:1],1-5[8:1],8,
{8}3-6[8:1]/7-2[8:1],,,,8,8,2,2,
{8}6,6,4,4,4/5,,3/6,,
{8}1h[4:1]/7h[4:1],,,2h[4:1]/8h[4:1],,,,1/8,
{8}1/8,2/7,2/7,3/6,4/5,,2/7,,
{8}5<2[2:1],,4,4,,3,3,,
{8}4>7[2:1],,5,5,,6,6,,
{4}5/6,7/8,1/2,3/4,
{4}5>2[4:1]/6<1[4:1],,,4/5,
{8}3/5h[4:1],4,3h[4:1],4,5h[4:1],4,3h[4:1],4,
{8}6h[4:1],5,4h[4:1],5,6h[4:1],5,4h[4:1],5,
{4}6-1[8:1],2-5[8:1],7-4[8:1],1,
{4}2/3,1/4,5/8,6/7,
{2}5-2[8:1]/6,3/4-7[8:1],
{4}5-1[8:1]/6,8,3/4-8[8:1],1,
{1}5/6<3[2:1],
{16}4,5,4,5,4,5,4,5,4,,,,4/6b-1[8:1],,,,
{4}3-8[8:1],5-1[8:1],4-8[8:1],6<3[8:3],
{8},,,,5/6,,8,1,
{8}2>5[8:1],,7,6<1[8:1],,3,2w6[4:1],,
{8},,,,4/7,6,3-8[8:1]/5,,
{4}6-1[8:1],4-8[8:1],5-1[8:1],3>6[8:3],
{8},,,,3/4,,3,4,
{8}5<8[8:1],,3,2,1>4[8:1],,6w2[4:1],,
{4},,1/2,4/8,
{8}3/4,3/4,,1/6,,5/6,4/7,,
{4}8-4[8:1],3,1-5[8:1],6,
{4}8-4[8:1],3,1-5[8:1],6<3[4:1],
{4}4,,1/8,2/7-3[8:1],
{4}8-4[8:1],1-5[8:1],2-6[8:1],8<1[2:1],
{4}1,,,1>8[2:1],
{4},,,1/8,
{8}3/7,2/6,3/7,2/6,3b/7b,,4/5,,
{16}5/7,,,4/5,,,2/4,,1/8,,,,3/6<1[8:1],,,,
{4}2>5[8:1],7-3[8:1],1-5[8:1],6<3[8:3],
{8},,,,5/6,,4,5,
{8}6<1[8:1],,3,2>5[8:1],,7,6w2[4:1],,
{8},,,,4/5,4/5,3>8[8:1]/6,,
{4}7<4[8:1],2-6[8:1],8-4[8:1],3>6[8:3],
{8},,,,3/4,,6,5,
{8}4>1[8:1],,6,7,8<5[8:1],,3w7[4:1],,
{4},,7/8,4/5,
{4}6h[8:1]/7h[8:1],2h[8:1]/3h[8:1],1h[8:1]/8h[8:1],4/5-1[8:1],
{4}2-7[8:1],6-1[8:1],5-2[8:1],6<3[8:3],
{8},,,,5/6,,5,6,
{8}7<4[8:1],,3,2-6[8:1],,8,8w4[4:1],,
{4},,1b/8b,4b-8[8:1]/5b,
{4}7-2[8:1],3-8[8:1],4-7[8:1],3>6[8:3],
{8},,,,3/4,,7,8,
{8}1>4[8:1],,7,6,5-1[8:1],,2>7[2:1],,
{4},,,4/5,
{8}1/8,1/8z4[2:1],,,,,,,
{2}1-4[8:1]/5-8[8:1],4-1[8:1]/8-5[8:1],
{2}1-4[8:1]/5-8[8:1],4-1[8:1]/8-5[8:1],
{2}1>4[8:1]/5<8[8:1],4>1[8:1]/8<5[8:1],
{2}1>4[8:1]/5<8[8:1],4>1[8:1]/8<5[8:1],
{8}2-6[8:1]/8-4[8:1],,,,3,2,1>4[8:1],,
{4}8<5[8:1],1>4[8:1],8,3>8[8:1]/6,
{4}5,3/6<1[8:1],4,4/5,
{8}1/8,2/7,3/6,,3/6,,1/8,,
{4}4>1[8:1]/5,8,4/5<8[8:1],1,
{4}4>1[8:1]/5,8,4/5,2/7,
{4}3/8,2/7,1/6,2/7,
{8}1/8,1/8,1/8,,4/5,,2b/7b,,
{8}8-5[8:1],8,4-1[8:1],4,8-5[8:1],8,4-1[8:1],4,
{8}7-4[8:1],7,3-8[8:1],3,7-4[8:1],7,3-8[8:1],3,
{8}6-3[8:1],6,2-7[8:1],2,6-3[8:1],6,2-7[8:1],2,
{8}6-3[8:1],6,1-5[8:1],1,8-4[8:1],8,2,3,
{8}4-1[8:1],4,8-5[8:1],8,4-1[8:1],4,8-5[8:1],8,
{8}3-8[8:1],3,7-4[8:1],7,3-8[8:1],3,7-4[8:1],7,
{8}2-7[8:1],2,6-3[8:1],6,2-7[8:1],2,6-3[8:1],6,
{8}2<7[8:1],2,6>3[8:1],6,2<7[8:1],2,6-1[8:1],6,
{8}3-8[8:1],3,5-1[8:1],5,4-8[8:1],4,5,6,
{4}7-3[8:1],2-6[8:1],8-4[8:1],1>8[2:1],
{8},,,,,,7,6/8,
{2}1/5,4/8,
{8}4/5,4/5,3/6,3/6,2/7,2/7,1/8,,
{8}7/8,1/6,,1/2,3<6[8:1]/8,,,,
{1},
{1},
{1},
E
