&title=TRUST
&wholebpm=190
&artist=小仏 凪(CV:佐倉 薫)
&des=玉子豆腐
&shortid=695
&genre=オンゲキCHUNITHM
&cabinet=SD
&version=maimai MiLK
&chartconverter=Neskol
&lv_2=6
&des_2=-
&lv_3=7+
&des_3=-
&lv_4=11
&des_4=サファ太
&lv_5=13
&des_5=玉子豆腐
&des_6=
&inote_2=
(190){1},
{1},
{1},
{1},
{1},
{1},
{1},
{2}1,1,
{2}2,2,
{2}3,3,
{2}4,4/5,
{2}5,5,
{2}6,6,
{2}7,7,
{2}8,1/8,
{1}1h[1:1]/8h[1:1],
{1},
{2}1,1,
{2}1/2,1/2,
{1}1h[1:1]/2h[1:1],
{1},
{2}8,8,
{2}7/8,7/8,
{1}7h[1:1]/8h[1:1],
{1},
{2}6,6,
{2}5/6,5/6,
{1}5h[1:1]/6h[1:1],
{1},
{2}4,4,
{2}3/4,3/4,
{1}3h[1:1]/4h[1:1],
{1},
{1}5-8[4:3],
{1},
{1}4-1[4:3],
{1},
{1}8-5[4:3],
{1},
{1}1-4[4:3],
{1},
{1}8h[1:1],
{1},
{4}1b,1,1,,
{4}2,2,2,,
{4}3,3,3,,
{4}4,4,4/5,,
{4}5,5,5,,
{4}6,6,6,,
{4}7,7,7,,
{4}8,8,1/8,,
{4}7,7,7,,
{4}6,6,6,,
{4}5,5,5,,
{4}4,4,4/5,,
{4}3,3,3,,
{4}2,2,2,,
{4}1,1,1,,
{4}8,8,1/8,,
{4}1,1,1,,
{4}1/2,1/2,1/2,,
{4}8,8,8,,
{4}7/8,7/8,7/8,,
{1}1-5[4:3],
{1},
{1}8-4[4:3],
{1},
{4}1,1,1,,
{4}2,2,1/2,,
{4}3,3,3,,
{4}4,4,4/5,,
{4}5,5,5,,
{4}6,6,5/6,,
{4}7,7,7,,
{4}8,8,1/8,,
{4}2,2,1/2,,
{4}3,3,3/4,,
{4}5,5,4/5,,
{4}6,6,5/6,,
{4}7,7,7,,
{4}7/8,7/8,7/8,,
{4}1,1,1,,
{4}1/2,1/2,1/2,,
{4}1,1,8,8,
{4}7,7,7/8,,
{4}8,8,1,1,
{4}2,2,1/2,,
{1}8-5[4:3],
{1},
{1}1-4[4:3],
{1},
{1}8h[1:1],
{1},
{1}1h[1:1],
{1},
{1}1-4[4:3]/8-5[4:3],
{1},
{1},
{1},
E
&inote_3=
(190){1},
{1}4qq1[4:5],
{1},
{1}8qq5[4:5],
{1},
{1}3>6[4:5]/6,
{1},
{4}6,6,5,,
{4}3,3,4,,
{4}6,6,5,,
{4}4,4,4/5,,
{4}2,2,1,,
{4}7,7,8,,
{4}2,2,1,,
{4}8,8,1/8,,
{1}1pp4[4:5]/8qq5[4:5],
{1},
{4}4,4,4,,
{4}5,5,5,,
{4}3,3,4,,
{4}6,6,5/6,,
{4}1,1,1,,
{4}8,8,8,,
{4}2,2,1,,
{4}7,7,7/8,,
{4}6,6,5/6,,
{4}3,3,3/4,,
{1}4h[2:1]/5h[2:1],
{4}4/5,4/5,3/6,,
{4}2,2,1/2,,
{4}7,7,7/8,,
{4}1,1,8,8,
{1}1-4[2:1]/8-5[2:1],
{2}6h[2:1],5,
{2}3h[2:1],4,
{1}4h[2:1]/5h[2:1],
{2}4/5,3/6,
{2}7h[2:1],8,
{2}2h[2:1],1,
{2}3/4,2/5,
{2}5/6,4/7,
{1}4>1[4:3]/5<8[4:3],
{2},2/7,
{4}2b,1,3/8,,
{4}7,8,1/6,,
{4}1,1,8,8,
{4}1,8,2/7,,
{4}1,2,3,4,
{4}5,6,7/8,,
{4}8,7,6,5,
{4}4,3,2/5,,
{4}6,5,4/7,,
{4}3,4,2/5,,
{4}5,5,4,4,
{4}5,4,3/6,,
{4}4,3,2,1,
{4}8,7,5/6,,
{4}5,6,7,8,
{4}1,2,3/8,,
{4}6h[4:1],5,4/7,,
{4}3h[4:1],4,2/5,,
{4}7h[4:1],8,1/6,,
{4}1h[4:1],8,1/8,2bV41[2:3]/7bV58[2:3],
{1},
{1},
{4}1,1,8,8,
{4}1,8,2/7,,
{4}1,2,3/4,5,
{4}6,7,1/8,,
{4}8,7,5/6,4,
{4}3,1/2,3/8,,
{4}6,5,4/7,,
{4}3,4,2/5,,
{4}5,5,4,4,
{4}4/5,4/5,3/6,,
{4}4,3,1/2,8,
{4}7,6,4/5,,
{4}5,6,7/8,1,
{4}2,3/4,2/5,,
{4}2h[4:1],1,3/8,,
{4}7h[4:1],8,1/6,,
{4}1h[4:1],8,2/7,,
{4}1/8,2/7,3/6,,
{4}5,6,7/8,,
{4}4,3,1/2,,
{4}5,5,4,4,
{2}4h[4:1]/5h[4:1],3/6,
{1}5/6<3[4:5],
{1},
{1}3>6[4:5]/4,
{1},
{1}4qq1[4:5]/5,
{1},
{1}1/8qq5[4:5],
{1},
{24}4h[12:5]/5h[12:5],,,,,,,,,,,,,,,,,,,3/6,,,,,
{1},
{1},
{1},
E
&inote_4=
(190){1},
{1}4p7[1:1]/5,
{1},
{1}1/8p3[1:1],
{1},
{8}5h[4:1]/6h[4:1],,,5/6,,,3h[4:1]/4h[4:1],,
{8},3/4,,,4/5,,4/5,,
{4}3,3/4,6,5/6,
{4}3,2/4,6,5>2[8:3]/7,
{4},,,1/8,
{4}7,5/6,4/5,3/4,
{4}6,5/6,3,3/4,
{4}6,5/7,3,2/4<7[8:3],
{4},,,1/8,
{4}2,3/4,5/6,4/7,
{8}3,,3/4,,2h[8:3]/5,,,1,
{8},7/8,,5/6,,4/7,4/7,,
{4}3/6h[4:5],3,4,4,
{4}5,5,4,5,
{4}3h[4:5]/6,6,5,5,
{4}4,4,2/5,,
{4}6h[2:1],5,5,4/5,
{4}3h[2:1],4,4,4/5,
{4}6h[2:1],5,3h[2:1],4,
{4}5,4/5,3/6,,
{4}6h[1:1],5,4,3,
{4}2h[4:3],3,4,5<8[2:1],
{8},,,,,,1/2,1h[8:3]/2h[8:3],
{4},,3,4,
{4}4/5,6,4/5,3,
{4}5/6,7,3/4,2,
{4}5/6<3[4:3],4h[4:3],,,
{4},,1/8,2/7,
{8}6h[2:1],,,5,5,,4/7,,
{8}3h[2:1],,,4,4,,2/5,,
{4}6,6,5/6,6,
{8}7,7,8,,1/6,,,,
{8}2h[2:1],,,1,1,,3/8,,
{8}7h[2:1],,,8,8,,1/6,,
{4}5h[1:1],6,,6,
{4}4h[1:1],3,,3,
{4}5,5,4/5,4qq2[2:1]/5pp7[2:1],
{1},
{4}2b/7b,5/6,3h[4:1]/4,1,
{4}1/8,5/7,4h[4:1]/5,3<1[2:1],
{4},,,3h[4:1],
{4}4,2/5,1/6,2/7,
{8}3,3,4,,2/5,,6,6,
{4}5,4/7,3/5,7/8,
{8}6,6,5,,4/7,,3,3,
{4}4,2/5,1/8,,
{4}3/6,7/8,1/2h[4:1],4,
{4}4/5,6/8,1h[4:1]/8,2<4[2:1],
{4},,,2h[4:1],
{4}1,3/8,4/7,3/6,
{8}7,7,8,,1/6,,2,2,
{4}1,3/8,1/7,3/4,
{8}2,2,1,,3/8,,7,7,
{4}8,1/6,2b/7b,,
{4}3h[4:1],4,6h[4:1],5,
{4}2h[4:1],4,7h[4:1],5,
{4}2h[4:1],1,7h[4:1],8pp3[4:3],
{1},
{4}6,5/7h[4:1],8,1/6,
{4}3,2h[4:1]/4,1,3/8,
{4}2/7,6,2/5,3h[4:1],
{4}4,2/5,1/6,2/7,
{8}3/8,,2,1,2,,1/6,,
{8}7,8,7,,3/8,,5/6,,
{8}2/5,,3,4,3,,4/7,,
{8}6,5,6,,2/7,,,,
{4}1b/8b,3/4,6/7h[4:1],8,
{4}1/2,3/4,5/6h[4:1],7<1[2:1],
{4},,,7h[4:1],
{4}8,1/6,2/5,3/6,
{8}2/7,,6,5,5/6,,2/7,,
{8}3,4,3/4,,2/5,,7/8,,
{8}3/6,,2,1,1/2,,3/6,,
{8}7,8,7/8,,1b/6b,,,,
{4}2h[4:1],1,7h[4:1],8,
{4}3h[4:1],1,6h[4:1],8,
{4}2h[4:1],3,7h[4:1],6<3[2:1]*q3[2:1],
{4},,,1/8,
{4}3h[4:1]/4,2,5/6h[4:1],7,
{4}3h[4:1]/4,1,5/6h[4:1],8,
{4}3/4h[2:3],3,5,5,
{1}5h[2:1],
{8}3h[8:3],,,4h[8:3],,,5h[8:3],,
{8},6,,,4/7,,,,
{8}7h[8:3],,,6h[8:3],,,5h[8:3],,
{8},4,,,3/6,,,,
{8}1h[4:1]/2h[4:1],,,1/2,,3>6[8:5]/8,,,
{4},,,4/5,
{8}7h[4:1]/8h[4:1],,,7/8,,1/6h[4:1],,5,
{8},3/4,,1/2,,3/8,3/8,,
{8}1h[4:1]/8h[4:1],,,2h[4:1]/7h[4:1],,,3>5[1:2]/6<4[1:2],,
{1},
{1},
{1},
{1},
{1},
E
&inote_5=
(190){1},
{8}6,,5,,4,,3,4,
{8},6,5h[4:1],,4h[4:1],,3,,
{8}4,,5,,6,,7,8,
{8},2,1w5[4:1],,,,,,
{8}4h[4:1]/6h[4:1],,,4/6,,,2h[4:1]/8h[4:1],,
{16},,2/8,,,,,,2/6,7,8,1,2,3,4,5,
{8}2/6,,7,7,8,7,1,7,
{4}2V46[8:3],1,8,7,
{8}2/8,,2,2,1,2,8,2,
{4}7V53[8:3],8,1,2,
{8}2/5h[4:1],,4,3,1/2,,4h[4:1]/7,,
{8}5,6,7/8,,1/3,,5/7,,
{8}4h[4:1]/8,,6,7,1/8,2>7[4:1]/7,,2/7,
{8},,,1/8,,2,6,3,
{16}4/5,,,,4/7,,6,5,6,,4,,7,,7b-3[8:1]/8b-3[8:1],,
{8},7b/8b,,1b/2b>6[8:1],,2b/6b,,,
{8}3/6,,3/4,4,3/4,,3/5,,
{4}3/6,3/5,3/6,3/7,
{4}3/5,3/4<8[1:1],3,3,
{4}3,3,3,3,
{8}3/6,,3/5,5,3/5,,3/7,,
{4}3/7,3/6,3/7,3/8,
{4}1<5[4:3]/3,3,3,3,
{4}3,3,3,3/5,
{8}4/6,,5/6,5,5/6,,4/6,,
{4}4/6,4/6,3/6,2/6,
{4}4qq8[1:1]/6,6,6,6,
{4}6,6,1/6,2/6,
{8}3/6,,4/6,4,4/6,,3/6,,
{4}3/6,1/6,2/6,3/6,
{4}4/6,2/6,3/6,3/6,
{8}4/6,,4/6,,7,7,5,6,
{8}5/7h[2:1],,,,1h[8:3],,,3q8[4:1],
{8},,,,1,2/8,3/7,,
{8}5/6,,7/8,,1/2,,3,4,
{8},6,5,,5/7,,1/8,,
{8}2h[2:1]/4,,,,8h[8:3],,,6p1[4:1],
{8},,,,8,1/7,2/6,,
{8}3/4,,6,5,,3,4>7[4:1],,
{4},,1/2,3/8,
{2}3h[2:1],5h[2:1],
{1}7p3[8:3],
{8}2-6[8:1],1<6[8:1],2>5[16:3],1,2,,7pp4[8:3],7,
{4},3,2,2<6[4:1],
{8}6>2[4:1],,,8,8-4[8:1]*v3[8:1],,8,,
{4}2h[4:1],1h[4:1],8,7/8,
{8}1/2,2,2-5[8:1]/3,2,2/8,,7/8,7,
{8}6/7-4[8:1],7,1-5[8:1]/7,,5-1[8:1],,,,
{8}7/8,7,6/7-4[8:1],7,1/7,,1/8,1,
{8}1-4[8:1]/3,1,1-6[8:1]/7,,1,,1/5,,
{8}7-3[8:1],8>3[8:1],7<4[16:3],8,7,,2qq5[8:3],2,
{4},6,7,7>3[4:1],
{8}3<7[4:1],,,1,1-5[8:1]*v4[8:1],,1,,
{4}7h[4:1],8h[4:1],1,1/2,
{8}7/8,7,6/7-4[8:1],7,1/7,,1/2,2,
{8}2-5[8:1]/3,2,2/8-4[8:1],,4-8[8:1],,,,
{8}1/2,2,2-5[8:1]/3,2,2/8,,1/8,8,
{8}6/8-4[8:1],8,2/8>3[8:1],,8,,8b,,
{8}7-4[8:1]/8,,4/7,,3,4,3,2,
{8}1/2-5[8:1],,2/5,,6,5,6,7,
{4}4-8[8:1]/7-4[8:1],4/7,1-4[8:1]/5-1[8:1],1/5,
{4}3-8[8:1]/7-4[8:1],3/7,1>8[8:7]*q8[8:7],,
{1},
{4}1>4[4:1]/6,4<7[4:1],7>2[4:1],2,
{8}5,,3,3,2,3,1,3,
{4}8h[4:1],1h[4:1],2,1/2,
{8}7/8,7,6/7-4[8:1],7,1/7,,1/2,2,
{8}2-5[8:1]/3,2,2/8-4[8:1],,4-8[8:1],,,,
{8}1/2,2,2-5[8:1]/3,2,2/8,,1/8,8,
{8}6/8-5[8:1],8,2/8-3[8:1],,8,,4/8,,
{8}2-6[8:1],1<6[8:1],2>5[16:3],1,2,,7pp4[8:3],7,
{4},3,2,2<6[4:1],
{8}6>2[4:1],,,8,8-4[8:1]*v6[8:1],,8,,
{4}2h[4:1],1h[4:1],8,7/8,
{8}1/2,2,2-5[8:1]/3,2,2/8,,7/8,7,
{8}6/7-4[8:1],7,1-5[8:1]/7,,5-1[8:1],,,,
{8}7/8,7,6/7-4[8:1],7,1/7,,1/8,1,
{8}1-5[8:1]/3,1,1<6[8:1]/7,,1,,1b,,
{8}1/2-5[8:1],,2/5,,6,5,6,7,
{8}7-4[8:1]/8,,4/7,,3,4,3,2,
{4}2-5[8:1]/5-1[8:1],2/5,4-8[8:1]/8-5[8:1],4/8,
{4}2-7[8:1]/6-3[8:1],2/6,1/5,3b/7b,
{8}7-3[8:1]/8,,3/7,,4,5,4,3,
{8}1/2-6[8:1],,2/6,,5,4,5,6,
{8}4/7,,3/5,6,4/7,3,2/7,1/8,
{4}2b/7b,,,4/5,
{8}2,3,4,2,3,4,3,4,
{8}5,3,4,5,4,5,6,,
{8}7,6,5,6,5,4,5,4,
{8}3,2,1w5[4:1],,,,,,
{8}2h[4:1]/4h[4:1],,,2/4,,4/5,6,7-4[8:1]/8,
{8},1/7,,1/2-5[8:1],,2/8,,,
{8}5h[4:1]/7h[4:1],,,5/7,,4/5,3,2-5[8:1]*-6[8:1],
{8},2,,7-3[8:1]*-4[8:1],,7,,,
{8}1h[4:1]/3h[4:1],,,6h[4:1]/8h[4:1],,,1b>8[1:2]/8b,,
{1},
{1},
{1},
{1},
{1},
E
