&title=Still
&wholebpm=176
&artist=イロドリミドリ「CHUNITHM」
&des=Jack
&shortid=696
&genre=オンゲキCHUNITHM
&cabinet=SD
&version=maimai MiLK
&chartconverter=Neskol
&lv_2=5
&des_2=-
&lv_3=7+
&des_3=-
&lv_4=11
&des_4=はっぴー
&lv_5=13
&des_5=Jack
&des_6=
&inote_2=
(176){1},
{1},
{2}1,1,
{4}2,2,2,,
{2}3,3,
{4}4,4,4/5,,
{2}5,5,
{4}6,6,5/6,,
{2}7,7,
{4}8,8,1/8,,
{1}1-4[4:3],
{1},
{1}8-5[4:3],
{1},
{1}1-6[4:3],
{1},
{1}8-3[4:3],
{1},
{1}1h[1:1],
{1},
{1}2h[1:1],
{1},
{1}3h[1:1],
{1},
{1}4h[1:1],
{1},
{2}5,5,
{2}5/6,5/6,
{2}7,7,
{2}7/8,7/8,
{4}1,1,1,,
{4}8,8,8,,
{1}1/8,
{4}1/8,1/8,1/8,,
{1}1b/8b,
{4}1,1,1,,
{4}2,2,2,,
{4}3,3,3,,
{4}4,4,4/5,,
{4}5,5,5,,
{4}6,6,6,,
{4}7,7,7,,
{4}8,8,1/8,,
{4}7,7,7,,
{4}6,6,6,,
{4}5,5,5,,
{4}4,4,4/5,,
{4}3,3,3,,
{4}2,2,2,,
{4}1,1,1,,
{4}8,8,1/8,,
{1}7-3[4:3],
{1},
{1}2-6[4:3],
{1},
{1}7-4[4:3],
{1},
{1}2-5[4:3],
{1},
{1}7h[1:1]/8h[1:1],
{1},
{1}5h[1:1]/6h[1:1],
{1},
{1}3h[1:1]/4h[1:1],
{1},
{1}1h[1:1]/2h[1:1],
{1},
{2}1/8,1/8,
{1}1b/8b,
{1}8-5[4:3],
{1},
{1}1-4[4:3],
{1},
{1}5-8[4:3],
{1},
{1}4-1[4:3],
{1},
{1}8b,
{4}1,1,1,,
{4}2,2,2,,
{4}3,3,3,,
{4}4/5,4/5,4/5,,
{4}5,5,5,,
{4}6,6,6,,
{4}7,7,7,,
{4}1/8,1/8,1/8,,
{4}7,7,7,,
{4}6,6,6,,
{4}5,5,5,,
{4}4/5,4/5,4/5,,
{4}3,3,3,,
{4}2,2,2,,
{4}1,1,1,,
{4}1/8,1/8,1/8,,
{4}2,2,2,,
{4}3,3,3,,
{4}4,4,4,,
{4}5,4,4/5,,
{4}6,6,6,,
{4}7,7,7,,
{4}8,8,8,,
{4}1,8,1/8,,
{2},1-4[4:3]/8-5[4:3],
{1},
{1},
{1},
E
&inote_3=
(176){1},
{1},
{4}6,6,5,5,
{4}4,4,3,3,
{1}3>6[4:5]/4,
{1},
{4}7,7,8,,
{4}2,2,1,,
{4}7,7,8,8,
{4}1,8,1/8,,
{1}6h[1:1],
{1}5h[1:1],
{1}4h[1:1],
{1}3,
{1}3h[1:1],
{1}4h[1:1],
{1}5h[1:1],
{2}6,4/5,
{2}6h[2:1],5,
{2}3h[2:1],4,
{2}6h[2:1],5,
{2}4h[2:1],5,
{2}3h[2:1],4,
{2}6h[2:1],5,
{2}4h[2:1],5,
{2}3/6,4/5,
{4}6,6,5,,
{4}4,4,4/5,,
{4}3,3,4,,
{4}5,5,4/5,,
{1}4qq1[4:5]/5pp8[4:5],
{1},
{1}1h[2:1]/8h[2:1],
{4}8,8,1,1,
{1}2b/7b,
{4}2,2,1,1,
{4}2,1,3/8,,
{4}7,7,8,8,
{4}7,8,1/6,,
{4}6,5,4/7,,
{4}3,4,2/5,,
{4}5,5,4,4,
{2}4h[4:1]/5h[4:1],3/6,
{4}2,1,3/8,,
{4}7,8,1/6,,
{1}4-1[4:3]/5-8[4:3],
{2},2/7,
{4}5,6,7/8,,
{4}4,3,1/2,,
{4}8,8,1,1,
{1}1-4[2:1]/8-5[2:1],
{4}3,3,4,4,
{4}5,6,5/6,,
{4}6,6,5,5,
{4}4,3,3/4,,
{4}2,2,1,1,
{4}8,7,7/8,,
{4}7,7,8,8,
{4}1,8,2/7,,
{4}6h[2:1],5,5,,
{4}3h[2:1],4,4,,
{1}4/5s1[4:3],
{2},2/8,
{4}3,3/4,3,3/4,
{4}6,5/6,6,5/6,
{4}3,3/4,6,5/6,
{4}4/5,4/5,3/6,,
{1}3V14[4:5]/6V85[4:5],
{1},
{4}3,3,3/4,,
{4}5,4,4/5,,
{4}6,6,5/6,,
{4}4,5,4/5,,
{1}4qq1[4:5]/5pp8[4:5],
{1},
{1}1h[2:1]/8h[2:1],
{4}1,1,8,8,
{1}2b/7b,
{4}2,2,1,1,
{4}2,1/2,3/8,,
{4}7,7,8,8,
{4}7,7/8,1/6,,
{4}3,3/4,2/5,,
{4}6,5/6,4/7,,
{4}4,4,5,4,
{2}4h[4:1]/5h[4:1],3/6,
{4}1/2,1/2,3/8,,
{4}7/8,7/8,1/6,,
{1}4>1[4:3]/5<8[4:3],
{2},2/7,
{4}4,3,1/2,,
{4}5,6,7/8,,
{4}1,1,8,8,
{1}1>4[2:1]/8<5[2:1],
{4}3,3,4,4,
{4}5,5,6,6,
{1}5/6<3[4:3],
{2},4/5,
{4}6,6,5,5,
{4}6,5/6,4/7,,
{4}3,3,4,4,
{4}3,3/4,2/5,,
{4}3/6,4/5,2b/7b,,
{1},
{1},
{1},
E
&inote_4=
(176){1},
{1},
{4}2/7,4/5,3,2/4,
{4}6,5/7,2,1/3,
{8}7h[8:3],,8,8,,5>7[8:3]/6,,,
{4},,4/5,3/4,
{8}4/6,,5,,7,7,8,,
{8}3/5,,4,,2,2,1,,
{8}4/5,,3/6,,1/8,,2/7,2/7,
{8},3,4,5,4,5,6>3[2:1],,
{4},,,6>3[2:1],
{4},,,6>3[2:1],
{4},,,6>3[2:1],
{4},,,6p2[2:1],
{4},,,6q2[2:1],
{4},,,6>3[2:1],
{4},,,6>3[2:1],
{4},,,4/5,
{4}3/6h[4:15],5,5,3,
{4}4,5,5,3,
{4}4,5,5,3,
{4}4,5,5,3,
{4}2/7h[1:3],5,5,2,
{4}4,5,5,2,
{4}4,5,5,4,
{8}2,,,,5,5,4,,
{4}1h[4:3]/6>3[4:1],,,8,
{4}3<6[4:1]/8h[4:3],,,1,
{4}1h[4:3]/6>3[4:1],,,8,
{4}3<6[4:1]/8h[4:3],,,1,
{8}4/5,,5/7,,6,6,5/6,,
{8}4/5,,2/4,,3,3,3/4,,
{8}1b,,,,,,,4h[4:1]/5h[4:1],
{4},4/5,1/8,3/6,
{8}2/7,2/7,,,,,4/5,,
{2}3>8[8:1]/5,4/6<1[8:1],
{8}3>8[8:1]/5,,,,4/6,,1,1,
{2}2>5[8:1]/8,1/7<4[8:1],
{4}2>5[8:1]/8,,1/7,6h[4:1],
{4}8h[4:1],1h[4:1],3h[4:1],1h[4:1],
{4}8h[4:1],6h[4:1],3,4/5,
{1}1>8[2:1]/8,
{8}1/8,1/8,,2h[4:1]/7h[4:1],,,2/7,,
{2}4/6<1[8:1],3>8[8:1]/5,
{8}4/6<1[8:1],,,,3/5,,8,8,
{8}1h[8:3],,3,3,,4/5,,5/7,
{8},1/8,1/8,2/7,,4/5,4/5,,
{4}5/6,5-1[4:1]/7,8h[4:1],,
{4}3/4,2/4-8[4:1],1h[4:1],,
{4}1/8,4>1[4:1]/5<8[4:1],,,
{4}2/7,,,4/5,
{8}8h[8:3],,,5h[8:3],,,7h[8:3],,
{8},8,,7/8,7/8,,5/6,,
{8}7h[8:3],,,6h[8:3],,,5h[8:3],,
{8},6h[8:3],,,8,,5/6,,
{8}8h[8:3],,,6h[8:3],,,5h[8:3],,
{8},6h[4:1],,7,6,,5/8,,
{8}7h[8:3],,,5h[8:3],,,8,,
{8},3,3,,4,3,2,,
{8}2h[8:3],,,3h[8:3],,,4h[8:3],,
{8},1h[8:3],,,2,,2/3,,
{8}1b/4w8[8:3],,,,,,,2h[4:1],
{8},1,1,,2,3,4,,
{4}6,5/6,6,5/6,
{4}3,3/4,3,3/4,
{4}2<7[4:1]/5,,,4/5,
{4}4/7>2[4:1],,,4/5,
{8}3/6,3/6,,5/7,,2/4,,1b/8b,
{4},,4,5,
{4}6h[1:1],,5,5,
{4}3h[1:1],,4,4,
{4}6h[1:1],,5,5,
{4}3,3,4/5<8[2:1],4,
{4}4,4,4>1[2:1]/5,5,
{4}5,5,4/5,4/5,
{8}2/7,,,,,,,4h[4:1]/5h[4:1],
{4},5/7,4/5,2/4,
{8}1/8,1/8,,,,,4/5,,
{2}3/4>1[8:1],5<8[8:1]/6,
{8}3/4>1[8:1],,,,5/6,,7,7,
{2}7/8<5[8:1],1>4[8:1]/2,
{4}7/8<5[8:1],,1/2,2h[4:1],
{4}4h[4:1],5h[4:1],7h[4:1],5h[4:1],
{4}4h[4:1],2h[4:1],7,1/8,
{1}4/5<4[2:1],
{8}1/8,1/8,,2h[4:1]/7h[4:1],,,2/7,,
{2}5<8[8:1]/6,3/4>1[8:1],
{8}5<8[8:1]/6,,,,3/4,,1,1,
{8}8h[8:3],,6,6,,4/5,,2/4,
{8},1/8,1/8,2/7,,4/5,4/5,,
{4}3/4,2/4<8[4:1],1h[4:1],,
{4}5/6,5>1[4:1]/7,8h[4:1],,
{4}4/5,1>4[4:1]/8<5[4:1],,,
{4}7b/8h[2:1],,,4/5,
{4}3,2/4,6,5/7,
{4}3,2/4,7,6/8,
{8}2h[8:3],,1,1,,3/4<2[8:3],,,
{4},,4/5,5/6,
{8}3/5,,4,,2,2,1,,
{8}4/6,,5,,7,7,8,,
{8}5/6,,4/7,,3/4,,2/5,2<7[4:1]/5,
{4},,4/5,1/8,
{8}5,5,4,,2b/7b,,,,
{1},
{1},
{1},
E
&inote_5=
(176){1},
{8},,,,,5,5,5,
{8}4/6<1[8:1],,2,,3,4,2/5,,
{8}6,5,4/7,,6,5,4,3,
{8}2-5[8:1]/5,,6,6-1[8:1],,3>6[8:3],,6,
{16},,,,,,,,1/8,,,,5,4,5,4,
{8}6>3[8:1],,1,,2,3,4,2<7[8:1]/5,
{8},6,6-1[8:1],,2q5[8:3],,8,8,
{8},6,6-1[8:1]*-2[8:1],,,,1/2,3/8,
{8},7,8,1/6,5,4,2/7,,
{8}1,,3,4,5h[4:1],,6,,
{8}1,,3,4,5h[4:1],,6,,
{8}1,,3,4,5h[4:1],,6,,
{8}7-4[8:1],2,7,,7-4[8:1],2,7,,
{8}1,,3,4,5h[4:1],,6,,
{8}1,,3,4,5h[4:1],,6,,
{8}1,,3,4,5h[4:1],,6,,
{8}2-5[8:1],7,2,,2-5[8:1],7,2,,
{4}1/8h[4:3],1,1v6[8:1],,
{4}7h[4:3]/8,8,8v5[8:1],,
{4}6h[4:3]/7,7,7v4[8:1],,
{2}5h[4:1]/6v3[8:1],4h[4:1]/5v2[8:1],
{4}1h[4:3]/8,8,8v3[8:1],,
{4}1/2h[4:3],1,1v4[8:1],,
{4}2/3h[4:3],2,2v5[8:1],,
{8}3v6[8:1]/4h[4:1],,,,4/5,6,7,8,
{8}1/2,3/8,,5/6,4/7,,8,8-4[8:1],
{8},1-3[8:1],,7-5[8:1],,8h[8:3],,,
{8}7,1/6,,3/4,2/5,,1,1-5[8:1],
{8},8-6[8:1],,2-4[8:1],,1,8,7h[4:1],
{16},,8,,1/6,,3,4,3,,2/5,,1/6,,7/8,,
{16},,1/2,,3/8,,6,5,6,,4/7,,1,8,1,8,
{8}2/7,,,,,,,8-4[8:1],
{8},1,2,3,4/5,6,7,8,
{24}1/2,,,7/8,,,1-5[8:1],,,,,,8h[4:1],,,,,,4,3/7,2/6,1/5,,,
{8}1>4[8:1],,7,7p3[8:1],,2,2p5[8:1],,
{8}8<1[8:3],,4,4h[8:3],,,8,8,
{8}7p2[16:3],,1,1h[8:3],,,3pp4[4:1]*V14[4:1],,
{8},,,7/8,,,1>4[8:1]/7,8,
{8}1,,5,5qq4[4:1],,4<8[4:1],,1,
{4},2-7[8:1],2/6-3[8:1],1-4[8:1]/6,
{8}1/5q8[2:1],,1,1h[8:3],,,,,
{24}2,,,2>8[24:5],,,,,,6h[8:3],,,,,,1,2,3,4,,,,,,
{8}8-4[8:1],,3,3q7[8:1],,8,8<5[8:1],,
{8}2q3[8:3],,6,6h[8:3],,,3,4/5,
{8}2/7,,1/8,1<6[8:1]/8>3[8:1],,1-5[8:1]/8-4[8:1],,1>4[8:1]/8<5[8:1],
{16},,1/8,,,,1b/8b,,,,,,6,5,4,3,
{8}2/7,,1/5,2/6,3/7,4V28[4:1]/8V64[4:1],,4/8,
{8},,2/6,,4/8,4qq1[2:1]/8qq5[2:1],,4/8,
{16},,,,,,,,2/6,,,,1,8,1,8,
{16}2/7,,,,,,4,4,5,,,,1/8,,,,
{8}7qq5[16:3],,,8>4[4:1],,,6h[8:3],,
{16},,5,,,,4,,4h[16:3],,,3h[16:3],,,2,,
{8}2pp4[16:3],,,1<5[4:1],,,3h[8:3],,
{8},4,,5/6,5-3[8:1]/6-8[8:1],,5/6,,
{8}2-6[8:1],,2,7-3[8:1],,7,1-5[8:1],,
{8}1,8-4[8:1],,8,1,2,3/5,,
{8}4h[4:1]/7h[4:1],,,1h[4:1]/6h[4:1],,,4>6[8:3]/8pp5[8:3],,
{8},,,,4,3,2,1/5,
{8}1/5,,3/7,3/7,,2-5[8:1],1,8,
{8}7-4[8:1],8,1,2-5[8:1],1,8,7,,
{24}6,5,4,3,2,1,8,7,6,5,4,3,2,1,8,7,6,5,1b,,,,,,
{8}8<5[8:1],1,2,3,4>1[8:1],5,6,7,
{8}8,1,2,3h[4:1]/4,,8,7,5/6h[4:1],
{16},,1,,2,,3/4,,5/6h[16:3],,,7h[16:3],,,8,,
{8}1/2,3/8,,1/6,,1>8[2:1]/8<1[2:1],,1/8,
{4},,8-4[8:1],8,
{8}1/5,1/5-8[8:1]*<8[8:1],,5-2[8:1]*>2[8:1],,5w1[8:1],,5,
{8},3/7,3/7,,2,3,4,5,
{8}6,5/7,,3,2/4,,8,8<5[8:1],
{8},8>3[8:1],,8-4[8:1],,8,,,
{8}3,2/4,,6,5/7,,1,1-5[8:1],
{8},8-4[8:1],,2-6[8:1],,5<4[2:1],,1h[4:3],
{8},,,,,5<4[2:1],1,5,
{16},,,,,,,,,,,,4,5,4,5,
{8}3/6,,,,,,,1-5[8:1],
{8},6,7,8,1/5,4/8,3/7,2/6,
{24}1/5,,,1/5,,,8-4[8:1],,,,,,1h[4:1],,,,,,5b,2b/6b,3b/7b,4b/8b,,,
{8}8<5[8:1],,2,2q6[8:1],,7,7q4[8:1],,
{8}1>8[8:3],,5,5h[8:3],,,1,1,
{8}6q3[16:3],,4,4h[8:3],,,2<5[4:1],,
{8}3,,4,2b/7b,,,2/8<5[8:1],1,
{8}8,,4,4qq5[4:1],,5<4[8:3],,1,
{4},7-2[8:1],3-6[8:1]/7,3/8-5[8:1],
{8}4p1[2:1]/8,,8,8h[8:3],,,,,
{24}7,,,7<1[24:5],,,,,,3h[8:3],,,,,,8,7,6,5b,,,,,,
{8}1-5[8:1],,6,6p2[8:1],,1,1>4[8:1],,
{8}7p6[8:3],,3,3h[8:3],,,6,4/5,
{8}2/7,,1/8,1b<6[8:1]/8b>3[8:1],,1b-5[8:1]/8b-4[8:1],,1b>4[8:1]/8b<5[8:1],
{16},,1/8,,,,1b/8b,,,,,,3,4,5,6,
{8}2/7,,4/8,3/7,2/6,1V35[4:1]/5V71[4:1],,1/5,
{8},,3/7,,2/6,2>5[8:1]/6<1[8:1],,2/6,
{4},3>8[8:1]/7<4[8:1],7p1[8:1],,
{1}4b/8h[4:3],
{8}3>8[8:1]/5,,7,,6,5,4/7,,
{8}3,4,2/5,,3,4,5,6,
{8}4/7-3[8:1],,4,4-8[8:1],,5<4[8:3],,1,
{16},,,,,,,,1/8,,,,4,5,4,5,
{8}3<6[8:1],,8,,7,6,5,4/7>2[8:1],
{8},3,3-8[8:1],,7p4[8:3],,1,1,
{8},3,3-7[8:1]*-8[8:1],,,,7/8,1/6,
{8},2/7,3/6,4/5,1/8,2/7,3/6,,
{16}1-5[8:1],5,3,7,1b<2[8:23]*>8[8:23],,,,,,,,,,,,
{1},
{1},
{1},
{1},
{1},
E
