&title=Signature
&wholebpm=128
&artist=Palme
&des=Techno Kitchen
&shortid=681
&genre=maimai
&cabinet=SD
&version=maimai MiLK
&chartconverter=Neskol
&lv_2=4
&des_2=-
&lv_3=8+
&des_3=-
&lv_4=12
&des_4=はっぴー
&lv_5=13+
&des_5=Techno Kitchen
&des_6=
&inote_2=
(128){1},
{1},
{1},
{1},
{1},
{1}8h[2:1],
{1}7h[2:1],
{1}6h[2:1],
{1}5h[2:1],
{2}4,4,
{2}3,3,
{2}2,2,
{2}1,1,
{4}8,8,8,,
{4}1,1,1/8,,
{4}2,2,2,,
{4}3,3,3/4,,
{4}4,4,4,,
{4}5,5,4/5,,
{4}6,6,6,,
{4}7,7,7/8,,
{4}1,1,1,,
{4}8,8,1/8,,
{4}7,7,7,,
{4}6,6,5/6,,
{4}5,5,5,,
{4}4,4,4/5,,
{4}3,3,3,,
{4}2,2,1/2,,
{1}8-5[4:3],
{1},
{1}1-4[4:3],
{1},
{1}5-8[4:3],
{1},
{1}4-1[4:3],
{1},
{1}8h[2:1],
{1}7h[2:1],
{1}6h[2:1],
{4}4/5,4/5,4/5,,
{1}4h[2:1],
{1}3h[2:1],
{1}2h[2:1],
{4}1/8,1/8,1/8,,
{4}1/8,1/8,1b/8b,,
{1}2-6[4:3],
{1},
{1}7-3[4:3],
{1},
{1}2-5[4:3],
{1},
{1}7-4[4:3],
{1},
{4}1,1,2,2,
{4}3,3,3/4,,
{4}4,4,5,5,
{4}6,6,5/6,,
{4}7,7,8,8,
{4}1,1,1/8,,
{4}2,2,3,3,
{4}4,4,4/5,,
{4}5,5,4,4,
{4}3/4,3/4,3/4,,
{4}2,2,1,1,
{4}1/8,1/8,1/8,,
{4}7,7,6,6,
{4}4/5,4/5,4/5,,
{4}3,3,2,2,
{4}1/8,1/8,1/8,,
{1}1-4[4:3]/8-5[4:3],
{1},
{1},
{1},
E
&inote_3=
(128){1},
{1}3h[4:3]/4h[4:3],
{1}4h[4:3]/5h[4:3],
{1}5h[4:3]/6h[4:3],
{4}4h[2:1]/5h[2:1],,,4/5,
{4}5/6,4,,4,
{4}3/4,5,,5,
{4}5/6,4,,4,
{4}3/4,6,,6,
{4}5,5,4,4,
{4}6,5/6,3,3/4,
{4}6,5/7,3,2/4,
{4}8,1,8,2b/7b,
{4}6,7/8,,7/8,
{4}3,1/2,,1/2,
{4}7,1/8,,1/8,
{4}2,1/2,7,7/8,
{4}3,1/2,,1/2,
{4}6,7/8,,7/8,
{4}2,1/8,,1/8,
{4}1/8,2/7,3/6,4/5,
{4}5/6,7,5/6,7,
{4}5/6,7,5/6,1b/8b,
{4}2,1/8,7,1/8,
{4}2/7,3/6,4/5,,
{4}3/4,2,3/4,2,
{4}3/4,2,3/4,1b/8b,
{4}7,1/8,2,1/8,
{1}1-4[2:1]/8-5[2:1],
{4}6h[4:1],5,3h[4:1],4,
{4}6h[4:1],5,4/7,,
{4}6,5,4,3/6,
{4}2,1,3/8,,
{4}3h[4:1],4,6h[4:1],5,
{4}3h[4:1],4,2/5,,
{4}3,4,5,3/6,
{4}7,1/8,2/7,,
{1}8-4[2:1],
{1}1-5[2:1],
{1}7-4[2:1],
{4}3,3,2/4,,
{1}1-5[2:1],
{1}7<4[2:1],
{1}2>5[2:1],
{4}6,6,5/7,,
{4}4/5,4/5,3/6,,
{1}5<4[4:5],
{1},
{1}4>5[4:5],
{1},
{4}4,3h[4:1]/5,4,3h[4:1]/5,
{4}4,3h[4:1]/5,4,3h[4:1]/5,
{4}4,3h[4:1]/5,4,3/5,
{1}4qq1[2:1]/5pp8[2:1],
{4}3/6,1/8,3/6,1/8,
{4}3/6,7/8,3/6,1b/2b,
{4}3/4,8,5/6,1,
{4}3/4,2/5,1/6,2/7,
{4}3/6,1/8,3/6,1/8,
{4}3/6,1/2,3/6,7b/8b,
{4}5/6,1,3/4,8,
{1}1>4[8:3]/8<5[8:3],
{4}2/5,7/8,2/5,7/8,
{4}2/5,1/8,3/6,1b/2b,
{4}3/4,1/8,5/6,1/8,
{4}3/4,7/8,5/6,1/2,
{4}4/7,1/2,4/7,1/2,
{4}4/7,1/8,3/6,7b/8b,
{4}5/6,4/7,3/4,2/5,
{4}1/2,3/8,7/8,1/6,
{4}1/8,2/4,5/7,1pp4[1:1]/8qq5[1:1],
{1},
{1},
{1},
{1},
E
&inote_4=
(128){1},
{1}3h[1:1],
{1}4h[1:1],
{1}5h[1:1],
{1}6h[1:1],
{4}3h[1:1],4,,4,
{4}6h[1:1],5,,5,
{4}4h[1:1],3,,3,
{4}5h[1:1],6,,6,
{4}4,4,5,5,
{4}3,3,6,6,
{8}2,2,7,7,1,1,8,8,
{24}1,,8,1,,8,1>8[4:1],,8,1,,8,,,,,,,1b,,,,,,
{4}3/5h[4:1],2,4h[4:1]/6,7,
{4}1,8,4,1/5,
{4}4h[4:1]/6,7,3/5h[4:1],2,
{4}8,1,5,4/8,
{4}3/5h[4:1],2,4h[4:1]/6,7,
{4}1,8,4,1/5,
{4}4/6,2/4,2/8,6/8,
{4}4h[8:1]/6h[8:1],4h[8:1]/6h[8:1],4>1[8:1]/6,,
{8}4/6,5,6,8,3/5,4,3,1,
{8}8,6,1,3,5-8[8:1],5,4,,
{8}3/5,4,3,1,4/6,5,6,8,
{8}1,3,8,6,4,4,3/5,,
{8}4/6,5,6,8,3/5,4,3,1,
{8}8,6,1,3,5-8[8:1],5,4,,
{8}3/5,4,3,1,4/6,5,6,8,
{8}4,2,5,7,4,2,4/5,,
{8}3>1[8:1]/5,,4,4,3>8[8:1]/5,,4,4,
{8}3>7[8:1]/5,,4,4,3/5,6,5,3,
{8}4/6<8[8:1],,5,5,4/6<1[8:1],,5,5,
{8}4/6<2[8:1],,5,5,4/6,3,5,4,
{8}2>4[8:1]/5,,7,7,2>5[8:1]/5,,8,8,
{8}2>6[8:1]/5,,1,1,4/7,5,6,5,
{8}4/7<5[8:1],,2,2,4/7<4[8:1],,1,1,
{8}3/7<3[8:1],,8,8,3/6,4,4/5,,
{4}1/8<1[2:1],1,8,8,
{4}1>8[2:1]/8,8,1,1,
{8}4/8<5[4:1],,4,,1,2,3/7,,
{8}1>4[4:1]/5,,5,,8,7,2/6,,
{4}4>5[2:1]/5,5,4,4,
{4}4/5<4[2:1],4,5,5,
{8}4>1[4:1]/8,,8,,5,6,3/7,,
{8}1/5<8[4:1],,1,,4,3,2/6<3[4:3],,
{1},
{1}5h[1:1],
{1}8h[1:1],
{1}1h[1:1],
{1}4h[1:1],
{4}5,3h[4:1]/5,4,3h[4:1]/5,
{4}4,3h[4:1]/5,4,3h[4:1]/5,
{4}4,3h[4:1]/5,4,3/5,
{24}2,,,2,,,8,,,8,,,1,,8,1,,8,1b,,,,,,
{8}4-8[8:1]/6,,5,5,2-5[8:1]/6,,1,1,
{8}4-8[8:1]/6,,5,5,2-5[8:1]/6,,1,,
{8}4-8[8:1]/7,,5,5,2-5[8:1]/6,,1,1,
{8}4-8[8:1]/8,,5,5,2/6,,4/8,,
{8}3/5-1[8:1],,4,4,3/7-4[8:1],,8,8,
{8}3/5-1[8:1],,4,4,2/7-4[8:1],,8b,,
{8}1/5-1[8:1],,4,4,3/7-4[8:1],,8,8,
{8}2/5,,2V41[4:1]/7V58[4:1],2/7,,,,,
{8}3/5-1[8:1],3,4,4,3/7-4[8:1],3,2,2,
{8}3/5-1[8:1],3,4,4,3/7-4[8:1],2,1,1,
{8}2/5-1[8:1],3,4,4,3/7-4[8:1],1,8,8,
{8}2/5-1[8:1],3,4,4,3/7,6,1/5,,
{8}4-8[8:1]/7,6,5,5,2-5[8:1]/6,8,1,1,
{8}4-8[8:1]/7,6,5,5,2/6,1,1h[8:1]/8h[8:1],,
{8}4/7,5,4,1h[4:1]/5,,5,4,3,
{8}2/5,4,5,4/8h[4:1],,4,5,6,
{8}4/7,5,4,1h[4:1]/5,,5<4[1:1],5,4b,
{1},
{1},
{1},
E
&inote_5=
(128){1},
{1}3>5[2:1]/4h[4:7],
{1}5h[8:19],
{1}4>6[2:1],
{8}6h[8:7],,,,,,,5,
{8}4,,1/3,4,,,1/3,,
{8}5,,6/8,,,7,6/8,,
{8}4,,1/3,4,,2,1/3,4,
{16}5,,,,6/8,,7,,,,7,,6/8,,5,3,
{4}4h[8:1],4/5h[8:1],3h[8:1]/4,4/6h[8:1],
{4}2h[8:1]/4,4/7h[8:1],1h[8:1]/4,4/8h[8:1],
{8}1/6h[8:1],1,1/3h[8:1],1,1/7h[8:1],1,1/2h[8:1],1,
{64}8,,,,,1,,,8,,,,,1,,,8,,,,,1,,,8,,,,,1,,,8,,7,,6,,5,,4,,3,,2,,1,,8b,,,,,,,,,,,,,,,,
{24}2-5[8:1],,,,,,1/2,,,,,1,2-5[8:1],,,,,,1/2,,,,,,
{24}1-6[8:1],,,8,,,1/2,,,,,2,1>4[8:1],,,,,,1/8,,,,,,
{24}7-4[8:1],,,,,,7/8,,,,,8,7-4[8:1],,,,,,7/8,,,,,,
{24}8-3[8:1],,,1,,,7/8,,,,,7,8<5[8:1],,,,,,1/8,,,1,,,
{24}2-5[8:1],,,,,,1/2,,,,,1,2-5[8:1],,,,,,1/2,,,,,,
{24}1-6[8:1],,,8,,,1/2,,,,,2,1>4[8:1],,,,,,1/8,,,,,,
{24}7-4[8:1],,,,,,7/8,,,,,8,7-4[8:1],,,,,,1>4[8:1]/7,,,,,,
{32}1b/8<5[8:1],,,,,,,,1>4[8:1]/8b,,,,,,,,1b/8<5[8:1],,,,,,,,8b,1,2,3,4,,,,
{24}8-3[8:1],,,1,,,6/8,,,7,,7,8-3[8:1],,,1,,,6/8,,,5,,,
{24}7-4[8:1],,,6,,,1/7,,,8,,8,7<4[8:1],,,6,,,7/8,,,,,,
{24}1-6[8:1],,,8,,,1/3,,,2,,2,1-6[8:1],,,8,,,1/3,,,4,,,
{24}2-5[8:1],,,3,,,2/8,,,1,,1,2>5[8:1],,,3,,,1/2,,,,,,
{24}7-4[8:1],,,6,,,1/7,,,8,,8,7<4[8:1],,,6,,,7/8,,,1,,,
{24}2-5[8:1],,,3,,,2/8,,,1,,1,2>5[8:1],,,3,,,1/2,,,,,,
{8}7-4[8:1],6,7/8,1,2-5[8:1],3,2/8<5[8:1],,
{24}4b/8b>3[8:1],,,,,,4b/8b<5[8:1],,,,,,4b/8b,,,,,1,8,,,2/7,,,
{8}3<6[8:1]/6,,8,1,2>5[8:1]/8,,7,8,
{24}1>5[6:1]/7,,,,,,7,,,8,,,7h[4:1],,,,,,8,,8,6,,6,
{24}1h[8:1],,,8,7,6,5,,2,1,,1,2,,,1/3,,,2,,,6/8,,,
{24}7h[24:5],,,,,8,6,,6,5,,5,4,,4,3h[8:3],,,,,,,,,
{8}6>3[8:1],,1,8,1/7<4[8:1],,2,1,
{24}2/8<4[6:1],,,,,,2,,,1,,,2h[4:1],,,,,,1,,1,3,,3,
{24}8h[8:1],,,1,2,3,4,,7,8,,8,7,,,6/8,,,7,,,1/3,,,
{24}2h[24:5],,,,,1,3,,3,4,,4,5,,5,6h[4:1],,,7,,,5,,,
{8}1/8,2,1/3,4,1/8,7,6/8,5,
{8}1/2,2,1/3,4,7/8,7,6/8,5,
{8}1h[2:1]/8,2,3,2,8h[2:1],7,6,7,
{8}1h[4:1],2,8h[4:1],7,1-4[8:1]*-6[8:1],2,,,
{8}4/5,3,2/4,1,4/5,6,5/7,8,
{8}3/4,3,2/4,1,5/6,6,5/7,8,
{8}4h[2:1]/5,3,2,1,5h[2:1],6,7,8,
{8}1h[4:1],3,8h[4:1],6,1h[4:1],2,8<5[4:1],,
{8}5>2[4:1],,2,,8,8,1/7,,
{1}5h[16:23]/6<4[2:1],
{1}4h[16:39],
{1}5<3[2:1],
{8}3h[8:7],,,,,,,4,
{4}3>6[2:1],4,,5,
{4}6<3[2:1],5,,4,
{24}1/8,,,2/7<2[4:1],,,1,,,8h[4:1],,,,,,,,,1/8,,,2,,2,
{48}8,,,,8,,1,,,,1,,7,,,,7,,2,,,,,,1/8,,,,,,3/6,,,,,,1b/8b,2/7,3/6,4/5,,,,,,,,,
{24}5/7,,,4,,,1/3,,,2,,4,3h[8:1],,,2,,,1/3,,,8,,,
{24}5/7,,,4,,,1/3,,,2,,8,1-4[8:1]*-6[8:1],,,2,,,1,,,,,,
{24}5/7,,,2,,,1/3,,,2,,4,3h[8:1],,,2,,,1/3,,,8,,,
{24}5/7,,,4,,,1/3,,,2,,4,3h[8:1],,,2,,,1/3,,,2,,1,
{24}4,,,5,,,6/8,,,7,,5,6h[8:1],,,7,,,6/8,,,1,,,
{24}2/4,,,5,,,6/8,,,7,,1,8-3[8:1]*-5[8:1],,,7,,,8,,,,,,
{24}2/4,,,7,,,6/8,,,7,,5,6h[8:1],,,7,,,6/8,,,5,,,
{48}2/4b,,,,,,1,,,,,,8,,,,,,5b/7h[4:1],,,,,,,,,,,,2,,,,,,1b/8b,2b/7b,3b/6b,4b/5b,,,,,,,,,
{24}2/7<4[8:1],,,4,,,7/8,,,1,,7,8>3[8:1],,,3,,,6/8,,,7,,7,
{24}8,,8,1,,,2/4,,,3,,8,1w5[8:1],,,2,,,1b,,,,,,
{24}2>5[8:1]/7,,,5,,,1/2,,,8,,2,1<6[8:1],,,6,,,1/2,,,3,,3,
{192}1,,,,,,,,,,,,,,,,1,,,,,,,,8,,,,,,,,,,,,,,,,,,,,,,,,5/7,,,,,,,,,,,,,,,,,,,,,,,,6,,,,,,,,,,,,,,,,8,,,,,,,,7,,,,,,,,,,,,,,,,,,,,,,,,6,,,,,,,,,,,,,,,,,,,,,,,,5/7,,,,,,,,,,,,,,,,,,,,,,,,6,,,,,,,,,,,,,,,3,,,,,,,,,
{64}8,,,,,1,,,5,,,,,4,,,8,,,,,1,,,5,,,,,4,,,7,,,,,8,,,4,,,,,3,,,7,,,,,8,,,4,,,,,3,,,
{192}8,,,,,,,,,,,,,,,1,,,,,,,,,5,,,,,,,,,,,,,,,4,,,,,,,,,8,,,,,,,,,,,,,,,1,,,,,,,,,5,,,,,,,,,,,,,,,4,,,,,,,,,1,,,,,,,,,,,,,,,2,,,,,,,,,6,,,,,,,,,,,,,,,5b/7b,,,,,,,,,,,,,,,,,,,,,,,,,,,,,,,,,8,,,,,,,,,,,,,,,,1,,,,,,,,
{24}7,,,6/8>6[4:1],,,7,,,6,,,,,,7h[8:1],,,8,,8,1,,,
{24}2,,,1<3[4:1]/3,,,2,,,3,,,,,,2h[8:1],,,1,,1,8,,8,
{8}7,6/8>6[4:1],7,6,,7>6[1:1],,3h[1:1],
{1},
{1},
{1},
E
