&title=MilK
&wholebpm=150
&artist=モリモリあつし
&des=小鳥遊さん
&shortid=672
&genre=ゲームバラエティ
&cabinet=SD
&version=maimai MiLK
&chartconverter=Neskol
&lv_2=5
&des_2=-
&lv_3=7
&des_3=-
&lv_4=12+
&des_4=rioN
&lv_5=13+
&des_5=小鳥遊さん
&des_6=
&inote_2=
(150){1},
{2}1,1,
{2}2,2,
{2}3,3,
{1}4h[2:1],
{2}5,5,
{2}6,6,
{2}7,7,
{1}8h[2:1],
{2}1,1,
{2}8,8,
{2}7,7,
{2}6,5/6,
{2}5,5,
{2}4,4,
{2}3,3,
{2}2,1/2,
{4}1,1,1,,
{4}2,2,2,,
{4}3,3,3,,
{4}4,4,4,,
{4}5,5,5,,
{4}6,6,6,,
{4}7,7,7,,
{4}8,8,8,,
{2}1b,1,
{4}8,8,8,,
{4}7,7,7,,
{4}6,5,6,,
{4}5,5,5,,
{4}4,4,4,,
{4}3,3,3,,
{4}2,1,2,,
{2}8,1/8,
{2}2,1/2,
{2}3,3/4,
{2}5,4/5,
{2}6,5/6,
{2}7,7/8,
{2}8,1/8,
{1}1h[2:1]/8h[2:1],
{1}1-5[4:3],
{1},
{1}8-4[4:3],
{1},
{1}2-5[4:3],
{1},
{1}7-4[4:3],
{1},
{1}3-7[4:3],
{1},
{1}6-2[4:3],
{1},
{2}1,1,
{2}8,8,
{1}1h[1:1]/8h[1:1],
{1},
{4}2,2,1/2,,
{4}3,3,3/4,,
{4}6,6,5/6,,
{4}7,7,8,8,
{4}1,1,1/8,,
{4}7,7,7/8,,
{4}6,6,5/6,,
{4}3,3,3/4,,
{2}2b,1/2,
{4}3,3,3/4,,
{4}6,6,5/6,,
{4}7/8,7/8,7/8,,
{4}2,2,1/2,,
{4}7,7,7/8,,
{4}1/2,1/2,1/2,,
{4}7/8,7/8,7/8,,
{1}1b/8b,
{1},
{1},
{1},
E
&inote_3=
(150){1},
{2}4h[2:1],5h[2:1],
{2}6h[2:1],7,
{2}5h[2:1],4h[2:1],
{2}3h[2:1],2,
{2}4h[2:1],5h[2:1],
{2}6h[2:1],7,
{4}3,3,4,4,
{1}5w1[2:1],
{4}1,1,2,2,
{4}3,3,4/5,,
{4}5,5,6,6,
{4}7,7,1/8,1/8,
{4}2,1/2,7,7/8,
{4}3,3/4,6,5/6,
{4}4/5,3/6,2/7,1/8,
{4}1h[2:1]/8h[2:1],,,2b/7b,
{4}6,6,5/7,,
{4}3,3,2/4,,
{4}7,7,6/8,,
{4}2,2,1/3,1/3,
{4}3,3,2/4,,
{4}6,6,5/7,,
{1}2qq5[4:3],
{4},,4/5,4/5,
{2}2b/7b,2/7,
{4}1,2,3/8,,
{4}8,7,1/6,,
{4}4,3,2/5,2/5,
{4}1,2,3/8,,
{4}8,7,1/6,,
{1}3-6[2:1]/7-2[2:1],
{4},,3/4,5/6,
{4}8,8,7,7,
{4}6,6,4/5,,
{4}4,4,3,3,
{4}2,2,1/8,1/8,
{4}7,7/8,2,1/2,
{4}6,5/6,3,3/4,
{4}4/5,3/6,2/7,1/8,
{4}1h[2:1]/8h[2:1],,,2b/7b,
{4}3/4,3/4,3/4,,
{4}5/6,5/6,5/6,,
{4}3/4,3/4,2/5,2/5,
{4}1,1,8,8,
{4}7/8,7/8,7/8,,
{4}1/2,1/2,1/2,,
{4}7/8,7/8,1/6,1/6,
{1}4h[4:3]/5h[4:3],
{4}2/7,3,2,1/8,
{4}8,7,5/6,5/6,
{4}4,3,1/2,1/2,
{4}8,8,1,1,
{2}7h[4:1]/8h[4:1],5h[4:1]/6h[4:1],
{2}3h[4:1]/4h[4:1],1h[4:1]/2h[4:1],
{4}7/8,5/6,3/4,1/2,
{4}1h[2:1]/8h[2:1],,,2b/7b,
{4}4,3,2/5,,
{4}5,6,4/7,,
{4}1,2,3/8,,
{4}8,7,1/6,1/6,
{4}1,2,3/8,,
{4}8,7,1/6,,
{1}7pp4[4:3],
{4},,4/5,4/5,
{2}2b/7b,2/7,
{4}7/8,7/8,1/6,,
{4}1/2,1/2,3/8,,
{4}5/6,5/6,4/7,4/7,
{4}7/8,7/8,1/6,,
{4}1/2,1/2,3/8,,
{1}2-7[2:1]/6-3[2:1],
{4},,5/6,3/4,
{1}1b/8b,
{1},
{1},
{1},
E
&inote_4=
(150){1},
{4}6h[2:1],5,5h[2:1],4,
{8}4<8[4:1],,,,,1,2,3h[4:1],
{8},4h[4:1],,5h[4:1],,6h[4:1],,5h[4:1],
{8},4h[4:1],,3h[4:1],,2h[4:1],,3,
{4}3h[2:1],4,4h[2:1],5,
{8}5>1[4:1],,,,,8,7,6h[4:1],
{8},5h[4:1],,4h[4:1],,3h[4:1],,4h[4:1],
{8},5w1[4:1],,,,,,,
{4}3h[4:1],4,6h[4:1],5,
{4}2h[4:1],3,7h[4:1],6,
{8}2h[4:1],,3,4,5,6,7h[4:1]/8,,
{8}6,5,4,3,2,1,7h[4:1]/8,,
{16}6h[16:3],,,5,5h[16:3],,,4,4h[16:3],,,3,3,,4,,
{8}5,6,7,8,1,2,3,4,
{16}5,4,5,4,5,4,5,4,5,4,5,4,5,,,,
{8}5-1[8:1],3,3,4-8[8:1],6,6,5b,,
{8}7,,4-2[8:1]/5-1[8:1],,,,8,7,
{8}6,,5-1[8:1]/6-1[8:1],,,,2,3h[4:1],
{8},4,4-8[8:1]/6-1[8:1],,,,2,3,
{8}4h[4:1],,5,5s1[4:1],,,,,
{8}2,,2>4[8:1]/8v5[8:1],,,,6,4,
{8}1,,7v4[8:1]/8-5[8:1],,,,3,4,
{16}5,,6,,7,,8,,2b/7b,,,5b/7b,,,2b/4b,,
{16},,,,,,,,6,6,,4/5,,3,3,,
{4}4b/5b,3V14[4:1]/7q4[4:1],,,
{8}6,,3-8[8:1]/5v8[8:1],,,,7,6h[4:1],
{8},5,4q1[8:1]/5<8[8:1],,,,2h[8:1],4h[8:1],
{8}5h[4:1],,4,4z8[4:1],,,,,
{8}3,,1-5[8:1]/2v4[8:1],,,,3,5,
{8}3,1,7qq5[8:1]/8q4[8:1],,,,6,4,
{16}8,,2,,8,,6,,1b/8b,,,2b/4b,,,5b/7b,,
{8},,,,5,6,4,3,
{4}6h[4:1],5,3h[4:1],4,
{4}7h[4:1],6,2h[4:1],3,
{8}7h[4:1],,6,5,4,3,1/2h[4:1],,
{8}3,4,5,6,7,8,1/2h[4:1],,
{16}3h[16:3],,,4,4h[16:3],,,5,5h[16:3],,,6,6,,5,,
{8}4,3,2,1,8,7,6,5,
{16}4,5,4,5,4,5,4,5,4,5,4,5,4,,,,
{8}4-8[8:1],6,6,5-1[8:1],3,3,4b,,
{16}3h[8:1]/4h[8:1],,,2/5,,,5h[8:1]/6h[8:1],,,4/7,,,1/8,,1/8,,
{16}1h[8:1]/2h[8:1],,,1/8,,,7h[8:1]/8h[8:1],,,1/8,,,2/7,,,,
{16}3h[8:1]/4h[8:1],,,1/2,,,5h[8:1]/6h[8:1],,,7/8,,,1/8,,1/8,,
{8}3,1/8,6,1/8,4/5,1/8,3b/6b,,
{16}2h[8:1]/3h[8:1],,,1/4,,,6h[8:1]/7h[8:1],,,5/8,,,1/8,,1/8,,
{16}3h[8:1]/4h[8:1],,,2/3,,,5h[8:1]/6h[8:1],,,6/7,,,1/8,,,,
{16}2h[8:1]/3h[8:1],,,4h[8:1]/5h[8:1],,,6h[8:1]/7h[8:1],,,4h[8:1]/5h[8:1],,,3/6,,3/6,,
{8}7-4[8:1],1,1,2-5[8:1],8,8,7,,
{16}2b/7b,,,,1h[8:1]/2h[8:1],,,7h[8:1]/8h[8:1],,,5/6,,4/5,,3/4,,
{16}2h[8:1]/3h[8:1],,,1h[8:1]/8h[8:1],,,6h[8:1]/7h[8:1],,,1h[8:1]/8h[8:1],,,3/6,,,,
{16}5h[8:1]/6h[8:1],,,2/3,,,3h[8:1]/4h[8:1],,,6/7,,,1/8,,1/8,,
{8}2/7,3/6,4/5,3/6,2/7,1/8,2b/7b,,
{16}5h[8:1]/6h[8:1],,,4h[8:1]/7h[8:1],,,3h[8:1]/4h[8:1],,,2h[8:1]/5h[8:1],,,5h[8:1]/6h[8:1],,,3h[8:1]/8h[8:1],
{16},,3h[8:1]/4h[8:1],,,1h[8:1]/6h[8:1],,,5h[8:1]/6h[8:1],,,2h[8:1]/8h[8:1],,,3h[8:1]/4h[8:1],,
{16},1h[8:1]/7h[8:1],,,5h[8:1]/7h[8:1],,,2h[8:1]/8h[8:1],,,2h[8:1]/4h[8:1],,,1h[8:1]/7h[8:1],,,
{16}5/7,,,2/8,,,2/4,,,1/7,,,4b/5b,,,,
{8}2,,3q8[8:1]/6p1[8:1],,,,2,8,
{8}7,,4-1[8:1]/6p1[8:1],,,,7,6h[4:1],
{8},5,4q1[8:1]/5V71[8:1],,,,2,3,
{8}5h[4:1],,4,4z8[4:1],,,,,
{8}7,,7v5[8:1]/8V25[8:1],,,,6,4,
{8}8,,1V74[8:1]/2>4[8:1],,,,6,5,
{16}4,,3,,2,,1,,2b/7b,,,2b/4b,,,5b/7b,,
{16},,,,,,,,3,3,,4/5,,6,6,,
{4}4b/5b,5q4[4:1]/7V14[4:1],,,
{8}6,,2V48[8:1]/5v8[8:1],,,,1,3h[4:1],
{8},4,4-1[8:1]/5z1[8:1],,,,7h[8:1],5h[8:1],
{8}4h[4:1],,5,5s1[4:1],,,,,
{8}6,,7V14[8:1]/8-4[8:1],,,,5,7,
{8}1,7,3V51[8:1]/4<7[8:1],,,,2,5,
{16}1,,7,,1,,3,,1b/8b,,,5b/7b,,,2b/4b,,
{8},,,,5,6,4,3,
{1}4b/5b,
{1},
{1},
{1},
E
&inote_5=
(150){1},
{2}5h[2:1],4h[2:1],
{8}3h[8:5],,,,,2,1,8h[4:1],
{8},1h[4:1],,2h[4:1],,3h[4:1],,8h[4:1],
{8},7h[4:1],,6h[4:1],,5h[4:1],,4,
{2}4h[2:1],5h[2:1],
{8}6h[8:5],,,,,7,8,1h[4:1],
{8},8h[4:1],,7h[4:1],,6h[4:1],,5w1[8:5],
{1},
{4}2h[4:1]/5,5,1h[4:1]/5,5,
{8}5/8h[2:1],,5,,5,1,2/5,3,
{8}5,1,5,2,5,3,5,4,
{8}5,1,5,8,5,7,5,6,
{16}4/5,,,3,3/4,,,6,5/6,,,3,3/4,,5/6,,
{8}3/5,2/4,1/3,2/8,1/7,6/8,5/7,4/6,
{16}3,3,2,2,1,1,8,8,7,7,6,6,5,5,4,4,
{24}2/5,,,3,4,3,4,,,4/7,,,6,5,6,5,,,2b/7b,,,,,,
{32}1h[64:15]/5h[64:15],,,,,,,,2-6[8:1],3,4,5,6-2[8:1],7,8,1,2b/5h[2:1],,,,,,,,,,,,,,,,
{8}1pp6[8:3],,,,8b,,5,5-2[8:1]*-8[8:1],
{8},5,,,1b/8h[4:1],,7h[4:1],,
{8}6h[8:3],,,5qq2[8:3],,8b,8b,8b,
{8}6,7,,,3h[4:1]/4b,,1h[4:1],,
{8}6pp2[8:3],,,,5b,,5,6,
{32}7p4[4:1],6,5,4,3,2,1,8,7,,,,,,,,1b-5[16:1],,,,,,1/7b-4[16:1],,,,,,2b-6[8:1]/7,,,,
{16},,,,5,,,,7,7,,4/5,,2,2,,
{2}1b/4-8[8:1],4qq4[4:1]/8b,
{8}8qq3[8:3],,,,1b,,4,4-1[8:1]*-7[8:1],
{8},4,,,1h[4:1]/8b,,2h[4:1],,
{8}3h[8:3],,,4pp7[8:3],,1b,1b,1b,
{8}3,2,,,5b/6h[4:1],,8h[4:1],,
{8}3qq7[8:3],,,,4b,,1V36[4:1]/5V72[4:1],3/7,
{16},,,,,,,,8b-4[16:1],,,2b-5[16:1]/8,,,2/7b-3[8:1],,
{4},4z8[8:3],,,
{4}4/7h[4:1],4,4/8h[4:1],4,
{8}1h[2:1]/4,,4,,4,8,4/7,6,
{8}4/5,5,4/6,7,4/8,,4/6,6,
{16}4/7,,8,,1/4,,,,4/7,,8,,4/6,,5,4,
{16}4/5,,,6,5/6,,,3,3/4,,,6,5/6,,3/4,,
{8}4/6,5/7,6/8,1/7,2/8,1/3,2/4,3/5,
{16}6,6,7,7,8,8,1,1,2,2,3,3,4,4,5,5,
{48}4/7,,,,,,6,,5,,6,,5,,,,,,2/5,,,,,,3,,4,,3,,4,,,,,,8,,,8,,,1,,,1,,,
{16}8-5[16:1],,,8h[16:3],,,1-4[16:1],,,1h[16:3],,,6,,4/8,,
{16}2-4[16:1],,,2h[16:3],,,7-5[16:1],,,7h[16:3],,,4h[4:1],,,,
{16}5<8[16:1],,,5h[16:3],,,4>1[16:1],,,4h[16:3],,,8,,7,7,
{16}2,,3,,4,,5,,6,,7,,1,1,8,8,
{16}1-4[16:1],,,1h[16:3],,,8-5[16:1],,,8h[16:3],,,3,,1/5,,
{16}7-5[16:1],,,7h[16:3],,,2-4[16:1],,,2h[16:3],,,5h[4:1],,,,
{16}4>1[16:1],,,4h[16:3],,,5<8[16:1],,,5h[16:3],,,1,,2,2,
{24}1/6,,,7,8,7,8,,,3/8,,,2,1,2,1,,,8,1,8,1,8,1,
{16}2b/7b-4[8:1],,,,1-5[16:1]/7,,,1/7-3[16:1],,,4-8[8:1]/7,,4,,4,,
{16}7-4[16:1],,,2-7[16:1]/7,,,2/6-3[16:1],,,1-5[16:1]/6,,,1/8,,,,
{16}6-2[16:1],,,3-7[16:1]/6,,,3/8-4[16:1],,,1-5[16:1]/8,,,1/7,,8,8,
{16}2,,3,,4,,5,,6,,7,,1,1,8,8,
{16}2h[8:1]/7h[8:1],,,4h[8:1]/5h[8:1],,,1h[8:1]/2h[8:1],,,5h[8:1]/6h[8:1],,,7h[8:1]/8h[8:1],,,2h[8:1]/4h[8:1],
{16},,6h[8:1]/8h[8:1],,,1h[8:1]/3h[8:1],,,5h[8:1]/7h[8:1],,,1h[8:1]/8h[8:1],,,3/6,,
{24}1,2,3,8,7,6,2,3,4,7,6,5,2,3,4,1,2,3,7,6,5,8,7,6,
{24}2/5,,,3,4,3,4,,,4/7,,,6,5,6,5,,,2b/7b,,,,,,
{96}4h[64:15]/8h[64:15],,,,,,,,,,,,,,,,,,,,,,,,7-3[8:1],,,6,,,5,,4,,,,3pp8[4:1],,,2,,,1,,,8,,,4h[2:1]/7b,,,,,,,,,,,,,,,,,,,,,,,,,,,,,,,,,,,,,,,,,,,,,,,,
{8}6qq2[8:3],,,,1b,,4,4-1[8:1]*-7[8:1],
{8},4,,,1>4[4:1]/8b,,4q6[4:1],,
{8}6<1[16:3],,,5pp8[8:3],,1b,1b,1b,
{8}3,2h[8:3],,,5b-8[4:1],,8-3[4:1],,
{8}3qq7[8:3],,,,4b,,4,3,
{32}2q5[4:1],3,4,5,6,7,8,1,2,,,,,,,,8b-4[16:1],,,,,,2b-5[16:1]/8,,,,,,2/7b-3[8:1],,,,
{16},,,,4,,,,2,2,,4/5,,7,7,,
{2}5w1[8:1]/8b,1b/5pp5[4:1],
{8}3pp7[8:3],,,,8b,,5,5-2[8:1]*-8[8:1],
{8},5,,,1b/8<5[4:1],,5p3[4:1],,
{8}3>8[16:3],,,4qq1[8:3],,8b,8b,8b,
{8}6,7h[8:3],,,4b-1[4:1],,1-6[4:1],,
{8}6pp2[8:3],,,,5b,,5V38[4:1]*V72[4:1],4/6,
{16},,,,,,,,1b-5[16:1],,,1/7b-4[16:1],,,2b-6[8:1]/7,,
{4},5s1[8:3],,,
{1}2b,
{1},
{1},
{1},
E
