&title=Magical Flavor
&wholebpm=98
&artist=DECO*27 feat.Tia
&des=はっぴー
&shortid=674
&genre=maimai
&cabinet=SD
&version=maimai MiLK
&chartconverter=Neskol
&lv_2=3
&des_2=-
&lv_3=8
&des_3=-
&lv_4=10+
&des_4=玉子豆腐
&lv_5=13
&des_5=はっぴー
&des_6=
&inote_2=
(98){1},
{1},
{2}1,1,
{2}2,2,
{2}3,3,
{2}4,4/5,
{4}5,5,5,,
{4}6,6,6,,
{4}7,7,7,,
{4}8,8,1/8,,
{1}2h[2:1],
{1}1h[2:1],
{1}8h[2:1],
{1}7h[2:1],
{4}6,6,6,,
{4}5,5,5,,
{4}4,4,4,,
{4}5,4,4/5,,
{1}4-1[4:3],
{1},
{1}5-8[4:3],
{1},
{4}1,1,1,,
{4}1/2,1/2,1/2,,
{4}8,8,8,,
{4}7/8,7/8,7/8,,
{1}1b/8b,
{4}1,1,2,2,
{4}3,3,3/4,,
{4}3,3,4,4,
{4}5,5,5/6,,
{4}8,8,7,7,
{4}6,6,5/6,,
{4}6,6,5,5,
{4}4,4,3/4,,
{4}1,1,1,,
{4}1/2,1/2,1/2,,
{4}3,3,3,,
{4}4/5,4/5,4/5,,
{4}6,6,6,,
{4}7/8,7/8,7/8,,
{4}1,1,1,,
{4}1/8,1/8,1/8,,
{4}2,2,2,,
{4}1,1,1,,
{4}8,8,8,,
{4}7/8,7/8,7/8,,
{4}6,6,6,,
{4}5,5,5,,
{4}4,4,4,,
{1}4-1[4:3]/5-8[4:3],
{1},
{1},
{1},
E
&inote_3=
(98){1},
{1},
{4}5/6,7,5/6,4,
{4}3/4,2,3/4,5,
{4}5/6,7,5/6,4,
{1}4-1[8:3]/5-8[8:3],
{4}2,1/3,4,3/5,
{4}7,6/8,5,4/6,
{4}2,1/3,4,3/5,
{4}7,6/8,1b/8b,,
{8}3h[4:1]/4,,4,,4,4,3,,
{8}5/6h[4:1],,5,,5,5,6,,
{4}3h[4:1],4,6h[4:1],5,
{4}2h[4:1],1,7h[4:1],8,
{8}3,3,2/4,,6,6,5/7,,
{8}3,3,2/4,,6,6,5/7,,
{4}2h[4:1],1,7h[4:1],8,
{4}3h[4:1],4,6h[4:1],5,
{8}3h[4:1],,4,,3/4,3/4,,,
{8}6h[4:1],,5,,5/6,5/6,,,
{4}4h[4:1],3,5h[4:1],6,
{4}1h[4:1],2,8h[4:1],7,
{8}2h[4:1],,1,,1/2,1/2,,,
{8}7h[4:1],,8,,7/8,7/8,,,
{4}6h[4:1],5h[4:1],4h[4:1],3,
{1}4qq1[4:3]/5pp8[4:3],
{4},,,2b/7b,
{8}3,3,2/4,,1/2,,7/8,,
{8}6,6,5/7,,7/8,,1/2,,
{4}3h[4:1],4h[4:1],5h[4:1],6h[4:1],
{1}7q2[2:1],
{8}7,7,6/8,,5/6,,3/4,,
{8}2,2,1/3,,3/4,,5/6,,
{8}7/8,8,8,,1/2,1,1,,
{8}1-3[16:3]/8-6[16:3],,,,,4,4,4,
{4}5h[4:1],6h[4:1],7h[4:1],8h[4:1],
{4}1h[4:1],2h[4:1],3h[4:1],4,
{4}4h[4:1],3h[4:1],2h[4:1],1h[4:1],
{4}8h[4:1],7h[4:1],6h[4:1],5,
{2}4-2[16:3],5-1[4:1],
{2}4-8[4:1],5-7[16:3],
{2}4>1[4:1],5<8[4:1],
{4}1h[2:1],,8,2b/7b,
{8}3,,2/4,,1,1,2/8,,
{8}6,,5/7,,8,8,1/7,,
{8}3,,2/4,,1,1,2/8,,
{4}1-4[4:1]/8-5[4:1],,,3/6,
{8}6,,5/7,,8,8,1/7,,
{8}3,,2/4,,1,1,2/8,,
{8}6,,5/7,,8,8,1/7,,
{8}1/8,1>8[8:5]/8,,,,,,,
{1},
{1},
{1},
E
&inote_4=
(98){1},
{1},
{4}4,3/4,5,5/6,
{4}3,3/4,5/6,4/7,
{4}3,2/4,6,5>7[2:1]/7,
{4},,,1/8,
{8}5/6,7,5/6,7,5/6-1[8:1],,,,
{8}3/4,2,3/4,2,3-8[8:1]/4,,,,
{8}5/6,8,5/6,8,5/6<1[8:1],,,,
{8}3/4,1,3/4,1,3>8[8:1]/4,,,,
{8}6,5,3p6[8:1]/4,,,,1/8,,
{8}2,1,7<4[8:1]/8>3[8:1],,,,2/5,,
{4}5h[2:1],6,4h[2:1],3,
{4}5h[4:1],6h[4:1],7h[4:1],8,
{8}3,4,5/6p5[16:3],,,,4,,
{8}6,5,3V14[16:3]/4,,,,5,,
{4}4h[2:1],3,5h[2:1],6,
{4}4,3>6[4:1]/4p5[4:1],,,
{4}5h[4:1]/6h[4:1],,5/6,4/7,
{8}3,4,3,4,3,,2/5,,
{4}2<7[8:1]/4,5,5/7>2[8:1],4,
{4}2/4h[4:1],5,4/5h[4:1],7,
{8}5-1[8:1]/6-1[8:1],,,,2,3,4/5,,
{8}3-8[8:1]/4-8[8:1],,,,7,6,4/5,,
{4}1/6-1[8:1],2,3-8[8:1]/8,7,
{8}5qq2[2:1]/6pp1[2:1],5/6,,,,,,,
{4}1h[2:1]/8h[2:1],,,2b/7b,
{24}1h[12:1]/2h[12:1],,,1/2,,1h[6:1]/2h[6:1],,,,,,,3,,,4/5,,,6,,,5/7,,,
{24}7h[12:1]/8h[12:1],,,7/8,,7h[6:1]/8h[6:1],,,,,,,6,,,4/5,,,3,,,2/5,,,
{8}4/7h[4:1],5,3h[4:1],5,8h[4:1],5,2>8[4:1],5,
{8}1,,,,7,6/8,2,1/3,
{24}1h[12:1]/8h[12:1],,,1/8,,1h[6:1]/8h[6:1],,,,,,,2/4,,,4/5,,,5/7,,,7h[8:1]/8h[8:1],,,
{8},5/6,3/4,1h[8:1]/2h[8:1],,1/8,2/7,3/6,
{8}1/3,3,4,5,6/8,6,5p2[16:5],4,
{8}3,,,,1h[8:3],8b,7b,6b,
{8}3/4h[4:1],2,3,4/5,5h[4:1]/6,7,6,4/5,
{8}3,2/4,5,5/7,5/6,3/4,4/5,3/6,
{8}5h[4:1]/6,7,6,4/5,3/4h[4:1],2,3,4/5,
{8}6,5/6,4,3/4,5,5/7,4,2/4,
{8}3/4h[4:1],1,2,3/5,5h[4:1]/6,8,7,4/6,
{8}3,2/4,5,5/7,5/6,3/4,4/5,2/7,
{8}3/4h[4:1],1,2,4/5,5h[4:1]/6,8,7,4/5,
{24}3/6,,,4,,5,,,2/7,,,1b/8b,,,,,,,,,,,,,
{8}3/4,2,3/4,1,3/4,8,5/7,,
{8}5/6,7,5/6,8,5/6,1,2/4,,
{8}3/4,2,3/4,1,3/4,8,5p2[8:3]/7,,
{8},,,,7,7/8,2,1/2,
{8}7/8,6,7/8,5,7/8,4,1/3,,
{8}1/2,3,1/2,4,1/2,5,6/8,,
{8}7/8,6,7/8,5,7/8,4,1>8[4:1]/3,,
{24},,,,,,,,,,,,5/7,,,2/4,,,1/8,,,2/7,,2/7,
{1},
{1},
{1},
E
&inote_5=
(98){1},
{1},
{2}4>5[2:1]/5h[4:1],4h[4:1],
{2}4h[4:1]/5<4[2:1],5h[4:1],
{4}4/5,4/6,4/5,3/5,
{24}4/5,,,,,4,5,,,4/5,,,4>1[12:1]/5<8[12:1],,,,,,,,,,,,
{24}5/7,,,4,,,3,,3,4,,,2/4,,,5,,,6,,6,5,,,
{24}5/7,,,4,,,3,,3,4,,,2/4,,,5,,,6<1[8:1],,6,5,,,
{24}5/6,,,4,,,3>8[8:1],,3,4,,,3/4,,,5,,,6<1[8:1],,6,5,,,
{24}5/6,,,4,,,3>8[8:1],,3,4,,,3/4,,,5,,,6,,6,5,,,
{24}2b/7b,,,,,1/5,,,,4/5,,,4,,4,5,,5,3,,3,4,,,
{24}2/7,,,,,4/8,,,,4/5,,,5,,5,4,,4,6,,6,5,,,
{8}4/5<8[6:1],6,4>1[6:1],3,5<8[6:1],6,4>2[12:1],3,
{8}5<7[12:1],6,4>2[12:1],3,5v4[8:1],6,1,,
{24}5/7,,,4/5,,,2/4,,5,4,,,5/7,,4,5,,,3/6,,,4/5,,,
{24}2/4,,,4/5,,,5/7,,4,5,,,2/4,,5,4,,,3/6,,,4/5,,,
{8}4>1[6:1]/5,3,5<8[6:1],6,4>1[6:1],3,5<7[12:1],6,
{8}4>2[12:1],3,5qq8[4:1],6,4,,1,,
{4}5qq8[8:3]/6h[8:1],6h[8:1],7h[4:1],1,
{4}7h[8:1]/8pp5[8:3],7h[8:1],6h[4:1],4,
{4}3h[8:1]/4pp1[8:3],3h[8:1],2h[4:1],8,
{8}1qq4[8:3]/2,2,2,,2,2,1/2,,
{8}2qq7[8:3]/6,,5,,4,4,3/6,,
{8}3/7pp2[8:3],,4,,5,5,3/6,,
{8}3,2/4,6,5/7,1,2/8,3/7,4>5[8:5]/6<5[8:5],
{8}5,4/6,,,,,,,
{24}4,,4,5,,,4>1[8:1]/5<8[8:1],,,,,,,,,,,,1<5[8:1]*>5[8:1]/5,,,1/5w1[8:1],,,
{24}1,,,,,,,,6,5,,4/7,,,1,8,,,4/8<4[8:1]*>4[8:1],,,4w8[8:1]/8,,,
{24}8,,,,,,,,3,4,,2/5,,,8,1,,,2q6[8:1]/7,,,4/5,,,
{8}2/7p3[8:1],8,2q6[8:1]/7,1,2/7p3[8:1],8,2<5[6:1]/7,1,
{8}2/7,,1b/8b,,7,6/8,1<5[8:1]*>5[8:1]/5,1/5w1[8:1],
{24}1,,,,,,,,3,4,,2/5,,,8,3,,3,6,,6,1h[4:3],,,
{8},2>7[8:1],7,2,,8,2/7,3/6,
{8}2/4,1,5/7,8,1/8,2/7,3/6,4qq1[8:3]/5pp8[8:3],
{8}4/5,,,,,3b/7b,4b/8b,1b>4[12:1]/5b,
{8}3/7,1<6[12:1]/5,6,1>4[12:1]/5,4,1<6[12:1]/5,6,1>4[12:1]/5,
{8}4,1<6[12:1]/5,6,1/5,4,2/6,1/5,4/8<5[12:1],
{8}2/6,4/8>3[12:1],3,4/8<5[12:1],5,4/8>3[12:1],3,4/8<5[12:1],
{8}5,4/8>3[12:1],3,4/8,5,3/7,4/8,1>4[12:1]/5,
{8}3/7,1<6[12:1]/5,7,1>4[12:1]/5,3,1<6[12:1]/5,7,1>4[12:1]/5,
{8}3,1<6[12:1]/5,7,1/5,3,2/6,1/5,4/8<5[12:1],
{8}2/6,4/8>3[12:1],2,4/8<5[12:1],6,4/8>3[12:1],2,4/8,
{24}6,,,4/5,,4/5,,,3/6,,,3h[12:5]/6h[12:5],,,,,,,,,,,,,
{24}3/5,,2,4,,,4/6,,7,5,,,2<7[8:1]/4,,3,4,,,2/5,,,6,,,
{24}4/6,,7,5,,,3/5,,2,4,,,5/7>2[8:1],,6,5,,,4/7,,,3,,,
{24}3/5,,2,4,,,4/6,,7,5,,,2<7[8:1]/4,,3,4,,,2/5,,,6,,,
{8}3h[8:1]/5,1h[8:1],8h[8:1],6h[8:1],8h[8:1],1,3/7,,
{24}1/7,,6,8,,,2/8,,3,1,,,6<1[8:1]/8,,7,8,,,2/6,,,4,,,
{24}2/8,,3,1,,,1/7,,6,8,,,1/3>8[8:1],,2,1,,,3/7,,,5,,,
{24}1/7,,6,8,,,2/8,,3,1,,,6/8,,7,8,,,1/5,,,4h[8:1]/5h[8:1],,,
{24},,,1b/8b,,,3h[8:1],,,1h[8:1],,,8h[8:1],,,6h[8:1],,,3,,8,1,,2b/7b,
{1},
{1},
{1},
E
