&title=Justified
&wholebpm=185
&artist=MintJam feat.光吉猛修
&des=Jack
&shortid=642
&genre=maimai
&cabinet=SD
&version=maimai MiLK
&chartconverter=Neskol
&lv_2=5
&des_2=-
&lv_3=9
&des_3=-
&lv_4=12+
&des_4=Jack
&lv_5=14
&des_5=Jack
&des_6=
&inote_2=
(185){1},
{1},
{1},
{1},
{1},
{1},
{1},
{1}1,
{1}8,
{1}1-4[4:3]/8-5[4:3],
{1},
{1},
{4}1,1,1,,
{4}2,2,2,,
{4}3,3,3,,
{4}4,5,4,,
{4}5,5,5,,
{4}6,6,6,,
{4}7,7,7,,
{4}8,1,8b,,
{4}8,8,8,,
{4}7,7,7,,
{4}6,6,6,,
{4}5,4,5,,
{4}4,4,4,,
{4}3,3,3,,
{1}2-6[4:3],
{1},
{1}7-3[4:3],
{1},
{1}1h[1:1],
{1},
{1}2h[1:1],
{1},
{1}3h[1:1],
{1},
{1}4h[1:1],
{1},
{2}5,5,
{1}5,
{2}6,6,
{1}6,
{2}7,7,
{1}7,
{2}8,8,
{1}1/8,
{1}8h[2:1],
{4}8,8,8,,
{1}7h[2:1],
{4}7,7,7,,
{1}6h[2:1],
{4}6,6,6,,
{1}5h[2:1],
{2}4/5,4/5,
{4}4,4,4,,
{4}4,4,4/5,,
{4}3,3,3,,
{4}3,3,3/4,,
{4}2,2,2,,
{4}2,2,1/2,,
{1}1h[1:1]/8h[1:1],
{1},
{4}1/8,1/8,1/8,,
{1}2b/7b,
{4}1,1,1,,
{4}2,2,2,,
{2}3/4,3/4,
{2}5/6,5/6,
{4}4,4,4,,
{4}5,5,5,,
{1}4h[2:1]/5h[2:1],
{4}4,4,4,,
{4}5,5,5,,
{4}6,6,6,,
{2}7/8,7/8,
{2}1/2,1/2,
{4}8,8,8,,
{4}1,1,1,,
{1}1h[2:1]/8h[2:1],
{4}1,1,8,8,
{1}1-5[4:3],
{1},
{1}8-4[4:3],
{1},
{2}1,1,
{2}2,2,
{1}3-8[4:3],
{1},
{4}7,7,7,,
{4}6,6,6,,
{4}5,5,5,,
{4}4,5,4,,
{4}3,3,3,,
{4}2,2,2,,
{1}1h[1:1],
{1},
{1}8h[1:1],
{1},
{4}1,1,1,,
{4}2,2,2,,
{4}3,3,3,,
{4}4,4,5,5b,
{1},
{1},
{1},
E
&inote_3=
(185){1},
{1},
{1},
{1}1s5[4:3]/8,
{2},4/5,
{1}4z8[4:3]/5,
{2},1/8,
{1}1/2z6[4:3],
{2},5/6,
{1}4>1[2:1]/5<8[2:1],
{4}7,7/8,7,7/8,
{4}1/2,3/8,4b/7b,,
{4}5,4/5,3,3,
{4}2,1,1/2,,
{4}5,4/5,6,6,
{4}7,8,7/8,,
{4}3,3/4,3,2/4,
{4}6,5/6,6,5s1[1:1]/7,
{1},
{4},,2/8,3/7,
{4}4,3/5,4,4,
{4}5,6,4/7,,
{4}5,4/6,5,5,
{4}4,3,2/4,,
{4}5,4/5,3/6,,
{4}6,5/6,3,3/4,
{1}5/6<3[4:5],
{1},
{4}4,3/5,6,5/7,
{4}4,3/5,2b/6b,,
{2}3h[2:1],4h[2:1],
{4}5,5,5/6,,
{2}6h[2:1],5h[2:1],
{4}4,4,3/4,,
{2}2h[2:1],3h[2:1],
{4}4,4,4/5,,
{2}7h[2:1],8h[2:1],
{4}1,1,2/8,,
{4}2,3,4/5,,
{4}5,5,4/5,,
{4}7,6,4/5,,
{4}4,5,4/5,,
{4}4,3,1/2,,
{4}5,6,7/8,7<3[8:5]/8,
{1},
{2}1h[4:1]/2h[4:1],7h[4:1]/8h[4:1],
{1}5/6-1[8:3],
{4}2,2,1/3,,
{1}3-8[8:3]/4,
{4}7,7,6/8,,
{1}5/6<1[8:3],
{4}2,2,1/3,,
{1}4>1[8:3]/5<8[8:3],
{4}1/8,1/8,2/7,,
{4}3h[4:3],4,4,4,
{4}4/5,5/6,4/7,,
{4}6h[4:3],5,5,5,
{4}4/5,3/4,2/5,,
{4}1/2,3/8,4/7,,
{4}7/8,1/6,2/5,,
{1}4qq1[4:5]/5pp8[4:5],
{1},
{4}1/8,1/8,2/7,2/7,
{4}3/4,5/6,4b/7b,,
{4}5,4/6,3,2/4,
{4}5,6,7/8,1/6,
{4}2,3,4,5/6,
{4}4/7,,3/6,4/5,
{4}3,3/4,3,1/2,
{4}7,7/8,7,5/6,
{2}4h[4:1]/5h[4:1],3h[4:1]/4h[4:1],
{2}5h[4:1]/7h[4:1],1b/8b,
{4}3,2/4,1,2/8,
{4}1/7,2/6,3/5,,
{4}2/4,2/4,5/7,5/7,
{4}3/4,2/5,1/6,,
{4}7,6/8,1,2/8,
{4}3,2/4,6,5b>1[2:1]/7b,
{1},
{4}7/8,1/2,3/8,,
{4}3h[4:1],4,6h[4:1],5,
{4}2h[4:1],1,3/8,4/7,
{4}6h[4:1],5,3h[4:1],4,
{4}7h[4:1],8,1/6,,
{4}5,6,7/8,7/8,
{4}1,2,3/4,3/4,
{1}4v1[4:3]/5v8[4:3],
{2},2b/7b,
{4}3,2/4,6,5/7,
{4}8,1,2/7,2/7,
{4}3/4,2/5,5/6,4/7,
{4}3,2/4,1/5,,
{4}6,5/7,3,2/4,
{4}6,7/8,3,1/2pp5[1:1],
{1},
{4},,4/5,6,
{1}7qq4[8:7]/8,
{4},,1/8,2,
{4}3,3/4,6,5/6,
{4}3,2/4,6,5/7,
{4}8,1,2/7,2-5[2:1]/7-4[2:1],
{8},,,,,,3/6,3b/6b,
{1},
{1},
{1},
E
&inote_4=
(185){1},
{1},
{8},,,,,,,1b/8b,
{1},
{8},,,2/7,,3/6,,4/5s1[8:7],
{1},
{8},,,,,,,6>3[2:1],
{8},,,,,,,1,
{8},2,,3,,4,,1>4[8:5]/5<8[8:5],
{1},
{8}3/6,,3/6,,4,4,5,5,
{8}3,3,6,6,2,2,7,7h[4:1],
{8},8,7,,3,4,3,5h[4:1],
{8},4,5,,7,8,7,2h[4:1],
{8},1,2,,6,5,6,4h[4:1],
{8},5,4,5,,2>4[8:1]/7<5[8:1],,,
{8},,1/8,,2,1,2,7h[4:1],
{8},8,7,,3,4,3,5h[4:1],
{8},4,5,,2,1,2-5[8:1],,
{8}6-1[8:1],,2-5[8:1],,6,,3/7,3h[4:1]/7,
{8},4,3,,7,8,7,1h[4:1],
{8},8,1,,3,4,3,6h[4:1],
{8},5,6,,2,1,2,8h[4:1],
{8},1,8,1,,3>1[8:1]/6<8[8:1],,,
{8},,4/5,,6,5,6,3h[4:1],
{8},4,3,,8,1,8,1,
{4}8<5[8:1],4,3>8[8:1],7,
{8}6>3[8:1],,2,,1,8,1,8,
{4}1>4[8:1],5,6<1[8:1],2,
{8}3<6[8:1],,7,,8,1,8,1,
{8}8,1-5[8:1],,,,,6h[4:1],,
{8}5h[8:3],,,4h[8:3],,,3<6[8:3],,
{4},,,7h[4:1],
{8}5h[8:3],,,4h[8:3],,,2>5[8:3],,
{4},,,2h[4:1],
{8}4h[8:3],,,5h[8:3],,,7h[4:1],,
{8}5h[8:3],,,4h[8:3],,,3>6[8:5],,
{1},
{8}8,8-4[8:1],,,,,3h[4:1],,
{8}4h[8:3],,,5h[8:3],,,6>3[8:3],,
{4},,,2h[4:1],
{8}4h[8:3],,,5h[8:3],,,7h[4:1],,
{8}5h[8:3],,,4h[8:3],,,2,,
{4}3h[4:1],1h[4:1],8h[4:1],6<3[4:3],
{1},
{2}4-1[8:1],5-8[8:1],
{8}1h[2:3],,8,,7,,6,6,
{8},5,,4,4,,2/3,,
{8}4h[2:3],,5,,6,,7,7,
{8},8,,1,1,,2/3,,
{8}8h[2:3],,1,,2,,3,3,
{8},4,,5,5,,6/7,,
{8}5h[2:3],,4,,3,,2,2,
{8},1,,8,8,,6/7,,
{8}1-4[8:1]*-6[8:1],,,,5,5,3,3,
{8}7-2[8:1]*-4[8:1],,,,3,3,7,7,
{8}5-2[8:1]*-8[8:1],,,,1,1,7,7,
{8}3-6[8:1]*-8[8:1],,,,7,7,5,5,
{8}1w5[8:1],,,,7,7,3,3,
{8}8w4[8:1],,,,2,2,1/8,,
{8}4/6,4/6,,2/5,2/5,,3/7,3/7,
{8},1/6,1/6,,4v2[8:1]/8v6[8:1],,,,
{8}1/5,1/5,2/6,2/6,3/7,3/7,4qq1[8:5]/8qq5[8:5],,
{8},,,,,,,2b/7b,
{8},4/5,4/5,,2,1,3/8,,
{8}4,5,6,7h[4:1],,8h[4:1],,1h[4:1],
{8},2,3/8,,6,5,4/7,,
{8}3,4,2/5,,1/8,1/8,1/8,2-6[8:1]/7,
{8},8,8,,4,3/5,,2/7-3[8:1],
{8},1,1,,5,4/6,,2-6[8:1]/7,
{8},8,8,,4,3/5,2/6,,
{8}8,8,4,4,3/5,2/6,1/7,8b-4[8:1],
{8},1,1,,7,8,1/6,,
{8}5,4,3,2h[4:1],,1h[4:1],,8h[4:1],
{8},7,1/6,,3,4,2/5,,
{8}6,5,4/7,,1/8,2/7,3/6,4-1[8:1]/5,
{8},8,8-5[8:1],,4,4,,2b-6[8:1],
{8},1b-5[8:1],,8b-4[8:1],,7b-3[8:1],,6b-2[8:1],
{8},8b,,,,1,8,1,
{8}2/7,,3/6,3/6,,4>1[4:1]/5<8[4:1],,,
{4},2-6[8:1]/7,1-7[8:1],2-5[8:1],
{4}1-6[8:1],2-4[8:1],1-5[8:1],2<7[8:1],
{4},2/7-3[8:1],8-2[8:1],7-4[8:1],
{4}8-3[8:1],7-5[8:1],8-4[8:1],7>2[8:1],
{8},,2/7,,4/5,4-8[8:1]/5,,6-1[8:1],
{8},3-8[8:1],,5-1[8:1],,4>5[8:5],,,
{4},,,1/8,
{16}2,,2,,7,,7,,1,8,1,8,1,8,1b,,
{8},4/5,4/5,,7,8,7,1h[4:1],
{8},8,1,,3,4,3,6h[4:1],
{8},5,6,,2,1,2,8h[4:1],
{8},1,8,1,,3>1[8:1]/6<8[8:1],,,
{8},,4/5,,6,5,6,3h[4:1],
{8},4,3,,8,1,8,1,
{4}8<5[8:1],4,3>8[8:1],7,
{8}6>3[8:1],,2,,1,8,1,8,
{4}1>4[8:1],5,6<1[8:1],2,
{4}3/4,5q4[8:3]/6<3[8:3],,,
{8}1/8,8,1/8,8-4[8:1],1,,2,2,
{8}2/7,2-5[8:1],7,,6,6,4/6,6-1[8:1],
{8}4,,3,3,3/5,3-7[8:1],5,,
{8}6,6,5/7,5/7,4/8,4/8,1-6[8:1]/3-8[8:1],1b/3b,
{1},
{1},
{1},
E
&inote_5=
(185){1},
{1},
{8},,,,,,,1bpp8[8:9]/5bpp4[8:9],
{1},
{8},,,4b/8b,,1b/5b,,2bz6[8:7]/6bz2[8:7],
{1},
{8},,,,,,,8bqq1[8:5],
{8},,,,,,,4bqq5[8:5],
{8},,,,,,,4bqq1[4:3]/8bqq5[4:3],
{1},
{8}1/5,,1/5,,1/5,1/5,1/5,1/5,
{32}1,,5,,1,,5,,1,,5,,1,,5,,1,2,3,4,5,6,7,8,1,2,3,4,5b-1[8:1],,,,
{8},5,8,,2,3<6[8:1],1,3,
{8},7p3[8:1],8,7,,2<7[8:1],3,2,
{8},6h[8:3],5,4,2h[8:3],3,4,6h[4:1],
{8},4p8[4:1],6,8p4[4:1],,4>5[2:1],,8h[8:5],
{8},,,,4,3/7,2/6,1h[4:1]/5,
{8},5,2/6,4/8h[4:1],,4,3/7,1-5[8:1]/5,
{8},1,7-3[8:1],,7,2,,7/8,
{16}2,5,3,6,4,7,5,8,4,7,3,6,2,5,1b-5[8:1],,
{8},1,8,,7,6>3[8:1],8,6,
{8},2q6[8:1],1,2,,7>2[8:1],6,7,
{8},3h[8:3],4,5,7h[8:3],6,5,3h[4:1],
{8},5<1[4:1],3,1>5[4:1],,5w1[16:3],,,
{8},,3/7,,2,3>8[8:1],4,5,
{8},7<4[8:1],8,1,,3,4,5,
{4}2-5[8:1]/6,2/6-3[8:1],1-4[8:1]/6,1/7-4[8:1],
{8}2-7[8:1]/7,,2/6-1[8:1],,6,2,8,4,
{4}7-4[8:1],3-6[8:1]/7,3/8-5[8:1],2-5[8:1]/8,
{16}2/7-2[8:1],,,,3<6[8:1]/7,,,,3/6,,,,1,8,1,8,
{8}2/7,2-5[8:1]/7-4[8:1],,2/7,,3/6,3/6,,
{8}4h[8:3]/5,,,3h[8:3],,,2,,
{8}1/4,1-5[8:1]/4-8[8:1],,1/4,,3/7,3/7,,
{8}4/5h[8:3],,,6h[8:3],,,7,,
{8}5/8,5-1[8:1]/8-4[8:1],,5/8,,2/6,2/6,,
{8}4/5,,3/6,3/6,,2/7,8,1,
{8}2/7,2-6[8:1]/7-3[8:1],,2/7,,4/5,4h[1:1]/5h[1:1],,
{1},
{8}1/6,1h[4:1]/6,,7h[4:1],,6,1/8,,
{8}2/5,2/5h[4:1],,3h[4:1],,2,4/5,,
{8}7/8,4h[4:1]/6,,7h[4:1],,8,3/5,,
{8}3/4,2/8h[4:1],,3h[4:1],,4,1/7,,
{8}3/6,3-8[8:1]/6-1[8:1],,3/6,,2/7,2/7,,
{4}1>4[4:1],4<7[4:1],7>2[4:1],2>8[4:3],
{1}5h[1:1],
{2}1b,8b,
{8}2h[8:15]/7b,,,,,,1,8,
{8}7,,5,5,,3>5[8:9],,,
{4},,,8,
{2}8b,1b,
{8}2b/7h[8:15],,,,,,8,1,
{8}2,3,,5,,6<4[8:9],,,
{8},,,,,,1,8,
{8}7,6,,4-8[8:1]/5-1[8:1],,4/5,,2b/7b,
{8},,4/5,,6,7,8-4[8:1],1,
{8}2h[8:3],,3,3-8[8:1],,2-5[8:1],,6h[8:3],
{8},,8,,3,2,1-5[8:1],8,
{8}7h[8:3],,6,6-1[8:1],,7-4[8:1],,3h[8:3],
{8},,1,,4h[4:1]/5h[4:1],,,2-6[8:1]/7,
{8},2/7-3[8:1],,2/7,,4,5,3/6,
{8}7,8,1/6,2,1,3/8,7,8,
{16}1/6,,2,,1,,3,3,4,,2/5,,6,,4/7,,
{16}8,,1,,2/7,,6,6,5,,4/7,,3,,2/5,,
{32}1,2,3,4,5,6,7,8,1,2,3,4,5,6,7,8,1,2,3,4,5,6,7,8,1,2,3,4,5b-1[8:1],,,,
{8},5,8,,3/4,2/5,1/6<1[8:1],,
{8}3,4,5,6-2[8:1]/7-3[8:1],,6/7,,4/5,
{16}4/5,,7,8,7,,1/6,,3/4,,2,1,2,,3/8,,
{16}5/6,,8,1,2/7>2[8:1],,,,2,,3,,4,,5-1[8:1]/6,,
{8},5,7-4[8:1],,7,2h[4:1],,3-7[8:1],
{8},3,1-6[8:1],,1,8h[4:1],,7<2[4:1],
{8},8,8,,1/8,2/7,1/8,3/6,
{16}1/8,,2,2,3/8,,7,7,1/6,,4,4,3/6,,1-5[8:1]/8b,,
{8},1,8,,5/6,4/7,3>8[8:1]/8,,
{8}6,5,4,2-6[8:1]/3-7[8:1],,2/3,,4/5,
{16}4/5,,2,1,2,,3/8,,5/6,,7,8,7,,1V38[4:1]/6,,
{8}4-7[8:1],,,,1/6,2/7,3/8,1-6[8:1]/4,
{8},1,5-2[8:1],,5,7,,3b-7[8:1]/6b-4[8:1],
{8},3b/6b,,2b-6[8:1]/7b-1[8:1],,2b/7b,,1b>4[8:1]/8b<5[8:1],
{8},1b/8b,,,,2-6[8:1],7-3[8:1],2,
{16}7,,,,4/5,,1<6[8:1]/8>3[8:1],,,,1/8,,,,1/8,1/8,
{8}2-4[8:1]/7,,2-8[8:1],6,2-5[8:1],6,2-7[8:1],6,
{8}2>5[8:1],6,2<7[8:1],6,2-6[8:1],6,2,7,
{8}8-6[8:1],4,8-2[8:1],4,8-5[8:1],4,8-3[8:1],4,
{8}8<5[8:1],4,8>3[8:1],4,8-4[8:1],4,8<5[8:1]*>3[8:1],3,
{8},,7h[4:1],,8,1-5[8:1]/6-8[8:1],,1/6,
{8},3-1[8:1]/8-4[8:1],,3/8,,1pp4[2:1]/5pp8[2:1],,1/5,
{8},,,,,4-1[8:1]/8-5[8:1],1/5,4/8,
{16},,2/6,,3/7,,4/8,,3,7,2,6,1,5,8b-4[8:1],,
{8},8,1,,2,3<6[8:1],1,3,
{8},7p3[8:1],8,7,,2<7[8:1],3,2,
{8},6h[8:3],5,4,2h[8:3],1,8,6h[4:1],
{8},4>8[4:1],6,8<4[4:1],,4w8[16:3],,,
{8},,2/6,,7,8<5[8:1],1,2,
{8},1>4[8:1],8,7,,5h[4:1],,4,
{12}4>2[8:1]/5<7[8:1],,,,,,3,3,6,3,3,7,
{12}3,3,8,3>6[4:1],3,1,3b,,,,,,
{8}7h[2:1],5,4,3,2,4/5,7,4/5,
{8}2h[2:1],4,5,6,7>2[8:1],,,,
{8}4/5,6,4/5,3,4/5,7,4/5,2,
{8}4/5,8,4/5,1,3/4,8,5/6,1,
{8}3/4,6/7,1/3,4/5,6/8,2/3,5/7,1/8,
{16}3,4,8,7,5,6,2,1,4,5,8,7,1b-4[8:1]/6b>4[8:1],,1b/6b,,
{1},
{1},
{1},
E
