&title=Doll Judgment
&wholebpm=230
&artist=ぬるはち
&des=はっぴー
&shortid=701
&genre=東方Project
&cabinet=SD
&version=maimai MiLK
&chartconverter=Neskol
&lv_2=5
&des_2=-
&lv_3=8+
&des_3=-
&lv_4=12
&des_4=某S氏
&lv_5=13+
&des_5=はっぴー
&des_6=
&inote_2=
(230){1},
{1},
{1},
{1}1,
{1}1,
{1}1b,
{1},
{1}8,
{1}8,
{1}8h[1:1],
{1},
{2}1,1,
{2}2,2,
{1}3h[1:1],
{1},
{1}3/4,
{1}5/6,
{2}3,3,
{1}3/4,
{1}5h[1:1],
{1},
{1}6h[1:1],
{1},
{1}7h[1:1],
{1},
{1}8-4[4:3],
{1},
{1}3,
{1}3,
{1}2-5[4:3],
{1},
{2}6,6,
{2}5,5,
{2}4,4,
{1}3/4,
{1}2h[1:1],
{1},
{2}1,8,
{1}1,
{2}2,2,
{2}3,3,
{2}4,4,
{1}5/6,
{1}7h[1:1],
{1},
{2}8,1,
{1}1/8,
{1}8-5[4:3],
{1},
{1}1-4[4:3],
{1},
{2}5,5,
{2}6,6,
{2}7,7,
{1}1/8,
{2}1,1,
{2}2,2,
{2}3,3,
{1}4/5,
{2}4,4,
{2}3,3,
{2}2,2,
{1}1/8,
{2}8,8,
{2}7,7,
{2}6,6,
{1}4/5,
{4}3,3,3,,
{1}3/4,
{4}6,6,6,,
{1}5/6,
{2}3/4,3/4,
{2}5/6,5/6,
{2}4/5,4/5,
{1}3/6,
{4}7,7,7,,
{1}7/8,
{4}2,2,2,,
{1}1/2,
{1}8b,
{1}1b,
{1}8-4[4:3],
{1},
{2}1,1,
{2}2,2,
{1}3h[1:1],
{1},
{2}4,4,
{2}5,5,
{2}6,6,
{1}5/6,
{2}7,7,
{2}8,8,
{1}1h[1:1],
{1},
{2}8,8,
{2}7,7,
{2}6,6,
{2}5,5,
{1}4h[1:1],
{1},
{1}5h[1:1],
{1},
{2}4,4,
{2}3,3,
{2}2,2,
{1}1/2,
{2}8,8,
{2}1,1,
{1}8h[1:1],
{1},
{2}1,1,
{2}2,2,
{2}3,3,
{1}4b/5b,
{1},
{2}5/6,5/6,
{1}5/6,
{2}3/4,3/4,
{1}3/4,
{2}1/2,1/2,
{1}1/2,
{2}7/8,7/8,
{1}7/8,
{2}6,6,
{1}5/6,
{2}3,3,
{1}3/4,
{2}4,4,
{2}5,5,
{2}4,5,
{1}3/6,
{1}2,
{1}2,
{1}2-6[4:3],
{1},
{1},
{1},
E
&inote_3=
(230){1},
{1},
{1},
{2}6h[2:1],5,
{2}3h[2:1],4,
{1}4-1[4:3]/5-8[4:3],
{2},2/7,
{2}3,2/4,
{4}5,5,5,,
{2}6,5/7,
{4}8,8,8,,
{1}1h[2:1]/8h[2:1],
{2}1/8,2/7,
{2}3/4,5/6,
{4}4,4,4/5,,
{2}2,1/3,
{4}8,8,8,,
{1}1>4[4:3]/8<5[4:3],
{2},3b/6b,
{2}6,5/6,
{2}4,3/5,
{2}3,3/4,
{4}2,2,2,,
{2}7,7/8,
{2}6,5/7,
{2}3/4,5/6,
{4}4,4,4/5,,
{1}4h[2:1]/5h[2:1],
{1}4h[2:1]/5h[2:1],
{2}4/5,3/6,
{4}5,5,4/5,,
{2}2h[2:1],3h[2:1],
{2}4,4/5,
{2}6h[2:1],7h[2:1],
{2}8,1/8,
{1}1-6[4:3]/2-5[4:3],
{2},4/7,
{1}7-4[4:3]/8-3[4:3],
{2},2/5,
{2}3h[2:1],2h[2:1],
{2}1,7/8,
{2}6h[2:1],7h[2:1],
{2}8,1/2,
{2}3h[2:1],4h[2:1],
{2}5h[2:1],6h[2:1],
{2}7h[2:1],8h[2:1],
{2}1,2/7,
{1}5>2[4:3]/6,
{2},1/8,
{1}7<4[4:3]/8,
{2},3/5,
{2}2h[2:1],1,
{4}3,3,3,,
{1}4h[2:1]/5h[2:1],
{4}4/5,4/5,4/5,,
{2}7h[2:1],8,
{4}6,6,6,,
{1}4h[2:1]/5h[2:1],
{4}4/5,4/5,4/5,,
{2}3/4,5/6,
{2}4/7,3/6,
{2}1/2,7/8,
{1}1h[2:1]/6h[2:1],
{2}3h[2:1],4,
{2}6h[2:1],5,
{2}4/5,3/6,
{4}1/8,1/8,1b/8b,,
{4}2,2,1,,
{4}7,7,8,,
{4}3,3,4,,
{4}5,5,4/5,,
{2}3h[2:1],4h[2:1],
{4}3,3,3/4,,
{2}5h[2:1],4h[2:1],
{4}5,5,4/5,,
{4}3,3,3/4,,
{4}6,6,5/6,,
{4}3,3,2/4,,
{4}6,6,5/7,,
{1}4qq1[4:5]/5pp8[4:5],
{1},
{2}2/7,3/6,
{4}4/5,4/5,3b/6b,,
{4}3,3,3/4,,
{4}6,6,5/6,,
{1}4/7>4[4:3],
{2},3/6,
{4}2,2,1/2,,
{4}7,7,7/8,,
{1}1h[2:1]/8h[2:1],
{4}8,1,2/7,,
{4}6,6,5/6,,
{4}3,3,3/4,,
{1}2<5[4:3]/5,
{2},1/8,
{4}7,7,7/8,,
{4}2,2,1/2,,
{4}8,8,1,1,
{4}1/8,1/8,2b/7b,,
{4}3,3,2/4,,
{4}6,6,5/7,,
{1}1pp3[4:3]/8qq6[4:3],
{2},2/7,
{4}3,3,2/4,,
{4}6,6,5/7,,
{1}1h[2:1]/8h[2:1],
{4}1/8,2/7,3b/6b,,
{4}7,7,6/8,,
{4}2,2,1/3,,
{1}4qq2[4:3]/5pp7[4:3],
{2},1/8,
{4}3/4,3/4,2/5,,
{4}5/6,5/6,4/7,,
{4}4/5,4/5,3/6,3/6,
{1}2h[2:1]/7h[2:1],
{4}1,1,1b/8b,,
{2}2h[2:1],1,
{4}8,7,1/6,,
{2}7h[2:1],8,
{4}1,2,3/8,,
{2}3h[2:1],4,
{4}5,6,4/7,,
{2}6h[2:1],5,
{4}4,5,3b/6b,,
{1}7h[2:1]/8h[2:1],
{4}5/6,5/6,4/7,,
{1}3h[2:1]/4h[2:1],
{4}1/2,1/2,3/8,,
{1}1-5[4:3]/8-4[4:3],
{2},3/6,
{2}2/4,5/7,
{4}4/5,3/6,2b/7b,,
{1}6h[2:1]/8h[2:1],
{1}1h[2:1]/3h[2:1],
{4}1/8,1/8,1h[12:5]/8h[12:5],,
{1},
{1},
{1},
E
&inote_4=
(230){1},
{1},
{1},
{4}8h[4:1],2,2h[4:1],6,
{12}6h[4:1],,,4,,,4,,5,,,4h[6:11],
{4},5,,5,
{4},5,,5,
{1}2>5[3:1]/8,
{1}1/7<4[3:1],
{12}1h[4:1]/8h[4:1],,,,,,1/8,,,,,1>4[3:1]/8<5[3:1],
{1},
{4}5h[4:3],4,,3,
{4}3h[4:3],4,,6,
{4}7h[4:3],6,,1,
{4}1h[4:3],2,,8,
{4}3/4,4/5,5/6,,
{4}5/7,4/6,3/5,,
{1}1pp4[4:3]/8qq5[4:3],
{4},,4,5,
{4}3h[4:1],4,3h[4:1],4,
{4}3/4,2/5,1/6,,
{4}6h[4:1],5,6h[4:1],5,
{4}5/6,4/7,3/8,,
{4}7h[4:1],8,7h[4:1],8,
{4}7/8,1/6,2/5,3/4,
{4}3h[4:1],4h[4:1],2h[4:1],1,
{4}1/2,3/8,4/7,5/6,
{1}4h[2:3]/7b,
{1},
{12}4/5,,,4/5,,,4,,5,,,3h[12:7]/6h[12:7],
{4},,,3/6,
{4}4,5,4,3/5,
{4}6,5,6,5/7,
{2}4h[2:1],3h[2:1],
{1}2<7[4:1],
{4}8,1,8,1/7,
{4}2,1,2,1/3,
{4}6,5,6,5/7,
{2}4>1[4:1],8b,
{4}5,4,5,4/6,
{4}3,4,3,2/4,
{2}5h[2:1],6h[2:1],
{1}7>2[4:1],
{4}3,1/2,3/8,4/7,
{4}5/6,7/8,1/6,2/5,
{2}3/4h[2:1],5h[2:1],
{12}6,,6,,,4/7,,,,,,,
{4}1/8,2,3,4,
{4}3/5,6,7,8,
{4}1/7,6,5,4,
{4}3/5,2/5,1/5,5/8,
{4}7/8,6,5,2/8,
{4}1/2,3,4,1/7,
{2}7-3[4:1]/8,8-4[4:1],
{1}1-5[4:1],
{4}3h[4:3],4,5,4,
{4}6h[4:3],5,4,5,
{4}2h[4:3],4,5,4,
{4}3/5,4/6,5b/7b,,
{4}1/2,3,4,1/7,
{4}7/8,6,5,2/8,
{2}1/2-6[4:1],1-5[4:1],
{1}8-4[4:1],
{4}8,7,6,3/5,
{4}4,3,2,1/7,
{1}8b,
{4},,1/8,2/7,
{4}3,2/4,3,1/5,
{4}3,2/4,1/5,6/8,
{4}6,5/7,6,4/8,
{4}6,5/7,4/8,1/3,
{4}3,2/4,6,5/7,
{4}4,3/5,5,4/6,
{2}3h[4:1]/5h[4:1],4h[4:1]/7h[4:1],
{2}2h[4:1]/5h[4:1],4h[4:1]/8h[4:1],
{4}2,1/3,2,4/8,
{4}2,1/3,4/8,5/7,
{4}7,6/8,7,1/5,
{4}7,6/8,1/5,2/4,
{1}1q6[3:1]/2>5[3:1],
{1}7<4[3:1]/8p3[3:1],
{4}3/4,1/7,5/6,2/8,
{4}3h[4:1],8,7h[4:1],1,
{4}2,4/8,7,1/5,
{4}2,4/8,7,1/5,
{4}3,4/8,6,1qq5[8:5]/5,
{1},
{4}8,1/7,2/6,3/5,
{4}1,2/8,3/7,4/6,
{12}3/4,,,2/5,,,1/6,,1V37[12:7]/6V48[12:7],,,,
{1},
{4}6h[4:1],5,4h[4:1],5,
{4}5h[4:1],4,3h[4:1],4,
{4}7h[4:1],8,2h[4:1],1,
{4}6h[4:1],5,3h[4:1],4,
{12}3h[4:1]/4h[4:1],,,,,2h[3:1]/5h[3:1],,,,,,,
{12}5h[4:1]/6h[4:1],,,,,4h[3:1]/7h[3:1],,,,,,,
{12}7h[4:1]/8h[4:1],,,,,1h[3:1]/6h[3:1],,,,,,,
{12}1h[4:1]/2h[4:1],,,,,3h[3:1]/8h[3:1],,,,,,,
{1}4>1[12:5]/8q5[12:5],
{1}1p4[12:5]/5<8[12:5],
{1}4qq1[4:3]/8qq5[4:3],
{2},2/7,
{1}4q6[2:1]/7,
{1}2/5p3[2:1],
{12}1,,,1,,,1h[12:5],,,,,8pp4[12:7],
{1},
{4}3,3/4,6,5/6,
{4}2,1/2,7,7/8,
{2}2-5[4:1],8,
{2}8-4[4:1],1,
{12}3h[12:5],,,,,4,,,,2/5,,,
{12}6h[12:5],,,,,5,,,,4/7,,,
{4}4/8,3/7,2/6,1/5,
{1}4bpp7[4:5]/8bpp3[4:5],
{1},
{12}1,,,2/8,,,1,,1,,,2/8,
{4},3/4,4/5,5/6,
{12}8,,,1/7,,,8,,8,,,1/7,
{4},5/6,4/5,3/4,
{12}1,,,2/8,,,1,,1,,,2/8,
{4},3/4,4/5,5/6,
{4}7-4[4:1],1,2-5[4:1],8,
{12}8h[4:1],,,2h[4:1],,,1,,1b,,,2h[3:1],
{12},,,1,,,2,,2,,,3/8,
{4},5/6,3/4,5/6,
{12}7h[4:1],,,8,,,7,,7,,,1/6,
{4},3/4,5/6,3/4,
{12}3h[4:1],,,4,,,3,,3,,,2/5,
{4},4/6,3/5,4/6,
{12}3/4,,,2/5,,,1/6,,1h[4:1]/6h[4:1],,,,
{4},3/8,4/7,5/6,
{12}4/7,,,6,,6,5,,,3/4,,,
{12}2/5,,,3,,3,4,,,5/6,,,
{12}4,5,4,5,,,1/8,,1/8,,,2/7,
{1},
{1},
{1},
E
&inote_5=
(230){1},
{1},
{12}3,4,3,6,5,6,4,5,4,5,,,
{4}3-1[8:1]/4,5,6-8[8:1],5,
{12}4-1[8:1],,,5,,,8,,1/8,,,2/7h[3:4],
{4},5,,5,
{12},,,5,,,,,3,4,,4,
{12}3/5,,,5/6,,,4/7,,8h[4:1],,,1h[3:1],
{4},2,7/8,5/6,
{12}3/4,,,5/6,,,4/7,,4/7,,,2/5,
{12},,5,4,,4,7,,7,5,,5,
{12}8h[4:3],,,6,,,3,,,6,,8,
{12}1h[4:3],,,3,,,6,,,3,,1,
{12}8,,,3,5,4,6,,,1/8,,,
{4}5-2[8:1]/6,8,6-1[8:1],3,
{4}4>1[8:1],7,5<8[8:1],2,
{12}4>1[8:1],,,7,,,5,,5,4,,4,
{12}3/6,,,,,,3/4,,3/4,,,1/6,
{4},2h[4:1],1,3/8,
{4}4/6,8,5/7,1,
{12}8,,8h[4:1],,,7h[4:1],,,6,,,6,
{4}5,1,2/4,8<5[8:1],
{4}1-5[8:1],8-4[8:1],1,1,
{4}4/6,8,5/7,1,
{12}8,,8h[4:1],,,7h[4:1],,,6,,,6,
{12}4,5,4,5,3,4,3,,3/5,,,4/7,
{12},,8,1,,,2/4,,,4/5,,,
{1}2b/7b,
{12},,,,,,4,5,4,6,,,
{12}5h[4:1],,,4,,,4/5,,3>6[12:7]/6,,,,
{4},,,1/8,
{4}7h[4:1],5h[4:1],4<7[8:1],,
{4}2h[4:1],4h[4:1],5>2[8:1],,
{4}8<5[8:1],3,1>4[8:1],6<3[2:1],
{12},,,,,,,,4,5,,,
{4}2h[4:1],4h[4:1],5>2[8:1],,
{4}7h[4:1],5h[4:1],4<7[8:1],,
{4}1>4[8:1],7,5<8[8:1],3h[4:1],
{12}1h[4:1],,,8h[4:1],,,6,,6,,,2/8,
{12},,3,4,,4,3,,2/5,,,6h[3:1],
{4},8h[4:1],1h[4:1],3<6[8:1],
{4}8,7p3[8:1],1,2<7[8:1],
{3}6h[3:2],,3,
{12}2>4[8:1],,,1,,,8,,3/8,,,1,
{12}8<6[8:1],,,2,,1,,,1/6<3[12:7],,,3,
{4},,,4/5,
{12}1/8,,1/8,,,2b/7b,,,,,,4/5,
{12},,5,4,,4,5,,5,2,,2,
{12}7,,7,5,,5,7,,7,4,,4,
{12}5,,5,2,,2,5,,5,4-2[8:1],,,
{4}5-7[8:1],4-1[8:1],5-8[8:1],4,
{12}1,,1,4-8[8:1],,4,1-4[8:1],,,,,,
{4}8h[4:1],5h[4:1],6,4/7,
{4}3>1[8:1]/5,7,6<8[8:1],2,
{12}1,,1/8,,,3/6,,,5,4,,,
{4}8<5[4:1],5-1[4:1],1>4[4:1],4,
{4}5<8[4:1],8-4[4:1],4>1[4:1],1,
{12}8,,,4/7,,,3/4,,2/5<3[3:1],,,4,
{12},,,,,,1/8,,1/8,,,3/5,
{12},,3,4,3,2,3,,3,4,,6,
{12}5,,3,4,,2/5,,,4/7,,,6,
{12}5,6,7,6,5,6,7,6,5,6,7,6,
{4}5h[4:1],8h[4:1],1h[4:1],3,
{12}2/7,,,5,,5,4,,4,8,,8,
{4}1>4[8:1],5<8[8:1],,4,
{4}2-5[8:1]/8,6,7-4[8:1],3,
{4}2-6[8:1],7-3[8:1],1,8b,
{12}1-4[8:1]/2-5[8:1],,,1/2,,,6,,6,8,,8,
{12}1,,1,3,,2/4,,,7,5,,,
{12}7-4[8:1]/8-5[8:1],,,7/8,,,3,,3,1,,1,
{12}8,,8,6,,,4/7,,,2/5,,,
{12}1-4[8:1]/2-5[8:1],,,1/2,,,6,,6,8,,8,
{12}1,,1,3,,,2/5,,,4/7,,,
{12}1,,1,8,,8,5,,5,4,,4,
{12}1,8,2,7,3,6,4,,,2b/7b,,,
{12}1-5[8:1]/2-4[8:1],,,1/2,,,6,,6,8,,8,
{12}1,,1,3,,2/4,,,,5/7,,,
{12}7-5[8:1]/8-4[8:1],,,7/8,,,3,,3,1,,1,
{12}8,,8,6,,,4/7,,,2/5,,,
{3}4h[2:1]/5h[2:1],,2/7,
{1}3V58[2:1]/6V41[2:1],
{4}1bw5[8:1],1b,1bw5[8:1],1b,
{12}7,8,6,2,1,3,5,,5,4,,,
{12}2/5h[2:1],,,4,,,1,,,4/6,,6,
{4}2,4/8,1/8-6[8:1],4,
{4}2/5,4/5,1/6,4/6,
{12}2/7,,7,5,,5,4,,,4/6,,,
{12}2/7h[4:1],,,4,,,1/8,,8-5[8:1],4,,,
{4}2,4/6,1/7,4/5,
{12}2/7,,,4,5,4,5,,3>6[3:1]/6,,,5,
{4},,4/5,1/8,
{12}4h[2:1]/7,,,5,,,8,,,3/5,,3,
{4}7,5,1-3[8:1]/8,5,
{4}4>1[4:1]/7,5,8,5,
{12}3/7,,3,5,,5,4,,4,6,,,
{12}4/7,,,3/5,,3,8,,,1/5,,,
{12}1/7,,,3/5,,3,8,,,4/5,,,
{12}1/7,,,3/5,,3,8,,,1/5,,,
{12}2/7,,8,1,,1,8,,,3/6,,,
{12}7<5[8:1],,7,8,,,2>4[8:1],,2,1,,,
{12}7<5[8:1],,7,8,,,2>4[8:1],,2,1,,,
{12}7,,7,5,,5,4,,4,2,,2,
{12}1,,1,8,,8,7,,,4/7,,,
{12}3<6[8:1],,3,7,,,7>2[8:1],,7,3,,,
{12}3<6[8:1],,3,7,,,7>2[8:1],,7,3>4[8:3],,,
{12},,,,,,8,,1/8,,,2/7,
{12},,,4/5,,,4,5,3,6,,,
{12}6<8[8:1],,6,5,,,3>1[8:1],,3,4,,,
{12}6<8[8:1],,6,5,,,3>1[8:1],,3,4,,,
{4}6h[4:1],8h[4:1],1h[4:1],3,
{12}4/5,,6,5,,3,4,,5,4,,,
{12}2/6<1[4:1],,,3,,3,,,,2/5,,,
{12}3>8[4:1]/7,,,6,,6,,,,4/7,,,
{12}1/8,,,5/7,,,5,6,4,5,3,4,
{1}3h[1:1],
{12}5,,,5,,,4,5,4,5,,,
{4}2-5[8:1],7,6-1[8:1],3,
{4}3-6[8:1],7-2[8:1],4-1[8:1],8-5[8:1],
{4}3,2/4,6,5/7,
{4}7-4[8:1],3-8[8:1],6-1[8:1],2-5[8:1],
{4}7,6/8,2,1/3,
{4}3-6[8:1],7-2[8:1],4-1[8:1],8-5[8:1],
{4}4>1[8:1],7,5<8[8:1],2,
{12}4,5,4,6,,,4/5,,4/5,,,2/7,
{12},,8,1-5[8:1],,,7,,,8<4[4:1],,,
{4}4>8[4:1],8<4[4:1],4>8[4:1],8,
{4}4,3/5,2,1>5[4:1]/7,
{4}5<1[4:1],1>5[4:1],5<1[4:1],1,
{4}5,4/6,7,6/8>4[4:1],
{4}4<8[4:1],8>4[4:1],4,8,
{12}3,4,3,6,5,6,4,,3/6,,,3/6,
{4},7-3[8:1],2-6[8:1],5w1[4:1],
{1},
{12}3/7,,,5,4,5,3,,,3/6,,,
{12}1,8,1,8,,,3/6,,1-5[8:1]/8-4[8:1],,,1b/8b,
{1},
{1},
{1},
E
