&title=砂の惑星 feat. HATSUNE MIKU
&wholebpm=95
&artist=ハチ
&des=はっぴー
&shortid=725
&genre=niconicoボーカロイド
&cabinet=SD
&version=maimai MiLK
&chartconverter=Neskol
&lv_2=2
&des_2=-
&lv_3=7+
&des_3=-
&lv_4=10+
&des_4=Jack
&lv_5=13
&des_5=はっぴー
&des_6=
&inote_2=
(95){1},
{1},
{1},
{1},
{1},
{4}8,8,8,,
{4}7,7,7,,
{4}6,6,6,,
{4}5,5,4/5,,
{1}4h[2:1],
{1}3h[2:1],
{1}2h[2:1],
{1}1h[2:1],
{4}8,8,8,,
{4}1,1,1,,
{4}2,2,2,,
{4}3,3,3,,
{1}4-1[4:3],
{1},
{1}5-8[4:3],
{1},
{4}1b,1,1,,
{4}8,8,1/8,,
{4}7,7,7,,
{4}6,6,5/6,,
{4}5b,5,5,,
{4}4,4,4/5,,
{1}3h[2:1],
{1}2h[2:1],
{4}1,8,1/8,,
{1}2h[2:1],
{4}3,4,3/4,,
{1}5h[2:1],
{4}6,5,5/6,,
{1}7h[2:1],
{4}8,1,1/8,,
{1}2h[2:1],
{4}2,2,1/2,,
{4}7,7,7/8,,
{4}7b,7,6,6,
{4}5,5,4/5,,
{4}4,4,3,3,
{4}2,2,1/2,,
{4}1b,1,2,2,
{4}3,3,3/4,,
{4}4,4,5,5,
{4}6,6,5/6,,
{1}7h[2:1],
{1}8h[2:1],
{4}1,1,1,,
{4}8,8,7/8,,
{4}6,6,6,,
{4}5,5,4/5,4/5,
{1},
{1},
{1},
E
&inote_3=
(95){1},
{1},
{1},
{1},
{1},
{1}1-6[4:1]/2-5[4:1],
{1}7-4[4:1]/8-3[4:1],
{1}1-6[4:1]/2-5[4:1],
{4}7-4[4:1]/8-3[4:1],,,4b/5b,
{4}3h[4:1],4,3,2/4,
{4}6h[4:1],5,6,5/7,
{4}3h[4:1],4,6h[4:1],5,
{4}3,3-6[4:1]/4,,,
{4}7h[4:1],8,7,6/8,
{4}2h[4:1],1,2,1/3,
{4}7h[4:1],8,2h[4:1],1,
{4}7,7-2[4:1]/8,,,
{4}4h[4:1],5,3h[4:1],4,
{4}2h[4:1],3,1h[4:1]/8h[4:1],,
{4}5h[4:1],4,6h[4:1],5,
{4}7h[4:1],6,1h[4:1]/8h[4:1],,
{8}2b/7b,,3,3,4,,2/5,,
{8}7/8,,6,6,5,,4/7,,
{8}1/2,,3,3,4,,2/5,,
{4}5h[4:1],6h[4:1],7h[4:1],8,
{4}2h[4:1]/7,1s5[4:1],,,
{4}2/7h[4:1],8z4[4:1],,,
{4}2b/7b,4/5,3/6,2/7,
{1}1pp4[2:1]/8qq5[2:1],
{4}4h[4:3]/5,,5,5,
{4}4/5h[4:3],,4,4,
{4}3h[4:3]/4,,4,4,
{4}5-2[4:1]/6,,,1/2,
{4}1/8h[4:3],,1,1,
{4}1h[4:3]/8,,8,8,
{4}7h[4:3]/8,,8,8,
{4}1-6[4:1]/2,,,5/6,
{4}8h[4:1],7h[4:1],6h[4:1],5h[4:1],
{4}4h[4:1],3h[4:1],2h[4:1],1,
{8}2b/7b,,7,7,8,,1/6,,
{8}3/4,,2,2,1,,3/8,,
{8}5/6,,7,7,8,,1/6,,
{4}4h[4:1],3h[4:1],2h[4:1],1,
{4}2/7h[4:1],8z4[4:1],,,
{4}2h[4:1]/7,1s5[4:1],,,
{8}2b/7b,,3/6,,4/5,4/5,3/6,,
{1}1pp4[2:1]/8qq5[2:1],
{1}4h[4:7]/5h[4:7],
{1},
{4}6h[4:3],5,,5,
{4}3h[4:3],4,,4,
{4}6h[4:3],5,,5,
{8}3h[4:3],,4,,,,4,3/4,
{1},
{1},
{1},
E
&inote_4=
(95){1},
{8}5,4,3h[4:1],,8h[4:1],,1,,
{8}4,5,6h[4:1],,1h[4:1],,8,,
{8}5,3,1h[4:1],,7h[4:1],,6,,
{8}4,6,8h[4:1],,2h[4:1],,3,,
{8}5/6,4/5,3>6[16:5]/4p5[16:5],,,,,,
{8}3/4,4/5,5q4[16:5]/6<3[16:5],,,,,,
{8}4/5,3/4,2V86[4:1]/3v5[4:1],,,,,,
{8}4/5,5/6,6v4[4:1]/7V13[4:1],,,,,,
{16}7h[16:3],,,6h[16:3],,,5,,4,,3,,2/4,,,,
{16}2h[16:3],,,3h[16:3],,,4,,5,,6,,5/7,,,,
{8}4,5,6,7/8,1,2,3,4/5,
{8}6,7,8,1/2,3>1[8:1]/8<6[8:1],,,,
{16}5h[16:3],,,6h[16:3],,,7,,5/8,,1/4,,2/3,,,,
{16}4h[16:3],,,3h[16:3],,,2,,1/4,,5/8,,6/7,,,,
{8}1,8,7,5/6,4,3,2,1/8,
{8}7,6,5,3/4,2>4[8:1]/5<7[8:1],,,,
{4}7-5[8:1],1-3[8:1],8-4[8:1],1-3[8:1],
{4}7-5[8:1],4>5[8:3],,,
{4}3-1[8:1],5-7[8:1],4-8[8:1],5-7[8:1],
{8}3-1[8:1],,8h[4:1],,1,2/7,3/6,4/5,
{32}1h[8:1]/8h[8:1],,,,,,2h[8:1]/7h[8:1],,,,,,3/6,,,,1/2,,,1/2,,,3/8,,,,4,,5,,6,,
{32},,6,,5,,4,,,,4,,5,,6,,7/8,,,7/8,,,1/6,,,,,,,,,,
{32}7h[16:3],,,,,,6h[16:3],,,,,,5,,,,3/4,,,3/4,,,2/5,,,,3,,4,,5,,
{32},,5,,4,,3,,,,3,,4,,5,,5/6,,,5/6,,,4/7,,,,,,,,,,
{32}1h[8:1]/8h[8:1],,,,,,2h[8:1]/7h[8:1],,,,,,3/6,,,,7/8,,,7/8,,,1/6,,,,5,,4,,3,,
{32},,3,,4,,5,,,,5,,4,,3,,1/2,,,1/2,,,3/8,,,,,,,,,,
{8}5/6<1[8:1],4,3,,3>8[8:1]/4,5,6,,
{8}7-4[8:1],7,2-5[8:1],2,8-4[8:1],8,1,,
{16}3,,4,,5/6h[16:3],,,7,,6,,4/5,4/5,,,,
{8}5h[8:1],4,3h[8:1],4,6h[8:1],4,2h[8:1],4,
{16}6,,5,,3h[16:3]/4,,,2,,3,,4/5,4/5,,,,
{8}4h[8:1],5,6h[8:1],5,3h[8:1],5,7h[8:1],5,
{16}2,,1,,7h[16:3]/8,,,6,,7,,1/8,1/8,,,,
{8}1h[8:1],8,7h[8:1],8,2h[8:1],8,6h[8:1],8,
{16}2,,1,,7h[16:3]/8,,,6,,7,,1/8,1/8,,,,
{8}8h[8:1],1,2h[8:1],1,7h[8:1],1,3h[8:1],1,
{8}6,6,5/7,3,2/4,8,1,2/7,
{8}3,3,2/4,6,5/7,4,5,3/6,
{32}1h[8:1]/8h[8:1],,,,,,2h[8:1]/3h[8:1],,,,,,4/5,,,,7/8,,,7/8,,,1/6,,,,5,,4,,3,,
{32},,3,,4,,5,,,,5,,4,,3,,1/2,,,1/2,,,3/8,,,,,,,,,,
{32}2h[16:3],,,,,,3h[16:3],,,,,,4,,,,5/6,,,5/6,,,4/7,,,,6,,5,,4,,
{32},,4,,5,,6,,,,6,,5,,4,,3/4,,,3/4,,,2/5,,,,,,,,,,
{32}1h[8:1]/8h[8:1],,,,,,6h[8:1]/7h[8:1],,,,,,4/5,,,,1/2,,,1/2,,,3/8,,,,4,,5,,6,,
{32},,6,,5,,4,,,,4,,5,,6,,7/8,,,7/8,,,1/6,,,,,,,,,,
{16}3/4,,4/5,,5h[16:3]/6h[16:3],,,,,5/6,,3/4,3/4,,,,
{16}1/8,,2/7,,3h[16:3]/6h[16:3],,,,,2/7,,4/5,4h[1:2]/5h[1:2],,,,
{1},
{8},,,,,,,4b/5b,
{8}3>8[8:1],7,6,,7<4[8:1],3,2,,
{8}2<7[8:1],6,5,,5>2[8:1],1,8,,
{8}6<1[8:1],2,3,,2>5[8:1],6,7,,
{8}7>2[8:1],3,4,,4<7[8:1],8,1,2,
{1},
{1},
{1},
E
&inote_5=
(95){1},
{16}6h[4:3],,5,5V31[16:3],,4,,5,,,,,5,,4/5,,
{16}3h[4:3],,4,4V68[16:3],,5,,4,,,,,4,,4/5,,
{16}6h[4:3],,5,5V71[16:3],,4,,5,,,,,5,,4/5,,
{16}3h[4:3],,4,4V28[16:3],,5,,4,,,,,4,,4/5,,
{16}1>4[8:1]/8,,7,7,1/6,,7,,1/8<5[8:1],,2,2,3/8,,2,,
{16}1>4[8:1]/8,,7,7,1/6,,7,,1/8<5[8:1],,2,2,3/8,,2,,
{16}1>4[8:1]/8,,8,7,1/6,,7,,1/8<5[8:1],,1,2,3/8,,2,,
{16}1>4[8:1]/8,,8,7,1/6,,7,,1/8<5[8:1],,1,2,3/8,,2,,
{16}7h[8:1],,6,5h[8:1],,4,3,,3>8[16:1]/7<4[16:1],,2,6,3/7,,,,
{16}2h[8:1],,3,4h[8:1],,5,6,,2>5[16:1]/6<1[16:1],,7,3,2/6,,,,
{16}7h[8:1],,6,5h[8:1],,4,3,,2h[8:1],,3,4h[8:1],,5,6,,
{16}6h[16:3],,5,5<4[4:1],,1,,5,,,,,,,4/5,,
{16}3h[8:1],,2,1h[8:1],,8,7,,3>8[16:1]/7<4[16:1],,2,6,3/7,,,,
{16}6h[8:1],,7,8h[8:1],,1,2,,2>5[16:1]/6<1[16:1],,7,3,2/6,,,,
{16}3h[8:1],,2,1h[8:1],,8,7,,6h[8:1],,7,8h[8:1],,1,2,,
{16}3h[16:3],,4,4>5[4:1],,8,,4,,,,,,4/5,6,7h[8:1],
{16},5,4,3h[8:1],,6,7,8h[8:1],,4,3,2h[8:1],,1,8,7h[8:1],
{16},1,2,3h[8:1],,8,7,6,5,,4/5,,5,4,3,2h[8:1],
{16},4,5,6h[8:1],,3,2,1h[8:1],,5,6,7h[8:1],,8,1,2h[8:1],
{16},8,7,6h[8:1],,1,2,3,4/6,,2/7,,1-5[16:1]/8-4[16:1],,4/5,,
{32}1b/8b,,,,2/7,,2/7,,,,6,,7,,8>3[16:1],,3/8,,,1/7,,,6/8,,,,5,,3,,1h[8:1],,
{32},,4,,6,,8h[8:1],,,,5,,3,,1<6[16:1],,1/6,,,2/8,,,1/3,,,,1,,1,,8,,
{32}1/8,,,,2/7,,2/7,,,,3,,2,,1<6[16:1],,1/6,,,2/8,,,1/3,,,,4,,6,,8h[8:1],,
{32},,5,,3,,1h[8:1],,,,4,,6,,8>3[16:1],,3/8,,,1/7,,,6/8,,,,4/5,,4/5,,,,
{32}1b/8b,,,,2/7,,2/7,,,,3,,2,,1<6[16:1],,1/6,,,2/8,,,1/3,,,,4,,6,,8h[8:1],,
{32},,5,,3,,1h[8:1],,,,4,,6,,8>3[16:1],,3/8,,,1/7,,,6/8,,,,4/5,,4/5,,,,
{8}1h[4:1]/8,3,8h[4:1],6,2h[4:1],4,7h[4:1],5,
{16}4,,4/5,4>1[16:3]/5<8[16:3],,1/8,,4/5,,,,,2/7,,,,
{16}3-5[16:1]/6,,2,8,3,,,,3-5[16:1]/6,,2,8,3,,,,
{16}3-5[16:1]/6,,2,8,3,,2,8,3-5[16:1]/6,,2,8,3,,2,,
{16}3/6-4[16:1],,7,1,6,,,,3/6-4[16:1],,7,1,6,,,,
{16}3/6-4[16:1],,7,1,6,,7,1,3/6-4[16:1],,7,1,6,,7,,
{16}2>5[16:1]/5<8[16:1],,7,1,2/5,,,,2>5[16:1]/5<8[16:1],,7,1,2/5,,,,
{16}2>5[16:1]/5<8[16:1],,7,1,2/5,,7,1,2>5[16:1]/5<8[16:1],,7,1,2/5,,7,,
{16}4>1[16:1]/7<4[16:1],,2,8,4/7,,,,4>1[16:1]/7<4[16:1],,2,8,4/7,,,,
{16}4>1[16:1]/7<4[16:1],,2,8,4/7,,2,8,4>1[16:1]/7<4[16:1],,2,8,4/7,,2,,
{8}5/6,4/6,4/7,4/8,3/8,2/8,1/2,2/3,
{8}3/4,3/5,2/5,1/5,1/6,1/7,7-3[16:1]/8-4[16:1],3/4,
{32}7b/8b,,,,2/7,,2/7,,,,4,,2,,1<5[16:1],,1/5,,,2/8,,,1/4,,,,4,,6,,8h[8:1],,
{32},,5,,3,,1h[8:1],,,,4,,6,,8>4[16:1],,4/8,,,1/7,,,5/8,,,,8,,8,,1,,
{32}1/8,,,,2/7,,2/7,,,,5,,7,,8>4[16:1],,4/8,,,1/7,,,5/8,,,,5,,3,,1h[8:1],,
{32},,4,,6,,8h[8:1],,,,5,,3,,1<5[16:1],,1/5,,,2/8,,,1/4,,,,4,,4/5,,,,
{32}1b/8b,,,,2/7,,2/7,,,,5,,7,,8>4[16:1],,4/8,,,1/7,,,5/8,,,,5,,3,,1h[8:1],,
{32},,4,,6,,8h[8:1],,,,5,,3,,1<5[16:1],,1/5,,,2/8,,,1/4,,,,4,,4/5,,,,
{8}1/8h[4:1],6,1h[4:1],3,7h[4:1],5,2h[4:1],4,
{16}5,,4/5,4>1[16:3]/5<8[16:3],,1/8,,4/5,,,,,4/5,,,,
{1},
{8},,,,,,,4/5,
{16}2/4-1[16:1],,3,5,4,,8,,5-8[16:1]/7,,6,4,5,,1,,
{16}2/4-1[16:1],,3,5,4,,8,,5-8[16:1]/7,,6,4,5,,1,,
{16}4-8[16:1]/6,,5,3,4,,2,2,3/5-1[16:1],,4,6,5,,7,7,
{16}4-8[16:1]/6,,5,3,4,,2,2,3/5-1[16:1],,4-8[16:1],6,5,,4,,
{1},
{1},
{1},
E
