&title=白い雪のプリンセスは
&wholebpm=200
&artist=のぼる↑
&des=玉子豆腐
&shortid=675
&genre=niconicoボーカロイド
&cabinet=SD
&version=maimai MiLK
&chartconverter=Neskol
&lv_2=6
&des_2=-
&lv_3=8
&des_3=-
&lv_4=11+
&des_4=LabiLabi
&lv_5=12+
&des_5=玉子豆腐
&des_6=
&inote_2=
(200){1},
{1},
{1},
{1},
{1},
{1},
{4},1,,1,
{4},2,,2,
{4},3,,3,
{4},4,,4,
{4},5,,5,
{4},6,,6,
{4},7,,7,
{4},8,,8,
{1}8-4[4:3],
{1},
{1}1-5[4:3],
{1},
{2}1,1,
{4}8,8,8,,
{2}7,7,
{4}6,6,5/6,,
{2}5,5,
{4}4,4,4,,
{2}3,3,
{4}2,2,1/2,,
{2}8,8,
{4}1,1,1,,
{2}2,2,
{4}3,3,3/4,,
{2}4,4,
{4}5,5,5,,
{2}6,6,
{4}7,7,7/8,,
{1}1h[1:1]/8h[1:1],
{1},
{1}2-6[4:3],
{1},
{1}7-3[4:3],
{1},
{1}2-5[4:3],
{1},
{1}7-4[4:3],
{1},
{1}3h[1:1],
{1},
{1}2h[1:1],
{1},
{1}1h[1:1],
{1},
{1}8,
{1}1b/8b,
{4}7,7,7,,
{4}8,8,8,,
{4}1,1,1,,
{4}2,2,1/2,,
{4}3,3,3,,
{4}4,4,4,,
{4}5,5,5,,
{4}6,6,5/6,,
{4}7,7,7,,
{4}6,6,6,,
{4}5,5,5,,
{4}4,4,4/5,,
{4}3,3,3,,
{4}2,2,2,,
{1}1-5[4:3],
{1},
{1},
{2}1/8,1/8,
{4}2,2,3,3,
{4}4,4,4/5,,
{4}5,5,6,6,
{4}7,7,7/8,,
{4}1,1,2,2,
{4}3,3,3/4,,
{4}4,4,5,5,
{4}6,6,5/6,,
{4}7,7,6,6,
{4}5,5,4/5,,
{4}4,4,3,3,
{4}2,2,1/2,,
{4}8,8,7,7,
{4}6,6,5/6,,
{4}5,5,4,4,
{1}4-1[4:3],
{1},
{4}8,8,8,,
{4}1,1,1,,
{4}1/2,1/2,1/2,,
{4}3,3,3,,
{4}4,4,4,,
{4}5,5,5,,
{4}5/6,5/6,5/6,,
{4}7,7,7,,
{4}6,6,6,,
{4}5,5,5,,
{4}3/4,3/4,3/4,,
{4}3,3,3,,
{4}2,2,2,,
{4}1,1,1,,
{4}8,8,8,,
{4}7,7,7,,
{4}6,6,6,,
{1}6-2[4:3],
{1},
{1},
{1},
E
&inote_3=
(200){1},
{1},
{1},
{1},
{1},
{1},
{4},2,,3,
{4},4,,5,
{4},6,,7,
{4},7/8,7/8,7/8,
{4},7,,6,
{4},5,,4,
{4},3,,2,
{4},1/2,1/2,1/2,
{4},1/8,1>4[8:5]/8<5[8:5],,
{1},
{1}3h[8:7]/6h[8:7],
{2},2/7,
{4}3,3,4,,
{4}6,6,5,,
{4}3,3,4,4,
{4}3,4,3/5,,
{4}7,7,8,,
{4}2,2,1,,
{4}7,7,8,8,
{4}1,8,2/7,,
{4}6,6,5,,
{4}3,3,4,,
{4}6,6,5,5,
{4}6,5,4/6,,
{4}2,1,1,,
{4}7,8,8,,
{1}1-4[2:1],
{1}5-8[2:1],
{1}1>4[2:1],
{4}5,5,6,6,
{4}7h[2:1],8,8,,
{4}2h[2:1],1,1,,
{4}8h[2:1],1,1,,
{4}8,1,2/7,,
{4}3h[2:1],4,4,,
{4}6h[2:1],5,5,,
{4}4h[2:1],5,5,,
{2}4h[4:1]/5h[4:1],3/6,
{4}6,5,3/4,,
{4}3,4,5/6,,
{4}6,5,3/4,,
{4}3,4,2/5,,
{4}6,6,5/6,,
{4}3,3,3/4,,
{1}4h[2:1]/5h[2:1],
{4}5,5,6,6,
{4}7,8,1/6,,
{4}2,1,3/8,,
{4}1,1,8,8,
{4}2/7,,4/5,4/5,
{4}3,3,2/4,,
{4}6,6,5/7,,
{4}4,4,5-8[8:3],,
{1},
{4}7,8,1/6,,
{4}2,1,3/8,,
{4}6,5,3,4,
{4}5,4,3/6,,
{4}6,6,5/7,,
{4}3,3,2/4,,
{1}4qq1[4:5]/5pp8[4:5],
{1},
{1}8b,
{4}2,2,1,1,
{4}7,7/8,1/6,,
{4}2,1/2,3/8,,
{4}1,8,1,1,
{4}2/7,,4/5,4/5,
{4}3,4,2/5,,
{4}6,5,4/7,,
{4}5,4,5-8[8:3],,
{1},
{4}2,1/2,3/8,,
{4}7,7/8,1/6,,
{4}3,4,6,5,
{4}4/5,4/5,3/6,,
{4}7,8,1/6,,
{4}2,1,3/8,,
{4}7,7,2,2,
{4}8,1,1/8,1b/8b,
{4}2/7,2/7,3/6,3/6,
{2}4/5,5-2[4:3]/6-1[4:3],
{1},
{4}3,4,3-8[4:3]/4-7[4:3],,
{1},
{2}5/6,5/6,
{4}7,7,6,6,
{4}5,4,4>1[1:1]/5<8[1:1],,
{1},
{2},2/7,
{4}3,3,4,4,
{4}5,4,3/6,,
{4}3/4,3/4,3/4,,
{4}5/6,5/6,5/6,,
{4}6,6,5/7,,
{4}3,3,2/4,,
{4}2,2,1/3,,
{4}7,7,6/8,,
{32}1/8,,,,,,,,,,,,,1/8,,,,,,,,,,,2/7,,,,,,,,
{1},
{1},
{1},
E
&inote_4=
(200){1},
{8},,,,,,,6h[1:1],
{8},,,,,,,5h[1:1],
{8},,,,,,,4h[1:1],
{8},,,,,,,3h[8:5],
{8},,,,,,,7h[8:3],
{8},8,8,,1/6,,,2h[8:3],
{8},1,1,,3/8,,,6h[8:3],
{8},5,5,,4/7,,,4>1[8:1],
{8},,,8<5[8:1],,,,2h[8:3],
{8},1,1,,3/8,,,7h[8:3],
{8},8,8,,1/6,,,3h[8:3],
{8},4,4,,2/5,,,5<8[8:1],
{8},,,1>4[8:1],,,,5h[8:15],
{4},4,3,3,
{4}2,2,1,1,
{8}4/5,4qq2[4:1]/5pp7[4:1],,,,,,1>4[8:3]/8<5[8:3],
{4},,,2/7,
{8}3,,1/2,,3,3,4,,
{8}6,,7/8,,6,6,5,,
{8}3,,1/8,,3,3,4,,
{8}4/5,,7/8,7h[8:3]/8,,2,2,,
{8}6,,7/8,,6,6,5,,
{8}3,,1/2,,3,3,4,,
{8}6,,1/8,,6,6,5,,
{8}4h[4:1]/5h[4:1],,,1h[4:1]/2h[4:1],,,3/8,,
{8}5,,1/2,,3,3,5,,
{8}4,,7/8,,5,5,3,,
{8}5,,1/8,,4,4,6,,
{8}3/4,,1/8,1/8h[8:3],,6,6,,
{8}4,,7/8,,6,6,4,,
{8}5,,1/2,,4,4,6,,
{4}5,3/4,4,5/6,
{4}5,1/2,4,7/8,
{4}5,1/3,4,6/8,
{4}3/4,1/2,7/8,5h[1:1]/6<4[4:3],
{1},
{4}1/2,3,7/8,6,
{4}4/5,3,1/2,7/8,
{8}1/6,,2/5,2/5,,3>5[8:7]/4h[8:9],,,
{1},
{4}7/8,6,1/2,3,
{4}4/5,6,7/8,1/2,
{4}7/8,1/6,2/5,3>6[2:1]/6,
{4},,,3/6<3[2:1],
{4},,,3/6,
{1}4>1[2:1]/5<8[2:1],
{8}1/2,,1/7,1/7h[8:3],,,6,,
{4}3/4,2/4,5/6,5/7,
{4}2/4,1/8,5/7,1/8,
{1}1>4[2:1]/8<5[2:1],
{4}7/8,5/6,3/4,1/2,
{4}3h[4:1]/4,2,5/6h[4:1],7,
{4}3h[4:1]/4,1,5/6h[4:1],8,
{4}1/2,4/5,2-5[8:1]/6-1[8:1],,
{4}4b/8b,,3/4,2/5,
{8}1/8,,3,,1/8,,5/6,5>1[8:3]/6,
{8},,8,8,,,3/6,,
{8}2/4,,5/7,5/7,,4/5,,3/7h[8:7],
{4},4,2,8,
{4}5/6h[4:1],7,3h[4:1]/4,2,
{4}5/6h[4:1],8,3h[4:1]/4,1,
{8}5/6,,3/4,,2/7,,1/8,1/8h[8:7],
{4},6,4,2,
{4}1/3,7,6/8,2,
{8}3/4,,7/8,7h[8:3]/8h[8:3],,,,,
{4}4/5,,4/5,4/5,
{4}3/6,3/6,2/7,2/7,
{8}1b/8b,,,2b/5b,,,4b/7b,,
{4}1/2,3/4,5/6,7/8,
{4}1/2h[4:1],4,7h[4:1]/8,5,
{4}1/3h[4:1],4,6h[4:1]/8,5,
{4}1/2,4/5,3-8[8:1]/7-4[8:1],,
{4}2b/6b,,5/6,4/7,
{8}1/8,,6,,1/8,,3/4,3/4<8[8:3],
{8},,1,1,,,3/6,,
{8}5/7,,2/4,2/4,,4/5,,2h[8:7]/6,
{4},5,7,1,
{4}7h[4:1]/8,5,1/2h[4:1],4,
{4}6h[4:1]/8,5,1/3h[4:1],4,
{8}3/4,,5/6,,2/7,,1/8,1h[8:7]/8,
{4},3,5,7,
{4}6/8,2,1/3,7,
{8}5/6,,1/2,1h[8:3]/2h[8:3],,,,,
{8}3/6,,7/8,1/6,,1/2,3/8,,
{8}5/7,,1/8,,2/4,,1/8,1>4[8:9]/8<5[8:9],
{1},
{8},,,,2/7,2/7,,6h[8:3],
{8},5,5,,4/7,,3,3h[8:3],
{8},5,5,,7/8,7/8,,6h[8:3],
{8},5,5,,4/7,,3,3h[8:3],
{8},4,4,,2/5,,6,6h[8:3],
{8},4,4,,3/7,,1/8,1h[8:3]/8h[8:3],
{8},,,,2/7,2/7,,3h[8:3],
{8},1,1,,2/7,,6,6h[8:3],
{8},8,8,,2/7,,4,4h[8:3],
{8},3,3,,3/6,,5,5h[8:3],
{8},6,6,,1/8,1/8,,6h[8:3],
{8},8,8,,2/7,,3,3h[8:3],
{8},1,1,,2/7,,5,5h[8:3],
{8},6,6,,3/6,,4,4h[8:3],
{8},3,3,,3/6,,8,8h[8:3],
{8},5,5,,3/6,,,1-5[8:1]/2-4[8:1],
{8},,,7-5[8:1]/8-4[8:1],,,,,
{8}2b/4b,,,5b/7b,,,1b/8b,,
{1},
{1},
{1},
E
&inote_5=
(200){1},
{8},,,,,,,3>6[8:11],
{1},
{8},,,,,,,6<3[8:11],
{1},
{8},,,,,,,2h[8:3]/4,
{8},1,1,,3/8,3/8,,5/7h[8:3],
{8},8,8,,1/6,1/6,,2h[8:3]/4,
{8},1,1,,3/8,3/8,,5/7,
{8},7,8,1b/6b,,2,1,3b-8[8:1]/8b,
{8},5,5-8[8:1],,2,2,,1/6-1[8:1],
{8},4,4-1[8:1],,7,7,,3-8[8:1]/8,
{8},5,5-8[8:1],,2,2,,1/6,
{8},8,1,2b/7b,,4,5,3b/6b,
{8},3,2/4,,6,5/7,,4,
{8}4,3,6,7,2,1,7,8,
{8}1/2,1/2,,,3/7,,7/8,7/8,
{8},2-5[8:1]/6-1[8:1],2/6,,,,3/7,,
{8}2-6[8:1],6-2[8:1],2,,7-3[8:1],3-7[8:1],7,,
{8}1-5[8:1],5-1[8:1],1>4[16:3],,,,,6h[4:1],
{8},5,7,,3,3,2/4,,
{8}5/7,,6/8,6/8,,1/8,,2/4h[8:3],
{8},,5>2[16:3],,6,6,,5h[8:3]/7,
{8},,4<7[16:3],,3,3,,2h[4:1],
{8},1,3,,7,8,1/6,,
{8}2>6[4:1]/4,,,7,,,1/8,,
{8}7-4[8:1],8,7,,2-5[8:1],1,2,,
{8}7-4[8:1],8>3[16:3],7,8,,,,3h[4:1],
{8},4,2,,6,6,5/7,,
{8}2/4,,1-6[8:1]/3-6[8:1],1/3,,,,5h[8:3]/7,
{8},,4<7[16:3],,3,3,,2/4h[8:3],
{8},,5>2[16:3],,6,6,,7,
{4}7<5[4:1],5>3[4:1],3>1[4:1],1<6[4:1],
{4}6>3[4:1],3>8[4:1],8<5[4:1],5>1[4:1],
{4}1<5[4:1],5>1[4:1],1<5[4:1],5,
{4}2h[4:1],1h[4:1],8h[4:1],7,
{8}6-1[8:1],,5,5,,4,4,,
{8}3-8[8:1],,4,4,,6,5>1[16:3],6,
{8}5,,7,7h[8:3],,8,8,,
{8}6h[4:1],,5,5,,3/4,,2,
{8}2-5[8:1],,1,1,,8,8,,
{8}7-4[8:1],,8,8,,2,1<6[16:3],2,
{8}1,,3,3h[8:3],,5,5,,
{4}6h[4:1],7h[4:1],8h[4:1],1,
{8}2-6[8:1],,1,1,,8,8,,
{8}7-3[8:1],,8,8,,1,1-4[8:1]*-6[8:1],,
{12},,,3/7,,,7h[6:1],,6h[6:1],,5h[6:1],,
{8}4,,3/6,3/6,,,1/8,,
{4}7-4[8:1],8,2-5[8:1],1,
{4}6h[4:1],5,3h[4:1],4,
{1}5h[2:1],
{4}3h[4:3]/8b,7b,6b,5b,
{8}4b-8[4:1],,8-2[8:1]*-6[8:1],,,,,1,
{4}2/8-3[8:1],1-6[8:1]/8,1/7-4[8:1],2-5[8:1]/7,
{4}2/8-5[8:1],8-3[8:1],8-4[8:1],8<5[16:3]*>3[16:3],
{4}8,,1/8,2/7,
{8}2-5[8:1]/5,,7,,4/8-5[8:1],,4,3,
{8}2<7[8:1],,4,4,,2-5[8:1]/6-1[8:1],2/6,,
{8},,4/5,3/6,,4h[4:1]/5-8[4:1],,5,
{4},3,2,1/8,
{8}1-5[4:1]/2,,5-3[8:1]*-7[8:1],,,,,8,
{4}1-6[8:1]/7,1/8-3[8:1],2-5[8:1]/8,2/7-4[8:1],
{8}1-4[8:1]/7,,1-6[8:1],,1,,2>5[4:1],2,
{4},6,1/8,2/7,
{4}4/7-4[8:1],2,1-4[8:1]/5,5,
{8}7>2[8:1],,5,5,,3/6,3/6,,
{8}2h[8:3],,,1,1/2,,1/2,,
{4}6/8,6/8,2/4,2/4,
{8}5b/7b,,,1b/3b,,,1b/5b,,
{4}1b/6h[4:3],2b,3b,4b,
{8}5bpp5[4:1]*qq5[4:1],,5-1[8:1],,,,,8,
{4}1/7-4[8:1],2-5[8:1]/7,2/8-3[8:1],1-6[8:1]/8,
{4}1/8-5[8:1],8-3[8:1],8-4[8:1],8<4[16:3]*>4[16:3],
{4}8,,1/8,2/7,
{8}4/7<4[8:1],,2,,5/8>3[8:1],,5,6,
{8}7>2[8:1],,5,5,,4/7,4/7,,
{8}2/7-3[4:1],,3pp5[8:3],3,,5-8[4:1],,,
{4},3,2,1/8,
{8}7/8-4[4:1],,4pp4[4:1]*qq4[4:1],,,,,7,
{4}2-5[8:1]/8,2/7-4[8:1],1-6[8:1]/7,1/8-3[8:1],
{8}1-4[8:1]/8,,1-6[8:1],,1,,2>5[4:1],2,
{4},6,1/8,2/7,
{4}2>5[8:1]/5,7,1<6[8:1]/5,4,
{8}2<7[8:1],,4,4,,2/5,2/5,,
{12}3b/8b,,,,,1b/6b,,,,1b/8b,,,
{8}1b/2h[4:3],,7b,,5b,,3b-7[4:1],3b,
{8},2,2,,1/8,1/8,,5/6h[8:3],
{8},8,8,,1/2,1/2,,3h[8:3]/4,
{8},1,1,,7/8,7<4[16:3]/8,,2h[8:3],
{8},,3,,4/5,4/5-8[4:1],,2/5,
{8},1,1-4[8:1],,7,7,,2-5[8:1]/5,
{8},8,8-5[8:1],,3,3,,4/7-4[8:1],
{8},1,1-4[8:1],,6,6<8[16:3],,3h[8:3],
{8},,4,,1/2,1<5[4:1]/2,,3,
{8},2,2,,3,3,,4-1[8:1]/7,
{8},6,6-1[8:1],,3,3,,2/5-8[8:1],
{8},3,3-8[8:1],,6,6,,4/7,
{8},1,8,1,2b/7b,2b/7b,,5h[4:1]/6,
{8},7V51[4:1],7,,2,2,,3/4h[4:1],
{8},2V48[4:1],2,,7,7,,5h[4:1]/6,
{8},7V51[4:1],7,,2,2,,3/4h[4:1],
{8},2V48[4:1],2,,7,7,,4h[4:1]/5,
{8},6V48[4:1],6,,1,1,,7-3[8:1]*-4[8:1],
{8},7,,2-5[8:1]*-6[8:1],,2,,,
{8}5/7,,,2/4,,,1b/5b<2[2:5],,
{1},
{1},
{1},
{1},
{1},
E
