&title=人生リセットボタン
&wholebpm=200
&artist=kemu
&des=ぴちネコ
&shortid=682
&genre=niconicoボーカロイド
&cabinet=SD
&version=maimai MiLK
&chartconverter=Neskol
&lv_2=6
&des_2=-
&lv_3=8+
&des_3=-
&lv_4=11+
&des_4=サファ太
&lv_5=13+
&des_5=ぴちネコ
&des_6=
&inote_2=
(200){1},
{1},
{1},
{1},
{1},
{1},
{1},
{1},
{1},
{2}1,1,
{2}2,2,
{2}3,3,
{4}4,5,4,,
{2}5,5,
{2}6,6,
{2}7,7,
{4}8,1,8,,
{1}1h[1:1],
{1},
{1}8h[1:1],
{1},
{1}7h[1:1],
{1},
{1}6h[1:1],
{1},
{2}5,5,
{4}4,4,4,,
{2}3,3,
{4}2,2,2,,
{2}1,1,
{4}8,8,8,,
{2}7,7,
{4}6,6,6,,
{1}5-8[4:3],
{1},
{1}4-1[4:3],
{1},
{1}5-2[4:3],
{1},
{1}4-7[4:3],
{1},
{4}8,8,8,,
{4}1,1,1,,
{4}2,2,2,,
{4}3,3,3/4,,
{4}4,4,4,,
{4}5,5,5,,
{4}6,6,6,,
{4}7,7,7/8,,
{4}1,1,1,,
{4}8,8,8,,
{4}7,7,7,,
{4}6,6,5/6,,
{4}5,5,5,,
{4}4,4,4,,
{1}4b/5b,
{1},
{1}2-6[4:3],
{1},
{1}7-3[4:3],
{1},
{1}2-5[4:3],
{1},
{1}7-4[4:3],
{1},
{4}1,1,1,,
{4}2,2,2,,
{4}3,3,3,,
{4}4/5,4/5,4/5,,
{4}5,5,5,,
{4}6,6,6,,
{4}7,7,7,,
{4}1/8,1/8,1/8,,
{4}7,7,7,,
{4}6,6,6,,
{4}5,5,5,,
{4}3/4,3/4,3/4,,
{4}2,2,2,,
{4}1,1,1,,
{4}8,8,1,1,
{4}2,2,1/2,,
{4}3,3,4,4,
{4}5,5,4/5,,
{4}6,6,7,7,
{4}8,8,1/8,,
{4}1/2,1/2,1/2,,
{4}7/8,7/8,7/8,,
{4}1,1,8,8,
{4}7,7,7/8,,
{4}6,6,5,5,
{4}4,4,4/5,,
{4}3,3,2,2,
{4}1,1,1/8,,
{1}1b/8b,
{1},
{4}2,2,2,,
{4}3,3,3,,
{4}4,4,4,,
{4}5,4,5,,
{4}6,6,6,,
{4}7,7,7,,
{4}8,8,8,,
{4}1,8,1,,
{1}7h[1:1]/8h[1:1],
{1},
{1}5h[1:1]/6h[1:1],
{1},
{1}3h[1:1]/4h[1:1],
{1},
{2}2,1,
{1}8-4[4:3],
{1},
{1},
{1},
E
&inote_3=
(200){1},
{1},
{1},
{1},
{1},
{1},
{1},
{1},
{1},
{4}2,2,3,3,
{4}4,4,4/5,,
{4}5,5,6,6,
{4}7,7,7/8,,
{4}7,7,6,6,
{4}5,5,4/5,,
{4}4,4,3,3,
{4}2,2,1/2,,
{4}3,3,4,,
{4}5,4,4/5,,
{4}6,6,5,,
{4}4,5,3/6,,
{4}2b,2,1/2,,
{4}7,7,7qq4[4:5]/8,,
{1},
{2},3/4,
{4}6,6,5,,
{4}4,5,4/5,,
{4}3,3,4,,
{4}5,4,3/6,,
{4}7,7,7/8,,
{4}2,2,1/2,,
{4}8,8,1,1,
{4}1/8,1/8,2/7,,
{2}3h[2:1],4,
{2}6h[2:1],5,
{2}3h[2:1],4,
{4}6,6,5/6,,
{2}2h[2:1],1,
{2}7h[2:1],8,
{2}1h[2:1],8,
{1}2/7,
{4}2b,2,1,1,
{4}8,7,1/6,,
{4}6,6,5,5,
{4}4,5,3/6,,
{4}6,6,5/7,,
{4}3,3,2/4,,
{4}6,5/6,3,3/4,
{4}4/5,4/5,3/6,,
{4}7b,7,8,8,
{4}1,2,3/8,,
{4}3,3,4,4,
{4}5,4,3/6,,
{4}3,3,2/4,,
{4}6,6,5/7,,
{2}1b,8b,
{4}1/8,1/8,2b/7b,,
{1}7qq4[4:5]/8pp3[4:5],
{1},
{1}1qq6[4:5]/2pp5[4:5],
{1},
{1}1pp4[4:5]/8qq5[4:5],
{1},
{1}4h[2:3]/5h[2:3],
{1},
{4}7b,7,8,8,
{4}1,2,3/8,,
{4}3,3,4,4,
{4}5,4,3/6,,
{4}3,3,2/4,,
{4}6,6,5/7,,
{4}3,3/4,6,5/6,
{4}4/5,4/5,3/6,,
{4}2b,2,1,1,
{4}8,7,1/6,,
{4}6,6,5,5,
{4}4,5,3/6,,
{4}5/6,5/6,5/6,,
{4}3/4,3/4,3/4,,
{4}5b,6,7,8,
{4}1,2,3,4,
{4}5,6,7,8,
{4}1/2,1/2,3/8,,
{4}6,6,7/8,,
{4}3,3,1/2,,
{4}7,7/8,2,1/2,
{4}1/8,1/8,2/7,,
{4}4b,3,2,1,
{4}8,7,1/6,,
{4}8,7,6,5,
{4}4,5,3/6,,
{4}6,6,7/8,,
{4}3,3,1/2,,
{2}7/8,1/2,
{4}1/8,1/8,2/7,,
{4}7,7,6,6,
{4}5,5,3/4,,
{4}4,4,3,3,
{4}2,2,1/8,,
{4}2,2,3,3,
{4}4,4,5/6,,
{4}5,5,6,6,
{4}7,7,1/8,,
{4}8,8,7,7,
{4}6,6,4/5,4/5,
{4}4,4,3,3,
{4}2,2,1/8,,
{4}1,1,2,2,
{4}3,3,4/5,4/5,
{4}5,5,6,6,
{8}7,,7,,1/8,,1/8,1/8,
{1},
{1},
{1},
E
&inote_4=
(200){1},
{1}4V28[4:5]*V68[4:5],
{1},
{1}1V75[4:5]*V35[4:5],
{1},
{1}6h[4:11],
{1},
{1}3h[4:3],
{4}4/5,4/5,4/5,,
{4}6,5/6,3,3/4,
{8}2,1,2,,3/8,,2/7,,
{4}3,2/4,6,5/7,
{4}3/4,2/5,1/6,7/8,
{4}2,1/2,7,7/8,
{8}6,5,6,,4/7,,3/6,,
{4}7,6/8,2,1/3,
{8}2/7,,2/7,,4,5,4/5,,
{4}3h[2:3],4,5,5,
{4}6,5,4,2/5,
{4}6h[2:3],5,4,4,
{4}3,4,5,4/7,
{4}3h[2:1]/6,5,4,2/5,
{4}3/6h[2:1],4,5,4/7qq4[4:3],
{1},
{8}3,3,5,5,4/5,,3/6,,
{4}2h[4:1]/5,4,4/7h[4:1],5,
{4}2h[4:1]/6,4,3/7h[4:1],5,
{4}2h[4:1]/4,3,5/7h[4:1],6,
{4}7/8,1/8,1/2,3/8,
{4}2/7,3/4,2/7,5/6,
{8}7,8,7,,1/6,,2/7,,
{4}3,4/5,6,4/5,
{8}3/6,,3/6,,4/5,4/5,4/5,4b>8[8:3]/5b,
{1},
{1}5h[2:1]/6<1[4:1],
{1}3>8[4:1]/4h[2:1],
{1}4h[2:1]/6<2[4:1],
{4}3,2/4,6,5/7,
{4}4/5,1/8,2/7,,
{8}1,1,6,6,3,3,8,8,
{1}1b,
{8}2h[8:3]/4,,1,1,,3/8,,1/6,
{8},7/8,7-4[8:1]/8-3[8:1],,,,,,
{4}5/6h[4:1],7,3h[4:1]/4,2,
{4}8-5[8:1],1-4[8:1],8,,
{8}1/6,,7,8,7,,1/6,,
{4}3/4,5/6,4/7,,
{8}3,3,2/4,,6,6,5/7,,
{4}2/4,5/7,1/8,,
{8}5/7h[8:3],,8,8,,1/6,,3/8,
{8},1/2,1-6[8:1]/2-5[8:1],,,,,,
{2}3-1[8:1]/7-5[8:1],2-4[8:1]/6-8[8:1],
{2}3-8[8:1]/7-4[8:1],1/5,
{8}6h[8:3]/8,,5,5,,4/7,,3h[8:3],
{8},4,4,,2/5,,,,
{1}1h[2:3],
{2},8b,
{1}3h[1:1],
{1}4h[1:1],
{1}5h[1:1],
{2}6,4/7,
{1}1pp4[4:5]/8qq5[4:5],
{1},
{1}3h[2:3]/6h[2:3],
{1},
{8}5/7h[8:3],,8,8,,1/6,,3/8,
{8},1/2,1<6[8:1]/2>5[8:1],,,,,,
{4}3h[4:1]/4,1,5/6h[4:1],8,
{4}1-5[8:1],8-4[8:1],2,,
{8}3/8,,2,1,2,,3/8,,
{4}5/6,3/4,2/5,,
{8}6,6,5/7,,3,3,2/4,,
{4}5/7,2/4,1/8,,
{8}2h[8:3]/4,,1,1,,3/8,,1/6,
{8},7/8,7<4[8:1]/8>3[8:1],,,,,,
{2}2-4[8:1]/6-8[8:1],3-1[8:1]/7-5[8:1],
{2}2-5[8:1]/6-1[8:1],4/8,
{8}5/7h[8:3],,8,8,,1/6,,2h[8:3],
{8},1,1,,3b/8b,,,,
{4}1/2h[4:1],4,5/6h[4:1],8,
{4}1/2h[4:1],4,5/6h[4:1],8,
{4}1/2,3/4,5/6,7/8,
{4}1/3,4/5,6b/8b,,
{8}2/5,,3,4,3,,2/5,,
{4}7/8,1/2,3/8,,
{8}7,8,1/6,,2,1,3/8,,
{4}6/7,2/3,1/8,,
{8}3h[8:3]/5,,1,1,,2/8,,4/6h[8:3],
{8},8,8,,1/7,,,,
{2}3b-8[8:1]/7b-4[8:1],2b-5[8:1]/6b-1[8:1],
{2}3b-8[8:1]/7b-4[8:1],1b/5b,
{8}3/4,3/4,2/5,,5/6,5/6,4/7,,
{8}4/5,4/5,3/6,3/6,2/7,2/7,1/8,1/8,
{1}1h[2:3]/8,
{2},8b,
{4}3,2/4,6,5/7,
{8}3,4,3,,2/5,,3/6,,
{4}7,1/8,2,1/8,
{4}2/7,3/6,4/5,3/6,
{4}7,6/8,2,1/3,
{8}7,8,7,,1/6,,2/7,,
{4}3,4/5,6,4/5,
{8}3/6,,2/7,,1,8,1/8,,
{4}2,1/2,7,7/8,
{8}6,5,6,,4/7,,3/6,,
{4}2/5,3,4/7,6,
{4}2/5,3,4/7,5/6,
{4}3,3/4,6,5/6,
{8}7,8,7,,1/6,,2/7,,
{4}3/8,2,1/6,7,
{8}3/8,,2/7,,4/5,4/5,4/5,4b/5b,
{1},
{1},
{1},
E
&inote_5=
(200){1},
{8}4h[4:1],,5h[4:1],,4h[4:1],,5,5,
{8}3,3,4,4,3,3,4,4,
{8},1,1-5[8:1],,8,,4/7,4/7,
{8},8,8-4[8:1],,1,,2/5,,
{8}8h[4:1],,1h[4:1],,8h[4:1],,1,1,
{8}7,7,8,8,7,7,8,8,
{8},5,5-1[8:1],,4,,3/8,3/8,
{16},,4,,4-8[8:1],,,,5,,,,6,2,7,1,
{16}8b,,,,1/3,,,,4/7,,6,5,6,,3,,
{8}8h[4:1],1,2h[4:1],7,6h[4:1],3,4,5/7,
{8},3-5[8:1],1,3,7-4[8:1],8,7,2-5[8:1],
{8}1,2,8-4[8:1],3,8,1-5[8:1],6,1,
{16}7,,,,6/8,,,,2/5,,3,4,3,,6,,
{8}1h[4:1],8,7h[4:1],2,3h[4:1],6,5,2/4,
{8},6-4[8:1],8,6,2-5[8:1],1,2,7-4[8:1],
{8}8,7,1-5[8:1],6,1,8,8,8,
{8}4/8-6[8:1],,,5,5-1[8:1],,,8,
{8}8-4[8:1],,,3,3-1[8:1],,,7,
{8}7<4[8:1],,,3,3>8[8:1],,,6,
{8}6h[8:3],5,4,3h[4:1],,1-4[8:1],2,1,
{8},8-4[8:1],7,8,,7-4[8:1],5,7,
{8},3,2,1/6,,3/8,,5h[4:1],
{8},4h[4:1],5,6h[4:1],3,2h[4:1],7,8h[8:5],
{16}2,,1,,1,,1,,1,,2,7,2,7,2,7,
{8}1-5[8:1],,8,7,4-2[8:1]/6,,6,7,
{8}1/8-4[8:1],,1,2,3/5-7[8:1],,3,2,
{8}1-5[8:1]/8,,8,7,4-2[8:1]/6,,6,7,
{8}1/8,2,3,4,4-2[8:1]/8-6[8:1],,4/8-4[8:1],,
{16}8b,,,,1,,,,4/7,,6,5,6,,3,,
{8}8h[4:1],1,2h[4:1],7,6h[4:1],3,4,5/7,
{8},3,2,1/8,7,6,4/5,3,
{8}2,1/8,7,6,2/5,3/7,1/6,7qq5[8:1]/8pp2[8:1],
{2},1qq7[8:1]/2pp4[8:1],
{16}3/8,,,,2/5,,3,3,4,,2>5[8:1]/5<8[8:1],,,,2/5,,
{8},,3/7,,1,8,1-3[8:1],,
{8}1/8-4[8:1],,7-5[8:1]/8,,7,,1,2/8,
{16},,3/7,,3/7,,,,1/6,,7,7,8,,,,
{8}4/7,6,2/5,3,4/7,4>1[8:1]/7<4[8:1],,4/7,
{16},,,,6,3,6,3,7,2,7,2,8z4[16:3],1,8,1,
{8}8b,,,,1h[8:1],8h[8:1],1h[8:1],8h[8:1],
{8}1,,3/8,1-5[8:1]/2-4[8:1],,1/2,,8,
{8},1/6,7-5[8:1]/8-4[8:1],,7/8,,1b,,
{8}5h[4:1],,6h[4:1],,7,7,8-4[8:1],,
{8}8-5[8:1]*-6[8:1],,8-2[8:1]*-3[8:1],,8b,,,4,
{8}3>8[8:1]/7,,4,5,6<1[8:1],,5,4,
{8}3q8[8:1],,7q4[8:1],,3,,1,1,
{16}7-4[8:1],8,7,8,7b,,,,2-5[8:1],1,2,1,2b,,,,
{8}1-6[8:1]/8-5[8:1],,1b-4[8:1]/8b-3[8:1],,1b/8b,,7,2,
{8}4-8[8:1]/8,,6,6<1[8:1],,3-7[8:1],,5,
{8},1/5,1V35[16:3]/5V71[16:3],,1/5,,,4/8,
{8}4/8-4[8:1],,2,2>5[8:1],,7-3[8:1],,4qq1[8:3],
{8},5,6,7,8,,5,4,
{8}3b/6b,,1/6,7-4[8:1]/8-5[8:1],,7/8,,1,
{16},,3/8,,1-4[8:1]/2-5[8:1],,,,1/2,,,,1,8,1,8,
{8}2h[4:3],,,6,6h[4:1],,,2/6,
{16}2v4[8:1]/6v8[8:1],,,,,,,,3b/7b,,2,1,2,,7,8,
{8}7-3[2:1],,8,8,,1,,2,
{8},8,8h[4:1],,1,,,,
{8}2-6[2:1],,7,,8,8,1,,
{8}1/5,,4/8,,3/7h[2:1],,,5,
{8}5>3[8:1],,,1,1<7[8:1],,,,
{4}2/6,3/5,4w8[4:1],,
{1},
{1},
{8}2b/6b,,4/7,5-1[8:1]/6-8[8:1],,5/6,,4,
{8},2/5,3-1[8:1]/4-8[8:1],,3/4,,5b,,
{8}1h[4:1],,2h[4:1],,3,3,4-8[8:1],,
{8}4-1[8:1]*-2[8:1],,4-6[8:1]*-7[8:1],,4b,,,8,
{8}3/7<4[8:1],,8,1,2>5[8:1],,1,8,
{8}7q4[8:1],,3q8[8:1],,7,,5,5,
{16}3-8[8:1],4,3,4,3b,,,,6-1[8:1],5,6,5,6b,,,,
{8}4-1[8:1]/5-2[8:1],,4b-7[8:1]/5b-8[8:1],,4b/5b,,3,6,
{8}4/8-4[8:1],,2,2>5[8:1],,7-3[8:1],,1,
{8},1/5,1V35[16:3]/5V71[16:3],,1/5,,,4/8,
{8}4-8[8:1]/8,,6,6<1[8:1],,3-7[8:1],,8qq5[8:3],
{8},1,2,3,4,,1,8,
{8}2b/7b,,2/5,3-8[8:1]/4-1[8:1],,3/4,,5/6,
{16},,8,1,7,2,7,2,6,3,6,3,5,4,5,4,
{8}6b-2[8:1],,6/7,,5b-1[8:1],5,,3b-7[8:1],
{8},3/4,,1b-5[8:1],,2b-6[8:1],2,,
{8}4b-8[8:1],,4/5,,7b-3[8:1],1,7,1,
{8}1b-5[8:1],,1b<5[16:3]*>5[16:3],,1,,,4,
{8}3>8[8:1]/7,,4,5,6<1[8:1],,5,4,
{16}3q8[8:1],,,,7q4[8:1],,,,3,,,,1,8,1,8,
{16}2-5[8:1],1,2,1,2b,,,,7-4[8:1],8,7,8,7b,,,,
{8}2,1b/3b,6b-1[8:1]/8b-3[8:1],,6b/8b,,2,7,
{8}3-7[8:1],,5,5<8[8:1],,2-6[8:1],,4,
{8},4/8,4V68[16:3]/8V24[16:3],,4/8,,,3/7,
{8}3/7-3[8:1],,1,1>4[8:1],,6-2[8:1],,3qq8[8:3],
{16},,4,,5,,6,,7,,,,5,4,5,4,
{8}5b,,1/6,7-4[8:1]/8-5[8:1],,7/8,,1/2,
{16},,3,4,2,5,2,5,3,7,3,7,1pp4[2:1],5pp8[16:7],1,5,
{1}1b,
{16},,,,3/7,,,,1b/5b,,7,8,6,,3,4,
{16}2,,,,4/7,,,,1/6,,2,3,4/8,,7,,
{8}6h[4:1],5,4h[4:1],7,8h[4:1],3,2,1/7,
{8},3-7[8:1],4,3,6-2[8:1],5,6,4-8[8:1],
{8}7,4,5-1[8:1],2,5,4,3,2,
{16}1/6,,,,2/5,,,,3/8,,7,6,1/5,,2,,
{8}3h[4:1],4,5h[4:1],2,1h[4:1],6,7,2/8,
{8},7-3[8:1],8,7,2-6[8:1],1,2,8-4[8:1],
{16}3,,8,,1-5[8:1],,6,,1,,7,,8,1,8,1,
{4}8b-6[8:1],3/8-4[8:1],2/8-5[8:1],1/8,
{8}2,2h[4:1],4,4h[4:1],1,1h[4:1],5,5h[4:1],
{8},8-4[8:1],6,8,7-3[8:1],5,7,2-6[8:1],
{8}4,2,1-5[8:1],3,1,4,3,2,
{4}1b-3[8:1]/5,1-5[8:1]/6,1-4[8:1]/7,1/8,
{8}7,7h[4:1],5,5h[4:1],8,8h[4:1],4,4h[4:1],
{8},1-5[8:1],3,1,2-6[8:1],4,2,7-3[8:1],
{8}5,7,8,6,3/7,2-5[8:1]/6-1[8:1],3/7,2b/6b,
{1},
{1},
{1},
E
