&title=フリィダム ロリィタ
&wholebpm=150
&artist=ねじ式
&des=玉子豆腐
&shortid=707
&genre=niconicoボーカロイド
&cabinet=SD
&version=maimai MiLK
&chartconverter=Neskol
&lv_2=5
&des_2=-
&lv_3=7
&des_3=-
&lv_4=10
&des_4=LabiLabi
&lv_5=12+
&des_5=玉子豆腐
&des_6=
&inote_2=
(150){1},
{1},
{1}1h[1:1],
{1},
{1}8h[1:1],
{1},
{2}1,1,
{2}2,2,
{2}3,3,
{4}4,4,4/5,,
{2}5,5,
{2}6,6,
{2}7/8,7b/8b,
{2}8,8,
{4}8,8,8,,
{2}7,7,
{4}7,7,7,,
{2}6,6,
{4}6,6,6,,
{2}5/6,3/4,
{1}4h[2:1]/5h[2:1],
{2}4,4,
{4}4,4,4,,
{2}3,3,
{4}3,3,3,,
{2}2,2,
{4}2,2,2,,
{2}1/2,7/8,
{1}1h[2:1]/8h[2:1],
{1}2-5[4:3],
{1},
{1}7-4[4:3],
{1},
{1}1-5[4:3],
{1},
{1}8-4[4:3],
{1},
{2}3/4,5/6,
{4}4,5,4,,
{4}5,5,6,6,
{4}7/8,7/8,7/8,,
{2}1/2,7/8,
{4}1,8,1,,
{4}8,8,7,7,
{1}5h[2:1]/6h[2:1],
{2}5/6,3/4,
{4}5,4,5,,
{4}4,4,3,3,
{4}1/2,1/2,1/2,,
{2}7/8,1/2,
{4}8,1,8,,
{4}1,1,2,2,
{1}3h[2:1]/4h[2:1],
{2}5,5,
{2}6,6,
{2}7,7,
{4}8,1,8,,
{2}1,1,
{2}2,2,
{2}3,3,
{1}4/5,
{1}4/5,
{2}4,5,
{1}4b/5b,
{2}5/6,3/4,
{4}5,4,5,,
{4}4,4,3,3,
{1}1h[2:1]/2h[2:1],
{2}7/8,1/2,
{4}8,1,8,,
{4}1,1,2,2,
{4}3/4,3/4,3b/4b,,
{2}5/6,3/4,
{4}5,4,5,,
{4}4,4,5,5,
{1}4h[2:1],
{4}5,5,4,4,
{1}4/5,
{4}4,4,4,,
{4}3,3,3,,
{4}2,2,2,,
{4}1,8,1,,
{4}8,8,8,,
{4}7,7,7,,
{4}6,6,6-3[4:3],,
{1},
{1},
{1},
E
&inote_3=
(150){1},
{1},
{1}1-4[2:1],
{1}5-8[2:1],
{1}2q7[2:1],
{4}8,1,2/7,,
{4}2,3,4/5,,
{4}7,6,4/5,,
{4}5,6,7,8s4[4:3],
{1},
{4}3,2,1/8,,
{4}6,7,1/8,,
{1}6-3[2:1],
{4}1,2,3/8,,
{4}8,7,1/6,,
{4}4,3,2/5,,
{4}5,6,4/7,,
{4}3,3,4,4,
{4}5,5,6,6,
{2}5/6,3/4,
{1}1-4[2:1]/8-5[2:1],
{4}5,6,4/7,4/7,
{4}4,3,2/5,,
{4}8,7,1/6,1/6,
{4}1,2,3/8,,
{4}6,6,5,5,
{4}4,4,3,3,
{2}7/8,1/2,
{1}8p4[2:1],
{4}3h[2:1],,4,3/4,
{4}6h[2:1],,5,5/6,
{4}4h[4:1]/5h[4:1],,3/6,2/7,
{4}1b/2b,1b/2b,7b/8b,,
{4}6h[2:1],,5,5/6,
{4}3h[2:1],,4,3/4,
{2}2/5,4/7,
{1}2-6[2:1]/7-3[2:1],
{4}2,1/2,7,7/8,
{4}1/8,1/8,2/7,,
{4}2,1/2,7,7/8,
{4}7b/8b,1b/2b,7b/8b,,
{4}3,3/4,6,5/6,
{4}3,6,4/5,4/5,
{1}4-1[2:1]/5-8[2:1],
{1}1q5[2:1],
{4}7,7/8,2,1/2,
{4}1/8,1/8,2/7,,
{4}7,7/8,2,1/2,
{4}1b/2b,7b/8b,1b/2b,,
{4}6,5/6,3,3/4,
{4}6,3,4/5,4/5,
{1}4>1[2:1]/5<8[2:1],
{1}8p4[2:1],
{4}3,2/4,1/5,,
{4}6,5/7,4/8,,
{4}1,2,3,4s8[4:3],
{1},
{4}7,6/8,1/5,,
{4}2,1/3,4/8,,
{1}2<7[2:1],
{1}1h[4:3]/7h[4:3],
{1}2h[4:3]/8h[4:3],
{4}2/8,2/8,1/7,1/7,
{1}7>3[2:1],
{4}3/4,2/5,5/6,4/7,
{4}6,3,2/7,2/7,
{1}1-5[2:1]/8-4[2:1],
{1}4-1[2:1]/5-8[2:1],
{4}1/2,3/8,7/8,1/6,
{4}2,7,1/8,1/8,
{4}1/2,3/8,7/8,1/6,
{4}1b/6b,3b/8b,1b/6b,,
{4}3/4,2/5,5/6,4/7,
{4}6,5,5/6,5/6,
{1}5-2[2:1]/6-1[2:1],
{1}1<6[2:1]/2>5[2:1],
{2}7/8,1/2,
{1}1-4[2:1]/8-5[2:1],
{4}2,3,4/5,,
{4}7,6,4/5,,
{4}5,6,7,8s4[4:3],
{1},
{4}3,2,1/8,,
{4}6,7,1/8,,
{8}1/8,,,,,,,2/7,
{8},3/6,,4b/5b,,,,,
{1},
{1},
{1},
E
&inote_4=
(150){1},
{1},
{1}5h[4:1]/6h[4:1],
{4}4,4,5/7,,
{1}3h[4:1]/4h[4:1],
{4}5,5,2/4,,
{4}4,5/6,5,3/4,
{4}4,5/7,5,2/4,
{4}3,1/2,6,7/8,
{4}3,1/8,1-4[8:1]/8,,
{4}5,3/4,4,5/6,
{4}5,2/4,4,5/7,
{4}6,1>4[4:1]/8<5[4:1],,,
{4}4/6h[4:3],,5,5,
{4}3h[4:3]/5,,4,4,
{4}5/7h[4:3],,6,6,
{1}3>8[4:1]/4<7[4:1],
{4}3h[4:3]/5,,4,4,
{4}4/6h[4:3],,5,5,
{2}3h[4:1]/4h[4:1],5h[4:1]/6h[4:1],
{1}3>8[4:1]/4<7[4:1],
{1}1>4[4:1]/5h[2:3],
{4}3,3,1,,
{1}4h[2:3]/5<8[4:1],
{4}6,6,8,,
{1}1>4[4:1]/7<4[4:1],
{1}4v1[4:1]*v7[4:1],
{2}1h[4:1]/2h[4:1],7h[4:1]/8h[4:1],
{1}1<6[4:1]/2>5[4:1],
{1}3p7[4:1]/4h[2:1],
{1}5h[2:1]/6q2[4:1],
{1}7h[2:1]/8q4[4:1],
{4}4/5,7b/8b,1b/8b,1b/2b,
{1}7p3[4:1]/8h[2:1],
{1}1h[2:1]/2q6[4:1],
{1}3h[2:1]/4q8[4:1],
{4}1h[2:1]/8h[2:1],,,2b/7b,
{2}2-7[8:1]/5,1/6-3[8:1],
{4}1/2,3/4<7[4:1],,,
{2}4/7-2[8:1],3-6[8:1]/8,
{4}5/7,3/4,2b/7b,,
{2}3-6[8:1]/8,4/7-2[8:1],
{4}3/4,1<6[4:1]/2,,,
{4}5/6,7/8,1/2,3/4,
{8}4h[2:1]/5h[2:1],,,,,3/6,3/6,,
{2}4/7-2[8:1],3-6[8:1]/8,
{4}7/8,5>2[4:1]/6,,,
{2}2-7[8:1]/5,1/6-3[8:1],
{4}2/4,5/6,2b/7b,,
{2}1/6-3[8:1],2-7[8:1]/5,
{4}5/6,7/8>3[4:1],,,
{4}3/4,1/2,7/8,5/6,
{8}4h[2:1]/5h[2:1],,,,,2/7,2/7,,
{8}3,,5,,7,8,7,,
{8}6,,4,,2,1,2,,
{8}4,,6,,1,8,1,,
{4}3>6[4:1]/6,,,2/7,
{8}6,,4,,2,1,2,,
{8}3,,5,,7,8,7,,
{8}5,,3,,1/8,1/8,,,
{1}3h[4:3]/6h[4:3],
{8}4/5,,,,,7/8,7/8,,
{2}2h[4:1]/7h[4:1],3h[4:1]/6h[4:1],
{4}4h[2:1]/5h[2:1],,,1b/8b,
{2}2/6>3[8:1],2<7[8:1]/6,
{4}3/4,1<6[4:1]/2p5[4:1],,,
{4}4/5,2/4,1/8,5/7,
{8}1<6[4:1]*>4[4:1],,,,,2/7,2/7,,
{2}3<6[8:1]/7,3/7>2[8:1],
{4}5/6,7q4[4:1]/8>3[4:1],,,
{2}2/6>3[8:1],2<7[8:1]/6,
{4}5/6,3/4,2b/7b,,
{2}2<7[8:1]/6,2/6>3[8:1],
{4}4/5,3q8[4:1]/6p1[4:1],,,
{4}4/5,6/7,1/8,2/3,
{4}4/5,2p5[4:1]/7q4[4:1],,,
{2}3/8,1/6,
{4}4/5,,,2/7,
{4}4h[4:1]/5,3,4/5h[4:1],6,
{4}3h[4:1]/4,2,5/6h[4:1],7,
{4}1/2h[4:1],3,7h[4:1]/8,6,
{4}1/5,3/7,1/5,3/7,
{4}5/6h[4:1],7,3h[4:1]/4,2,
{4}7h[4:1]/8,6,1/2h[4:1],3,
{8}4>1[4:1]/8<5[4:1],,,,,,,2b/7b,
{8},4b/5b,,1b/8b,,,,,
{1},
{1},
{1},
E
&inote_5=
(150){1},
{1},
{2}3<6[4:1],8qq8[16:5],
{1}4w8[8:3],
{2}2p6[8:1]/6-3[8:1],2>5[8:1]/6<1[8:1],
{2}2>5[8:1]/6<1[8:1],3b/7b,
{16}2h[16:3],,,3h[16:3],,,4,,,,2/5<7[8:1],,,,8,,
{8},7/8>2[8:1],,3,,4,5,6,
{16}7h[16:3],,,8h[16:3],,,1,,,,2>4[8:1]/7,,,,5,,
{8},4/5<7[8:1],,8,,1,2,3,
{16}4h[16:3],,,5h[16:3],,,6,,,,4/7>1[8:1],,,,2,,
{8},1/2>4[8:1],,5,,6,7,8,
{16}1h[16:3],,,2h[16:3],,,3,,4,,3/4,,,,,,
{8}5,,3/4,,6,5,4/7h[4:5],,
{2}6v8[8:1],8v6[8:1],
{8}6,,7/8,,2,1,3/8,,
{2}1>4[8:1]/4,1>4[8:1]/4,
{8}1h[4:1],,2,,4,3,2/5,,
{8}5h[4:1],,6,,8,7,1/6,,
{2}5-3[12:1]/6,5-2[8:1]/6,
{1}5q8[16:9]*qq1[16:9]/6,
{8}4,,5/6,,3,4,2/5,,
{4}2/3,2/4,2/3,2/4,
{8}3,,1/2,,7,8,1/6h[1:1],,
{4}7,5,7,5,
{4}6>2[4:1],2<6[4:1],6,2,
{4}2-7[8:1],6,6-3[8:1],2,
{2}1v4[8:1]/8v5[8:1],1-4[8:1]/8-5[8:1],
{4}1>4[8:1]/8<5[8:1],,3/6,1/8,
{16}4h[16:3],,,5h[16:3],,,6,,5h[16:3],,,6h[16:3],,,7,,
{16}6h[16:3],,,7h[16:3],,,8,,8>3[8:1],,,,,,,,
{16}4h[16:3],,,3h[16:3],,,2,,3h[16:3],,,2h[16:3],,,1,,
{2}1w5[8:1],2-6[8:1]/8-4[8:1],
{16}5h[16:3],,,4h[16:3],,,3,,4h[16:3],,,3h[16:3],,,2,,
{16}3h[16:3],,,2h[16:3],,,1,,1<6[8:1],,,,,,,,
{16}3h[16:3],,,4h[16:3],,,2,,2/6h[16:3],,,5h[16:3],,,7,,
{8}4/7,3,2/5,6,3/7,,,,
{16}1/2>5[8:1],,,6,,,8,,1/2>5[8:1],,,6,,,8,,
{8}1/2,3,4/5,3,1-5[8:1]/2>5[8:1],,,,
{16}7<4[8:1]/8,,,3,,,2,,1/2>5[8:1],,,6,,,7,,
{8}4/7,6,2/5,3,4-1[8:1]/7,,,,
{16}7<4[8:1]/8,,,3,,,1,,7<4[8:1]/8,,,3,,,1,,
{8}7/8,6,4/5,6,7/8,,6/8-3[8:1],1,
{8}2/8,,6/8-4[8:1],1,2/8,,6/8-5[8:1],1,
{8}2/8>4[16:3],,,,5,5/6,4/7,,
{16}7<4[8:1]/8,,,3,,,1,,7<4[8:1]/8,,,3,,,1,,
{8}7/8,6,4/5,6,7<4[8:1]/8-4[8:1],,,,
{16}1/2>5[8:1],,,6,,,7,,7<4[8:1]/8,,,3,,,2,,
{8}2/5,3,4/7,6,2/5,,,,
{16}1/2>5[8:1],,,6,,,8,,1/2>5[8:1],,,6,,,8,,
{8}1/2,3,4/5,3,1/2,,1-6[8:1]/3,8,
{8}1/7,,1-5[8:1]/3,8,1/7,,1-4[8:1]/3,8,
{8}1<5[16:3]/7,,,,2,1b/8b,2b/7b,,
{16}3h[16:3],,,4h[16:3],,,5,,,,3/6<1[8:1],,,,2,,
{8},1/2>5[8:1],,6,,8,7,6,
{16}6h[16:3],,,5h[16:3],,,4,,,,3>8[8:1]/6,,,,7,,
{8},7<4[8:1]/8,,3,,1,2,3,
{16}3h[16:3],,,4h[16:3],,,5,,,,3/6<1[8:1],,,,2,,
{8},1/2>5[8:1],,6,,8,7,6,
{16}6h[16:3],,,5h[16:3],,,4,,3,,3/4,,,,,,
{16}1/8,,,,,,,,2/5,,3,4,,4,3,,
{8}2/5,,,,,5/6,4/7,,
{4}6/7,1/8,2/3,4/5,
{16}3/6,,,,,,,,4,5,4,5,3/6,,,,
{16}7<4[8:1]/8,,,3,,,1,,7<4[8:1]/8,,,3,,,1,,
{8}7/8,6,4/5,6,7/8,,6/8>3[8:1],1,
{8}2/8,,6/8q4[8:1],1,2/8,,6/8v5[8:1],1,
{8}2/8>4[16:3],,,,5,5/6,4/7,,
{16}7V51[8:1]/8,,,4,,,2,,7V51[8:1]/8,,,4,,,2,,
{8}6/8,5,2/4,5,6-3[8:1]/8>3[8:1],,,,
{16}1/2V48[8:1],,,5,,,7,,7V51[8:1]/8,,,4,,,2,,
{8}2/5,3,4/8,7,2/6,,,,
{16}1/2V48[8:1],,,5,,,7,,1/2V48[8:1],,,5,,,7,,
{8}1/3,4,5/7,4,1/3,,1<6[8:1]/3,8,
{8}1/7,,1p5[8:1]/3,8,1/7,,1v4[8:1]/3,8,
{4}1<5[4:1]/7,,,6/8v5[8:1],
{4}2/8,6/8q4[8:1],2/8,6/8-2[8:1],
{1}2/8<3[16:9],
{16}4h[16:3],,,5h[16:3],,,6,,,,4/7>2[8:1],,,,3,,
{8},3<6[8:1]/4,,7,,8,7,6,
{16}5h[16:3],,,4h[16:3],,,3,,,,2<7[8:1]/5,,,,6,,
{8},5/6>3[8:1],,2,,1,2,3,
{16}4h[16:3],,,5h[16:3],,,6,,,,4/7>2[8:1],,,,3,,
{8},3<6[8:1]/4,,7,,8,7,6,
{16}5h[16:3],,,4h[16:3],,,3,,2,,2-6[8:1],,,,2b/8b-3[8:1],,
{8},1b>6[4:1]/8b,,1b/6b,,,,,
{1},
{1},
{1},
E
