&title=ナンセンス文学
&wholebpm=154
&artist=Eve
&des=はっぴー
&shortid=720
&genre=niconicoボーカロイド
&cabinet=SD
&version=maimai MiLK
&chartconverter=Neskol
&lv_2=5
&des_2=-
&lv_3=7+
&des_3=-
&lv_4=11+
&des_4=サファ太
&lv_5=13+
&des_5=はっぴー
&des_6=
&inote_2=
(154){1},
{1},
{1},
{1},
{1},
{2}1,1,
{1}1,
{2}2,2,
{1}2,
{2}3,3,
{1}3,
{2}4,4,
{1}4/5,
{1}4/5,
{1}5h[1:1],
{1},
{1}6h[1:1],
{1},
{1}7h[1:1],
{1},
{1}8h[1:1],
{1},
{2}1,1,
{2}8,8,
{2}7,7,
{2}6,5/6,
{2}5,5,
{2}4,4,
{2}3,3,
{2}2,1/2,
{4}8,8,8,,
{4}1,1,1,,
{4}2,2,2,,
{4}3/4,3/4,3/4,,
{4}4,4,4,,
{4}5,5,5,,
{4}6,6,6,,
{1}7h[2:1]/8h[2:1],
{4}1,1,1,,
{4}8,8,8,,
{4}7,7,7,,
{4}5/6,5/6,5/6,,
{4}5,5,5,,
{4}4,4,4,,
{4}3,3,3,,
{1}1h[2:1]/2h[2:1],
{1}8-5[4:3],
{1},
{1}1-4[4:3],
{1},
{1}8-3[4:3],
{1},
{1}1-6[4:3],
{1},
{2}8,8,
{4}1,8,1,,
{2}2,2,
{4}3,4,3,,
{2}4,4,
{4}5,4,5,,
{2}6,6,
{4}7,8,7,,
{1}1/2,
{1}7/8,
{1}5/6,
{2}3/4,3/4,
{1}3/4,
{1}5/6,
{2}7/8,7/8,
{1}7/8,
{4}1b,1,1/8,,
{4}7,7,7/8,,
{4}6,6,5/6,,
{4}4/5,4/5,4/5,,
{4}3,3,3/4,,
{4}2,2,1/2,,
{4}8,8,1/8,,
{4}7/8,7/8,7/8,,
{4}8b,8,1/8,,
{4}2,2,1/2,,
{4}3,3,3/4,,
{4}4/5,4/5,4/5,,
{4}6,6,5/6,,
{4}7,7,7/8,,
{4}1,1,1/8,,
{4}1/2,1/2,1/2,,
{4}8,8,8,,
{4}7,7,7,,
{4}6,6,6,,
{1}4h[8:11]/5h[8:11],
{1},
{1},
{1},
E
&inote_3=
(154){1},
{1},
{1},
{1},
{1},
{4}3,3,4,,
{4}6,6,5,,
{4}3,4,5s1[8:7],,
{1},
{4}2,2,1,,
{4}7,7,8,,
{4}2,1,8z4[8:7],,
{1},
{1}3h[4:3],
{4}3,3,3/4,,
{4}6,6,5/6,,
{4}3,3,3/4,,
{4}5,5,4/5,,
{4}3,3,3/4,,
{4}6,6,5/6,,
{4}3,3,3/4,,
{4}6,5/6,3,3/4,
{4}2/5,,2h[4:1],1,
{4}1/2,,7h[4:1],8,
{4}7/8,,1,1/8,
{4}7h[4:1],8,2h[4:1],1,
{4}3/8,,3h[4:1],4,
{4}3/4,,6h[4:1],5,
{2}5/6,3/4,
{4}1/8,1/8,2/7,,
{4}2b,1/2,7,7/8,
{1}1<6[8:3]/2,
{4}6,5/6,3,3/4,
{4}2/3,2/3s7[8:5],,,
{4},,7h[4:1],8,
{4}2h[4:1],1,8,,
{4}8h[4:1],1,2h[4:1],1,
{4}7h[4:1],8,1,1,
{4}2b,1/2,7,7/8,
{1}1/2>5[8:3],
{4}6,5/6,3,3/4,
{4}2/3,2/3s7[8:5],,,
{4},,2,1/2,
{4}7,7/8,1,,
{4}1,1/8,7,7/8,
{4}1/2,7/8,1b/8b,,
{1}1/2q3[4:5],
{1},
{1}1/8-5[8:7],
{1},
{2}2,1-5[8:7]/8-5[8:7],
{1},
{1}1-5[8:7]/8-5[8:7],
{1},
{4}6,6,5/6,,
{4}3,3,3/4,,
{4}6,6,5/6,,
{4}4,4,4/5,,
{4}6,6,5/6,,
{4}3,3,3/4,,
{4}6,6,5/6,,
{4}3h[4:1],4,6h[4:1],5,
{4}4b/7b,,7h[4:1],8,
{4}7/8,,2h[4:1],1,
{4}1/2,,8,1/8,
{4}2h[4:1],1,7h[4:1],8,
{4}1/6,,6h[4:1],5,
{4}5/6,,3h[4:1],4,
{2}3/4,5/6,
{4}4/5,4/5,3/6,,
{4}2b,1/2,7,7/8,
{1}1<6[8:3]/2,
{4}6,5/6,3,3/4,
{4}2/3,2/3s7[8:5],,,
{4},,2h[4:1],1,
{4}7h[4:1],8,1/8,,
{4}1h[4:1],8,7h[4:1],8,
{4}2h[4:1],1,7/8,1/2,
{4}2b,1/2,7,7/8,
{1}1/2>5[8:3],
{4}6,5/6,3,3/4,
{4}2/3,2/3s7[8:5],,,
{4},,2,1/2,
{4}7,7/8,1/6,,
{4}2,1/2,7,7/8,
{4}1/2,7/8,2/7,,
{4}3,3,3/4,,
{4}6,6,5/6,,
{4}3,3/4,6,5qq2[2:3]/6pp1[2:3],
{1},
{1},
{1},
{1},
E
&inote_4=
(154){1},
{1},
{8}3h[8:3],,,4h[8:3],,,5h[8:3],,
{8},6<3[8:5],,,,,,,
{1},
{16}8-4[8:1],,,,,,,,3h[16:3],,,2h[16:3],,,1,,
{16}1-5[8:1],,,,,,,,6h[16:3],,,7h[16:3],,,8,,
{16}8-4[8:1],,,,,,,,3h[16:3],,,2h[16:3],,,1q4[8:5],,
{1},
{16}5-1[8:1],,,,,,,,2h[16:3],,,3h[16:3],,,4,,
{16}4-8[8:1],,,,,,,,7h[16:3],,,6h[16:3],,,5,,
{16}5-1[8:1],,,,,,,,2h[16:3],,,3h[16:3],,,4p1[2:1],,
{1},
{1}8p5[2:1],
{4}3,3/4,6,5/6,
{4}2,1/2,7,7/8,
{4}2,1/3,7,6/8,
{4}3,2/4,6,5/7,
{4}3h[2:1],4,4,2/5,
{4}6h[2:1],5,5,4/7,
{4}2,1/3,8,1-5[4:1]/7-3[4:1],
{4},,4,3/5,
{16}2/6,,,,1/8,,,,7h[16:3],,,6h[16:3],,,5,,
{16}5,,,,4/6,,,,2h[16:3],,,3h[16:3],,,4,,
{16}4,,,,3/5,,,,7h[16:3],,,6h[16:3],,,5,,
{4}5,3/4,5/6,2/4,
{16}5/7,,,,1/6,,,,3h[16:3],,,2h[16:3],,,1,,
{16}1,,,,2/8,,,,6h[16:3],,,7h[16:3],,,8,,
{4}8,3/4,1,5/6,
{2}1-4[8:1]/8-5[8:1],2b/7b,
{8}5h[4:1]/6,6,8,,3/4h[4:1],3,1,,
{4}5/6,2/8,3/4,1/7,
{4}4/6,2/8,3/5,1/7,
{8}2/3,2/3,2/3s7[8:3],,,,,,
{8}8,8,1h[4:1],,2-6[8:1],,,,
{8}1,1,8h[4:1],,7-3[8:1],,,,
{4}1<5[4:1]/2pp4[4:1],,,3/6,
{4}7qq5[4:1]/8>4[4:1],,,2/7,
{8}3h[4:1]/4,4,1,,5/6h[4:1],5,8,,
{4}3/4,1/7,5/6,2/8,
{4}3/5,1/7,4/6,2/8,
{8}2/3,2/3,2/3s7[8:3],,,,,,
{16}6h[16:3],,,5,,,4/7,,3h[16:3],,,4,,,2/5,,
{16}6h[16:3],,,5,,,4/7,,4/7,,,,2/6,,,,
{2}1-4[8:1]/5-8[8:1],4-1[8:1]/8-5[8:1],
{2}1>4[8:1]/5<8[8:1],2b/6b,
{16}3h[16:3],,,4,,,4/5,,6h[16:3],,,5,,,4/7p3[2:1],,
{1},
{16}2h[16:3],,,1,,,1/8,,7h[16:3],,,8,,,1/6q2[2:1],,
{1},
{16}3h[16:3],,,4,,,4/5,,6h[16:3],,,5,,,4/7,,
{16},,3/6,,3/6,,,,4,5,,,4,5,,,
{16}2h[16:3],,,1,,,1/8,,7h[16:3],,,8,,,1>6[16:7]/6,,
{4},,,7/8,
{4}1/2,1/2,1/2,1/2,
{4}1/2,1/2,1/2,1/2,
{4}7/8,7/8,7/8,7/8,
{4}4/5,4/5,4/5,4/5,
{4}3/6h[2:1],3,5,4/7,
{4}3h[2:1]/6,6,4,2/5h[4:3],
{4}6,6,6,7/8,
{1}1/6<3[2:1],
{16}1/8,,,,,,,,3h[16:3],,,2h[16:3],,,1,,
{16}1/8,,,,,,,,6h[16:3],,,7h[16:3],,,8,,
{16}1/8,,,,,,,,3h[16:3],,,2h[16:3],,,1,,
{4}1-5[8:1]/8,8-4[8:1],2-5[8:1],6,
{16}1/7,,,,,,,,7h[16:3],,,6h[16:3],,,5,,
{16}3/4,,,,,,,,2h[16:3],,,3h[16:3],,,4,,
{2}5-1[8:1]/6,3/4-8[8:1],
{2}5-2[8:1]*-8[8:1]/6,3b/7b,
{2}3/4<7[8:1],5>2[8:1]/6,
{2}3/4-8[8:1],5-1[8:1]/6,
{2}3-8[8:1]/4-8[8:1],5-1[8:1]/6-1[8:1],
{8}2/3,2/3,2/3s7[8:3],,,,,,
{8}8,1,2h[4:1],,3p5[8:1],,,,
{8}1,8,7h[4:1],,6q4[8:1],,,,
{4}2<5[4:1]/3pp5[4:1],,,3/6,
{4}6qq4[4:1]/7>4[4:1],,,2/7,
{2}3/4<7[8:1],5>2[8:1]/6,
{2}3/4-8[8:1],5-1[8:1]/6,
{2}3-1[8:1]/4-8[8:1],5-1[8:1]/6-8[8:1],
{8}2/3,2/3,2/3s7[8:3],,,,,,
{16}2h[16:3],,,1,,,3/8,,7h[16:3],,,8,,,1/6,,
{16}2h[16:3],,,1,,,3/8,,3/8,,,,2/6,,,,
{2}1>4[8:1]/5<8[8:1],4>1[8:1]/8<5[8:1],
{2}1q5[8:1]/5q1[8:1],3b/7b,
{16}8p4[8:1],,,,,,,,3h[16:3],,,2h[16:3],,,1,,
{16}1q5[8:1],,,,,,,,6h[16:3],,,7h[16:3],,,8,,
{16}8p4[8:1],,,,,,,,3h[16:3],,,2h[16:3],,,1,,
{24},,,1/8,,,,,5/7,,,,2/4,,,,1/8,,,,1/8,,,,
{6}2/4,5/7,1/8,,,,
{1},
{1},
{1},
E
&inote_5=
(154){1},
{8},,,,,4h[8:1]/5,5,,
{8}1/4,,,3/7,,,5/8,,
{24},,,4/7,,,3/6,,,2/5,,,1/4h[6:1],,,,5h[6:1],,,,8h[6:1],,,,
{1}1,
{16}5-2[8:1]/6,,6,,5/7,,7,,6h[16:3],,,5h[16:3],,,4,,
{16}3/4-7[8:1],,3,,2/4,,2,,3h[16:3],,,4h[16:3],,,5,,
{16}5-1[8:1]/6,,6,,5/7,,7,,6h[16:3],,,5h[16:3],,,4,,
{16}3/6,,2h[16:3],,,4h[16:3],,,5h[16:3],,,7h[16:3],,,2,,
{16}3/4-7[8:1],,3,,2/4,,2,,1h[16:3],,,4h[16:3],,,5,,
{16}5-2[8:1]/6,,6,,5/7,,7,,8h[16:3],,,5h[16:3],,,4,,
{16}3/4-8[8:1],,3,,2/4,,2,,1h[16:3],,,4h[16:3],,,5,,
{16}4/5,,2/7h[16:3],,,5h[16:3],,,4h[16:3],,,2h[16:19],,,7h[1:1],,
{1},
{8}4/5,,4/5,,4/5-7[8:1],,4/5,4,
{8}4/7,,4/7,,4/7-1[8:1],,4/7,4,
{8}1/4,,1/4,,1-3[8:1]/4,,1/4,4,
{4}3/4,3/4,3-5[8:1]/4,3/4,
{8}4/5,,4/5,,4-2[8:1]/5,,4/5,5,
{8}2/5,,2/5,,2-8[8:1]/5,,2/5,5,
{4}5/8,5/8,5/8-6[8:1],5-1[8:1]/8,
{4}4-8[8:1],6-1[8:1],3-8[8:1],5,
{16}2/7,,,,3/4,,6,5,7h[16:3],,,6h[16:3],,,5,,
{16}4/8,,,,5/6,,3,4,2h[16:3],,,3h[16:3],,,4,,
{16}1/5,,,,3/4,,6,5,7h[16:3],,,6h[16:3],,,5,,
{4}8w4[8:1],8,1w5[8:1],1,
{16}2/7,,,,5/6,,3,4,1h[16:3],,,3h[16:3],,,4,,
{16}4/7,,,,3/4,,6,5,8h[16:3],,,6h[16:3],,,5,,
{8}2-5[8:1]/5,6,7,8,1-6[8:1]/5,4,3,2,
{4}1-5[8:1]/8-4[8:1],1/8,2b/7b,,
{8}3<6[8:1]/7,2,1/3,7,2/6>3[8:1],7,6/8,1,
{8}2<7[8:1]/5,3,2/4,6,4/7>2[8:1],6,5/7,3,
{8}4,6,5/7,8,5,3,2/4,1,
{8}2/7,2z6[2:1]/8,1/2h[8:3],,,,2,2,
{8}1q5[8:1],8,1/6,7,8p4[8:1],1,3/8,2,
{8}1q5[8:1],8,1/7>2[8:1],6,3/7,,4,5,
{8}6,5-2[8:1]/6-1[8:1],4/7,,,4/7pp2[8:5],6,5,
{8}4,3,3,4,5,6,2/7,,
{8}2/6>3[8:1],7,6/8,1,3<6[8:1]/7,2,1/3,8,
{8}4/7>2[8:1],6,5/7,3,2<7[8:1]/5,3,2/4,6,
{8}5,3,2/4,1,4,6,5/7,8,
{8}2/7,2z6[2:1]/8,1/2h[8:3],,,,1-5[8:1],,
{16}1/5,,,8,8-4[8:1],,5,,8,,,2,2-6[8:1],,4,,
{16}2,,,7,7-3[8:1],,5,,7,,,,3/4q8[8:1],,2,,
{8}1,3,5p1[8:1]/6,7,8,6,3-6[8:1],5,
{4}3/7-2[8:1],5h[4:1]/7,8b,,
{16}1h[16:3],,,3h[16:3],,,4,,8h[16:3],,,6h[16:3],,,5,,
{16},,3/4,,2h[2:1]/5h[2:1],,,,,,,,,,4,3,
{16}8h[16:3],,,6h[16:3],,,5,,1h[16:3],,,3h[16:3],,,4,,
{16},,5/6,,4/7,,,,4,5,4,5,3,6,3,6,
{16}3h[16:3],,,1h[16:3],,,8,,6h[16:3],,,8h[16:3],,,1,,
{16},,4/5,,3/6,,,,4,3/5,,,5,4/6,,,
{16}5h[16:3],,,7h[16:3],,,8,,4h[16:3],,,2h[16:3],,,1,,
{8},4/6,3>8[8:1]/7<4[8:1],,,,1h[1:4]/5b,,
{8}5,3,4,2,3,2,3,2,
{8}4,2,3,2,3,2,3,2,
{8}4,2,3,2,3,2,3,2,
{8}4,2,3,2,3,2,5,6,
{8}4/8h[1:3],6,5,7,6,7,6,7,
{8}5,7,6,7,6,7,6,7,
{8}5,7,6,7,6,7,6,7,
{4}4-8[8:1],6-1[8:1],3-8[8:1],5,
{16}2b/7b,,,,,,3,4-8[8:1],2,,,3,,,1,,
{16}4/7,,,,,,6,5-1[8:1],7,,,6,,,8,,
{16}2/5,,,,,,3,4-8[8:1],2,,,3,,,1,,
{4}1w5[8:1],1,8w4[8:1],8,
{16}2/7,,,,,,6,5>2[8:1],8,,,6,,,7,,
{16}2/5,,,,,,3,4<7[8:1],1,,,3,,,2,,
{8}4/7-4[8:1],3,2,1,4/8-3[8:1],5,6,7,
{4}1-5[8:1]/8-4[8:1],1/8,2b/7b,,
{8}2/6>3[8:1],7,6/8,2,3<6[8:1]/7,2,1/3,8,
{8}4/7>2[8:1],6,5/7,3,2<7[8:1]/5,3,2/4,6,
{8}5,3,2/4,1,4,6,5/7,8,
{8}2/7,2z6[2:1]/8,1/2h[8:3],,,,2,2,
{8}5q1[8:1],4,2/5,4,4p8[8:1],5,4/7,6,
{8}5q1[8:1],4,3<6[8:1]/5,2,3/7,,5,4,
{8}3,3-8[8:1]/4-7[8:1],2/5,,,2qq7[8:5]/5,3,4,
{8}5,6,6,5,4,3,2/7,,
{8}3<6[8:1]/7,2,1/3,8,2/6>3[8:1],7,6/8,1,
{8}2<7[8:1]/5,3,2/4,6,4/7>2[8:1],6,5/7,3,
{8}4,6,5/7,8,5,3,2/4,1,
{8}2/7,2z6[2:1]/8,1/2h[8:3],,,,4-8[8:1],,
{16}4/7,,,6,5-1[8:1],,8,,5,,,2,3-8[8:1],,1,,
{16}3,,,7,6-1[8:1],,8,,6,,,,3/4q8[8:1],,2,,
{8}1,3,5p1[8:1]/6,7,8,7,6-3[8:1],4,
{4}2-7[8:1]/6,2/4h[4:1],1b,,
{16}5>2[8:1]/6,,8,,5/6,,7,,8h[16:3],,,5h[16:3],,,4,,
{16}3/4<7[8:1],,1,,3/4,,2,,1h[16:3],,,4h[16:3],,,5,,
{16}5>2[8:1]/6,,8,,5/6,,7,,8h[16:3],,,5h[16:3],,,4,,
{48}4/5,,,,,,2h[16:3]/7,,,,,,,,,4h[16:3],,,,,,,,,5,,,,,,,,5/7,,,,,,,,1/8,,,,,,,,
{6}5/7,2/4,4/8b,,,,
{1},
{1},
{1},
E
