&title=ドクハク
&wholebpm=208
&artist=MARETU
&des=はっぴー
&shortid=692
&genre=niconicoボーカロイド
&cabinet=SD
&version=maimai MiLK
&chartconverter=Neskol
&lv_2=5
&des_2=-
&lv_3=7
&des_3=-
&lv_4=10+
&des_4=小鳥遊さん
&lv_5=13
&des_5=はっぴー
&des_6=
&inote_2=
(208){1},
{4}8,8,8,,
{4}7,7,7,,
{4}6,6,6,,
{4}5,5,4/5,,
{4}4,4,4,,
{4}3,3,3,,
{4}2,2,2,,
{4}1,1,1/8,,
{4}8,8,8,,
{4}1,1,1,,
{4}2,2,2,,
{4}3,3,3/4,,
{4}4,4,4,,
{4}5,5,5,,
{4}6,6,6,,
{4}7,7,7/8,,
{1}8h[1:1],
{1},
{1}7h[1:1],
{1},
{1}6h[1:1],
{1},
{2}5,5,
{1}5,
{1}4h[1:1],
{1},
{1}3h[1:1],
{1},
{1}2h[1:1],
{1},
{2}1,1,
{1}1,
{1}8-5[4:7],
{1},
{1},
{1},
{1}1-4[4:7],
{1},
{1},
{1},
{2}1/8,1/8,
{1}1b/8b,
{2}2,2,
{2}3,3,
{2}4,4,
{1}4/5,
{2}6,6,
{2}7,7,
{2}8,8,
{1}1/8,
{2}2,2,
{2}1,1,
{2}8,8,
{1}1/8,
{2}7,7,
{2}6,6,
{2}5,5,
{1}4/5,
{1}4b/5b,
{1},
{4}2,2,2,,
{4}3,3,3,,
{4}4,4,4,,
{4}5,5,4/5,,
{4}6,6,6,,
{4}7,7,7,,
{4}8,8,8,,
{4}1,1,1/8,,
{1}2-6[4:7],
{1},
{1},
{1},
{1}7-3[4:7],
{1},
{1},
{1},
{2}1/8,1/8,
{1}1b/8b,
{4}8,8,8,,
{4}7,7,7,,
{4}6,6,6,,
{4}4/5,4/5,4/5,,
{4}4,4,4,,
{4}3,3,3,,
{4}2,2,2,,
{4}1/8,1/8,1/8,,
{4}1,1,1,,
{4}2,2,2,,
{4}3,3,3,,
{4}4/5,4/5,4/5,,
{4}5,5,5,,
{4}6,6,6,,
{4}7,7,7,,
{4}1/8,1/8,1/8,,
{2}1,1,
{2}8,8,
{2}7,7,
{1}7/8,
{1}5h[1:1]/6h[1:1],
{1},
{1}3h[1:1]/4h[1:1],
{1},
{2}6,6,
{2}5,5,
{2}4,4,
{1}4/5,
{1}3h[1:1]/4h[1:1],
{1},
{1}5h[1:1]/6h[1:1],
{1},
{1}4/5,
{1},
{1},
{1},
E
&inote_3=
(208){1},
{2}6,5/6,
{2}6,5/7,
{2}3,3/4,
{4}3,3,3,,
{2}2,1/2,
{2}2,1/3,
{2}7,7/8,
{4}7,7,7,,
{2}6h[2:1],5,
{2}4,4/5,
{2}3h[2:1],4,
{4}5,5,5,,
{2}6,5/6,
{4}6,6,6,,
{2}3,3/4,
{4}5,4,4/5,,
{2}6h[2:1],5,
{2}3h[2:1],4,
{2}6h[2:1],5,
{1}4h[2:1]/5h[2:1],
{2}3h[2:1],4,
{2}6h[2:1],5,
{2}3h[2:1],4,
{1}4h[2:1]/5h[2:1],
{1}7h[2:1]/8h[2:1],
{1}1h[2:1]/2h[2:1],
{1}1h[2:1]/8h[2:1],
{1}1/8,
{2}2h[2:1],1,
{2}7h[2:1],8,
{2}2h[2:1],1,
{1}3h[2:1]/8h[2:1],
{1}1-6[4:3]/2-5[4:3],
{2},4/7,
{1}7-4[4:3]/8-3[4:3],
{2},2/5,
{1}1-4[4:3]/8-5[4:3],
{2},3/6,
{2}5h[2:1],4h[2:1],
{2}5h[2:1],4,
{1}4bqq1[4:5]/5bpp8[4:5],
{1},
{2}3/4h[2:1],2h[2:1],
{2}1h[2:1],2>8[4:5],
{1},
{2},1/8,
{2}2h[2:1],1,
{2}7h[2:1],8,
{1}1-4[4:3]/8-5[4:3],
{2},3/6,
{2}5h[2:1]/6,7h[2:1],
{2}8h[2:1],7qq3[4:5],
{1},
{2},4/5,
{2}6h[2:1],5,
{2}3h[2:1],4,
{1}4z8[4:5]/5,
{1},
{1}1h[2:3],
{2},8b,
{2}6,5/7,
{4}6,6,5/6,,
{2}3,2/4,
{4}3,3,3/4,,
{2}7,6/8,
{4}7,7,7/8,,
{2}2,1/3,
{1}4h[2:1]/5h[2:1],
{1}5-2[4:3]/6-1[4:3],
{2},3/8,
{1}3-8[4:3]/4-7[4:3],
{2},1/6,
{1}4-1[4:3]/5-8[4:3],
{2},2/7,
{2}8h[2:1],1h[2:1],
{2}8h[2:1],1,
{1}1bpp4[4:5]/8bqq5[4:5],
{1},
{4}2,2,1/2,,
{4}3,4,2/5,,
{4}7,7,7/8,,
{4}6,5,4/7,,
{4}3,3,2/4,,
{4}6,6,5/7,,
{4}4/5,4/5,4>1[4:3]/5<8[4:3],,
{1},
{4}3,3,3/4,,
{4}2,1,3/8,,
{4}6,6,5/6,,
{4}7,8,1/6,,
{4}2,2,1/3,,
{4}7,7,6/8,,
{1}1/8z4[4:5],
{1},
{2}3h[2:1],4h[2:1],
{2}3,1/7,
{2}6h[2:1],5h[2:1],
{2}6,2/8,
{2}3h[2:1],4h[2:1],
{2}5h[2:1],6h[2:1],
{2}7h[2:1],8h[2:1],
{2}1h[2:1],8,
{2}7h[2:1],8h[2:1],
{2}7,2/5,
{2}2h[2:1],1h[2:1],
{2}2,4/7,
{2}2h[2:1],1h[2:1],
{2}8h[2:1],7h[2:1],
{2}6h[2:1],5h[2:1],
{2}4h[2:1],5,
{1}4/5,
{1},
{1},
{1},
E
&inote_4=
(208){1},
{8}3/4,,,,4/5h[8:3],,,6h[8:3],
{8},,7,,1/8,,,3h[8:3]/4,
{8},,2,,1/8,,,5/6h[8:3],
{4},7,8,8,
{8}5/6,,,,4h[8:3]/5,,,3h[8:3],
{8},,2,,1/8,,,5/6h[8:3],
{8},,7,,1/8,,,3h[8:3]/4,
{4},2,1,1,
{8}3h[2:1]/4,,,,4h[8:3],,,5h[8:3],
{8},,6,,4/7,,,5h[8:3]/6,
{8},,6,,4/7,,,7h[8:3]/8,
{4},8,1/6,1/6,
{8}5/6h[2:1],,,,5h[8:3],,,4h[8:3],
{8},,3,,2/5,,,3/4h[8:3],
{8},,3,,2/5,,,1-4[2:1]/8-5[2:1],
{1},
{4}6,6,5/6,6,
{4}3,3,3/4,3,
{4}6,6,5/6,6-3[8:3],
{1},
{4}3,3,3/4,3,
{4}6,6,5/6,6,
{4}3,3,3/4,3<6[8:3],
{1},
{4}7,7,5/6,7,
{4}2,2,3/4,2,
{4}7,7,5/6,7q4[2:1],
{1},
{4}2,2,3/4,2,
{4}7,7,5/6,7,
{1}7<2[4:3],
{1}1b-5[4:3],
{4}6h[1:1],,5,5,
{4}3h[1:1],,4,4,
{4}7h[1:1],,6,6,
{4}2h[1:1],,3,3,
{4}8h[1:1],,7,7,
{2}1h[2:1],2,
{1}1pp4[4:5]/8qq5[4:5],
{1},
{8}3/6,,3/6,,4,4,,5,
{4}5,3h[2:1]/6h[2:1],,,
{4}3/4,1,3/4,8,
{4}4/5,1,4/5,8,
{4}5/6,1,5/6,8,
{4}4/5,6,7,8,
{2}1h[4:1]/2h[4:1],7h[4:1]/8h[4:1],
{4}2/4,3,5/7,6,
{4}4/5,3,2,1-5[2:1]/8,
{4},,6,6,
{4}5/6,8,5/6,1,
{4}4/5,8,4/5,1,
{4}3/4,8,3/4,1,
{4}4/5,3,2,1,
{2}7h[4:1]/8h[4:1],1h[4:1]/2h[4:1],
{4}5/7,6,2/4,3,
{1}4qq1[4:5]/5pp8[4:5],
{1},
{1}2b/7b,
{1},
{4}3h[2:1],4,6h[2:1],5,
{4}2h[2:1],3,5h[2:1],4,
{4}1h[4:1],8h[4:1],7h[4:1],6h[4:1],
{4}4h[4:1],5,3/6,3/6,
{4}6h[2:1],5,3h[2:1],4,
{4}7h[4:1],1h[4:1],3h[4:1],5h[4:1],
{4}6h[2:1],8,3h[2:1],1,
{4}7h[2:1],8,2h[4:1],1,
{1}1b>4[4:3]/8b,
{1}8<5[4:3],
{1}2>5[4:3],
{1}7<4[4:3],
{1}1s5[4:3],
{1}8z4[4:3],
{1}1w5[4:5],
{1},
{8}3/6,,3/6,,5,5,,4,
{4}4,3h[2:1]/6h[2:1],,,
{4}5h[4:1]/6,8,5/6h[4:1],1,
{4}4h[4:1]/5,8,4/5h[4:1],1,
{4}3h[4:1]/4,8,3/4h[4:1],1,
{4}4/5,3,2,1,
{2}6h[4:1]/8h[4:1],1h[4:1]/3h[4:1],
{4}5/8,7,1/4,2,
{4}4/5,6,7,1/8-4[2:1],
{4},,3,3,
{4}3/4h[4:1],1,3h[4:1]/4,8,
{4}4/5h[4:1],1,4h[4:1]/5,8,
{4}5/6h[4:1],1,5h[4:1]/6,8,
{4}4/5,6,7,8,
{2}1h[4:1]/3h[4:1],6h[4:1]/8h[4:1],
{4}1/4,2,5/8,7,
{1}4qq1[4:5]/5pp8[4:5],
{1},
{1}2b>8[4:7]/7b<1[4:7],
{1},
{1},
{4},3,4,5,
{2}6h[2:1],5h[2:1],
{2}4h[2:1],3h[2:1],
{2}2h[2:1],3h[2:1],
{2}4h[2:1],5h[2:1],
{1}6>7[4:7],
{1},
{1},
{4},6,5,4,
{2}3h[2:1],4h[2:1],
{2}5h[2:1],6h[2:1],
{2}7h[2:1],6h[2:1],
{2}5h[2:1],4h[2:1],
{1}3b,
{1},
{1},
{1},
E
&inote_5=
(208){1},
{8}5/7,,4,,2/4,,5,4,
{8},4,5-1[8:1],,3,,3,4,
{8},4,2-5[8:1],,7,,7,8,
{8},8,6h[4:1],,8h[4:1],,1,,
{8}2/4,,5,,5/7,,4,5,
{8},5,4-8[8:1],,6,,6,5,
{8},5,7-4[8:1],,2,,2,1,
{8},1,3h[4:1],,1h[4:1],,8,,
{4}5-8[4:1]/6,6,6,5/6,
{4}4-1[4:1]/6,6,6,4/6,
{4}5-8[4:1]/6,6,6,5/6,
{4}4-1[4:1]/6,6,6,4/6,
{4}3,3/4,6,5/6,
{4}3,2/4,6,5/7,
{8}4/5,,2/7,,3/6,,1/8,1/8,
{4},,,2-4[8:1],
{4}6,5/6,5/6,4-2[8:1]/6,
{4}6,1/6,1/6,2-4[8:1]/6,
{4}6,5/6,5/6,4-2[8:1]/6,
{4}6,1/6,4/5,7-5[8:1],
{4}3,3/4,3/4,3/5-7[8:1],
{4}3,3/8,3/8,3/7-5[8:1],
{4}3,3/4,3/4,3/5,
{12}6,7,8,1,2,3,4/5,,,6-1[8:1],,,
{4}4,2/4,2/4,3-8[8:1]/4,
{4}4,4/7,4/7,4/6-1[8:1],
{4}4,2/4,2/4,3-8[8:1]/4,
{8}4,,4/7,,4/5,4/5,3-8[8:1],,
{4}5,5/7,5/7,5/6-1[8:1],
{4}5,2/5,2/5,3-8[8:1]/5,
{4}5,5/7,5/7,5/6<3[4:3],
{1}5b,
{4}8h[4:1],5h[4:1],6h[4:1],7h[4:1],
{4}5h[4:3],8,8,8,
{4}1h[4:1],4h[4:1],3h[4:1],2h[4:1],
{4}4h[4:3],1,1,1,
{4}8h[4:1],5h[4:1],4h[4:1],1h[4:1],
{4}4h[4:1],5h[4:1],8<2[4:7],,
{2}1h[4:1],1h[4:1],
{2}8h[4:1],8h[4:1],
{8}4/5,,4/5,,4,5,,5,
{1}4>1[4:1]/5<8[4:1],
{4}4>1[8:1]/6,8,3/5<8[8:1],1,
{4}4>1[8:1]/6,8,3/5<8[8:1],1,
{4}4>1[8:1]/6,8,3/5<8[8:1],1,
{4}4/6,8,3/5,1>4[8:1],
{4}7,5<8[8:1],3,1>4[8:1],
{4}7,5<8[8:1],3,1>4[8:1],
{4}7,5,3>6[2:1],6,
{4},,1/8,4/6,
{4}3/5<8[8:1],1,4>1[8:1]/6,8,
{4}3/5<8[8:1],1,4>1[8:1]/6,8,
{4}3/5<8[8:1],1,4>1[8:1]/6,8,
{4}3/5,1,4/6,8<5[8:1],
{4}2,4>1[8:1],6,8<5[8:1],
{4}2,4>1[8:1],6,8<5[8:1],
{4}2,4,6<3[2:1],3,
{4},,1/8,1-5[8:1]/8-4[8:1],
{1},
{8},5,5,4,4,5,5,4,
{8}4/5,6,7,8,2,4,1,3,
{8}5,7,8,6,1,3,2,4,
{8}5,8,7,6,3,4,2,1,
{8}8,7,5,6,4,3,2,,
{8}4/5,3,2,1,5,7,6,8,
{12}3,4,3,2,3,4,5,6,7,6,5,6,
{4}6-2[8:1],4,3-7[8:1],6,
{4}5-1[8:1],3,4-8[8:1],6,
{4}1h[4:1],4h[4:1],3h[4:1],2h[4:1],
{4}4h[4:3],1,3,1,
{4}8h[4:1],5h[4:1],6h[4:1],7h[4:1],
{4}5h[4:3],8,6,8,
{4}1h[4:1],4h[4:1],5h[4:1],8h[4:1],
{4}5h[4:1],4h[4:1],1>7[4:7],,
{2}8h[4:1],8h[4:1],
{2}1h[4:1],1h[4:1],
{8}4/5,,4/5,,5,4,,4,
{1}4>1[4:1]/5<8[4:1],
{8}3/5<8[8:1],,1,1,4>1[8:1]/6,,8,8,
{8}3/5<8[8:1],,1,1,4>1[8:1]/6,,8,8,
{8}3/5<8[8:1],,1,1,4>1[8:1]/6,,8,8,
{4}3/5,1,4/6,8<5[8:1],
{4}2,4>1[8:1],6,8<5[8:1],
{4}2,4>1[8:1],6,8<5[8:1],
{4}2,4,6<3[2:1],3,
{4},,1/8,3/5,
{8}4>1[8:1]/6,,8,8,3/5<8[8:1],,1,1,
{8}4>1[8:1]/6,,8,8,3/5<8[8:1],,1,1,
{8}4>1[8:1]/6,,8,8,3/5<8[8:1],,1,1,
{4}4/6,8,3/5,1>4[8:1],
{4}7,5<8[8:1],3,1>4[8:1],
{4}7,5<8[8:1],3,1>4[8:1],
{4}7,5,3>6[2:1],6,
{4},,1/8,2/7<2[2:3],
{2}1h[4:1],1h[4:1],
{4}8h[4:1],,8h[4:1],2>7[2:3],
{2}1h[4:1],1h[4:1],
{4}8h[4:1],,8h[4:1],7<2[2:3],
{2}1h[4:1],8h[4:1],
{4}1h[4:1],,8h[4:1],2>7[2:3],
{2}1h[4:1],8h[4:1],
{4}1h[4:1],,8h[4:1],6<3[2:3],
{2}5h[4:1],5h[4:1],
{4}4h[4:1],,4h[4:1],3>6[2:3],
{2}5h[4:1],5h[4:1],
{4}4h[4:1],,4h[4:1],6<3[2:3],
{2}5h[4:1],4h[4:1],
{4}5h[4:1],,4h[4:1],3>6[2:3],
{2}4h[4:1],5h[4:1],
{4}4h[4:1],,5h[4:1],6b-4[8:1],
{1},
{1},
{1},
E
