&title=キレキャリオン
&wholebpm=170
&artist=ポリスピカデリー
&des=Moon Strix
&shortid=693
&genre=niconicoボーカロイド
&cabinet=SD
&version=maimai MiLK
&chartconverter=Neskol
&lv_2=6
&des_2=-
&lv_3=7
&des_3=-
&lv_4=10
&des_4=はっぴー
&lv_5=13
&des_5=Moon Strix
&des_6=
&inote_2=
(170){1},
{1},
{1},
{1},
{1},
{4}1,1,1,,
{4}2,2,2,,
{4}3,3,3,,
{4}4,5,4,,
{4}5,5,5,,
{4}6,6,6,,
{4}7,7,7,,
{4}8,1,8,,
{1}7h[2:1],
{2}6,6,
{1}5h[2:1],
{2}4,4/5,
{1}3h[2:1],
{2}2,2,
{1}1h[2:1],
{2}8,1/8,
{4}7,7,7,,
{4}8,8,8,,
{4}1,1,1,,
{4}2,1,2,,
{2}1,1,
{4}2,2,1/2,,
{2}3,3,
{4}4,4,4/5,,
{2}5,5,
{4}6,6,5/6,,
{2}7,7,
{4}8,8,1/8,,
{1}1-5[4:3],
{1},
{1}8-4[4:3],
{1},
{1}1-6[4:3],
{1},
{1}8-3[4:3],
{1},
{4}1b,1,1,,
{4}1/8,1/8,1/8,,
{4}7,7,7,,
{4}5/6,5/6,5/6,,
{4}5,5,5,,
{4}4/5,4/5,4/5,,
{4}4,4,4,,
{4}4/5,4/5,4/5,,
{4}3,3,3,,
{4}3/4,3/4,3/4,,
{4}2,2,2,,
{4}1/2,1/2,1/2,,
{4}8,8,8,,
{4}7/8,7/8,7/8,,
{1}7-3[4:3],
{1},
{1}2-6[4:3],
{1},
{1}7-4[4:3],
{1},
{1}2-5[4:3],
{1},
{4}7,7,7,,
{4}6,6,6,,
{1}4h[1:1]/5h[1:1],
{1},
{4}3,3,3,,
{4}2,2,2,,
{4}1/8,1/8,1/8,,
{1}2/7,
{4}1b,1,2,2,
{4}3/4,3/4,3/4,,
{4}5,5,6,6,
{4}7/8,7/8,7/8,,
{4}8,8,7,7,
{4}5/6,5/6,5/6,,
{4}4,4,3,3,
{4}1/2,1/2,1/2,,
{4}7/8,7/8,7/8,,
{4}1/8,1/8,1/8,,
{4}2,2,2,,
{4}3,3,3,,
{4}4,4,4,,
{4}5,4,4/5,,
{4}5,5,5,,
{4}6,6,6,,
{4}7,7,7,,
{4}8,1,1/8,1/8,
{1},
{1},
{1},
E
&inote_3=
(170){1},
{1},
{1},
{2}4,4,
{2}3,3,
{4}2,2,1,,
{4}7,7,8,,
{4}1,1,8,,
{4}8,8,7,7,
{4}6,6,5,,
{4}3,3,4,,
{4}5,5,4,,
{4}4,4,3,3,
{2}3h[2:1],4,
{2}6h[2:1],5,
{2}3h[2:1],4h[2:1],
{2}5h[2:1],6,
{2}6h[2:1],5,
{2}3h[2:1],4,
{2}6h[2:1],5h[2:1],
{2}4h[2:1],3,
{4}2b,2,1,,
{4}7,7,8,,
{4}1,1,8,,
{4}8,8,7,7,
{4}6,5,5/6,,
{4}3,4,3/4,,
{4}6,5,3,4,
{4}6,5,4,3,
{4}2,1,1/2,,
{4}7,8,7/8,,
{4}2,1,7,8,
{4}2,1,8,7,
{1}6-1[16:7],
{1}3-8[16:7],
{1}7-3[2:1],
{4}2,2,3,3,
{1}3-8[16:7],
{1}6-1[16:7],
{1}2q8[4:3],
{1},
{4}7,7/8,1,1/8,
{4}7,7/8,1/6,,
{4}2,1/2,8,1/8,
{4}2,1/2,3/8,,
{4}3,3/4,3s7[4:3]/4,,
{1},
{4}6,5/6,5/6<2[4:3],,
{1},
{4}3h[4:1],4,2/5,,
{1}1>4[2:1]/8,
{4}6h[4:1],5,4/7,,
{1}1/8<5[2:1],
{1}4qq1[4:5]/5pp8[4:5],
{1},
{2}2h[2:1],3h[2:1],
{2}4,2/5,
{2}3h[2:1],4h[2:1],
{2}5,3/6,
{2}7h[2:1],6h[2:1],
{2}5,4/7,
{2}6h[2:1],5h[2:1],
{2}4,3/6,
{2}3h[2:1],4,
{2}6h[2:1],5,
{2}4,5p4[8:7],
{1},
{4}3,3,3,,
{4}2,2,2,,
{4}1,1,1/8,,
{4}1/8,1/8,2b/7b,,
{4}6,5/6,4/7s3[4:3],,
{1},
{4}3,3/4,2<7[4:3]/5,,
{1},
{4}6h[4:1],5,4/7,,
{1}1/8<5[2:1],
{4}3h[4:1],4,2/5,,
{1}1>4[2:1]/8,
{1}4qq1[4:5]/5pp8[4:5],
{1},
{4}7,7,7/8,,
{4}2,2,1/2,,
{4}8,8,1/8,,
{4}1,1,2,2,
{4}3,3,3/4,,
{4}6,6,5/6,,
{4}4,4,4/5,,
{8}5,,6,,7,,1/8,1/8,
{1},
{1},
{1},
E
&inote_4=
(170){1},
{1}4h[2:7]/5,
{1}5,
{2}5,5,
{4}5,5,5,2/7,
{4}6,5/7,3,2/4,
{4}6,5/7,7/8,1/6,
{4}3,2/4,6,5/7,
{4}3,2/4,1/2,3/8,
{4}7,6/8,2,1/3,
{4}7,6/8,5/6,4/7,
{4}2,1/3,7,6/8,
{8}1/8,1/8,,4/5,4/5,,2/7,,
{4}5/6h[1:1],5,4,4,
{4}5,4/7,3/4,2/5,
{4}3h[1:1]/4,4,5,5,
{4}4,4/5,5/6,4/7,
{4}5/6h[1:1],5,4,4,
{4}5,4/7,3/6,2/5,
{4}3h[1:1]/4,4,5,5,
{4}4,1/2,7/8,5>6[4:3]/6,
{1},
{8}4,4,3/5,,5,5,4/6,,
{8}3,3,2/4,,6,6,5/7,,
{8}3/4,3/4,,5/6,5/6,,4/7,,
{4}2,4/6,7,3/5,
{2}2-5[4:1],6-1[4:1],
{4}2,1/6,7,3/8,
{4}1/8,5/7,4/5,2/4,
{4}7,3/5,2,4/6,
{2}7-4[4:1],3-8[4:1],
{4}7,3/8,2,1/6,
{4}1/8,5/7,4/5,2/4,
{8}1/2h[8:3],,,4h[8:3],,,5h[8:3],,
{8},7h[8:3],,,8,,1/6,,
{8}5/6h[8:3],,,8h[8:3],,,1h[8:3],,
{8},3h[8:3],,,4,,2/5,,
{2}5h[4:1]/6h[4:1],3h[4:1]/4h[4:1],
{2}5h[4:1]/7h[4:1],2h[4:1]/4h[4:1],
{8}6,5/6,,3,3/4,,4/5,4>1[8:3]/5<8[8:3],
{4},,,2-5[8:1]/8-4[8:1],
{4},1-5[8:1]/7-4[8:1],,2-5[8:1]/8-4[8:1],
{4},1/7,2/8,1-5[8:1]/7-4[8:1],
{4},2-5[8:1]/8-4[8:1],,1-5[8:1]/7-4[8:1],
{4},2/8,1/7,2/8,
{4}3/4,1-6[4:1]/2-6[4:1],,,
{4}5/6,7-3[4:1]/8-3[4:1],,,
{4}3/4,1/2,7/8,5pp2[4:3]/6,
{1},
{4}5/7,5/7,3/5,5,
{4}5/7,5/7,3/5,3,
{4}2/4,2/4,4/6,4,
{4}2/4,2/4,4/6,6<3[4:3],
{1},
{8}4/5,4/5,4/5,,2/7,,,,
{2}5/6h[8:3],5/7,
{2}3h[8:3]/4,2/4,
{2}5h[8:3]/6h[8:3],4/7,
{2}3h[8:3]/4h[8:3],2/5,
{2}7h[8:3]/8,6/8,
{2}1/2h[8:3],1/3,
{2}7h[8:3]/8h[8:3],1/6,
{2}1h[8:3]/2h[8:3],3/8,
{1}6h[1:1],
{1}5h[1:1],
{1}4h[1:1],
{4}3h[2:1],,6,3/6,
{4}4/5h[4:7],4,4,4,
{4}4,4,4,4,
{4}3/6,2/7,1/8,1-5[4:1]/8-4[4:1],
{4},,2/7,1-5[8:1]/2-5[8:1],
{4},7-4[8:1]/8-4[8:1],,1-5[8:1]/2-5[8:1],
{4},7-4[8:1]/8-4[8:1],,1-5[8:1]/2-5[8:1],
{4},7-4[8:1]/8-4[8:1],,1pp6[4:3]/2,
{1},
{4}2/4,2/4,4/6h[4:1],4,
{4}2/4,2/4,4h[4:1]/6,6,
{4}5/7,5/7,3h[4:1]/5,5,
{4}5/7,5/7,3/5h[4:1],3>6[4:3],
{1},
{8}1/8,1/8,1/8,,2b/7b,,,,
{8}5/6,,4/7,,2,2,1/3,,
{8}3/4,,2/5,,7,7,6/8,,
{8}5/6,,4/7,,2,2,1/3,,
{4}3/4,1/2,7/8,5/6,
{8}1/2,,3/8,,6,6,5/7,,
{8}7/8,,1/6,,3,3,2/4,,
{8}1/2,,3/8,,6,6,5/7,,
{8}3/4,3/4,,5/6,5/6,,1/8,2/7,
{1},
{1},
{1},
E
&inote_5=
(170){1},
{1},
{1},
{8}2,3,4,5,4,3,2/4,,
{8}7,6,5,4,5,6,5/7,,
{8}2-5[8:1],8,8,,7-4[8:1],1,1,,
{8}2-5[8:1],8,8,,7-4[8:1],1,1,,
{8}2-5[8:1],1,8,,7-4[8:1],8,1,,
{16}2-5[8:1],,1,,8,,,,4/7,,6,5,7,,3,4,
{8}2b,,2/8,,5-1[8:1],4,3,,
{8}4-8[8:1],5,6,,5-1[8:1],4,3,,
{8}3-8[8:1],4,5,,6-1[8:1],5,4,,
{8}2/4,2h[8:1]/4h[8:1],,5/7,5h[8:1]/7h[8:1],,1/2,3/8,
{16},,2,,3,,4,,3/5h[2:1],,,6,,,2,,
{16}2h[2:1],,,3,,,8-5[8:1],,7-4[8:1],,,,,,,,
{16},,7,,6,,5,,2/4,,,5/7,,,2/8,,
{4}2/8-5[8:1],8-3[8:1],8-4[8:1],8,
{16},,7,,6,,5,,4h[2:1]/6,,,3,,,7,,
{16}7h[2:1],,,6,,,1-4[8:1],,2-5[8:1],,,,,,,,
{16},,2,,3,,4,,5/7,,,2/4,,,5/6,,
{4}5h[8:1]/6h[8:1],3h[8:1]/4h[8:1],6h[8:1]/8h[8:1],1h[8:1]/3h[8:1],
{1}4>5[2:1]/5p4[2:1],
{8}5,6,4/7,6,4,3,2/5,,
{8}5,6,4/7,6,4,3,2/5,,
{8}6/8,6h[8:1]/8h[8:1],,1/3,1h[8:1]/3h[8:1],,5/6,4/7,
{16},,5/7,,4,,3,,2h[2:1],,,1,,,5,,
{16}5h[2:1],,,6,,,8-4[8:1],,1-6[8:1],,,,,,,,
{16},,4,,5,,6,,1/7,,,2/3,,,5/6,,
{4}5-2[8:1]/6,5-8[8:1],5-1[8:1],5,
{16},,2/4,,5,,6,,7h[2:1],,,8,,,4,,
{16}4h[2:1],,,3,,,1-5[8:1],,8-3[8:1],,,,,,,,
{16},,5,,4,,3,,2/8,,,6/7,,,3/4,,
{4}3h[8:1]/4h[8:1],5h[8:1]/6h[8:1],2h[8:1]/4h[8:1],5h[8:1]/7h[8:1],
{8}3/5,4,4,4/6,5,5,2/4,3,
{8}3,5/7,6,6,4/5,,1/8,,
{8}1/7,8,8,2/8,1,1,6/8,7,
{16}7,,1/8,,2/7,,,,2/5,,3,4,3-8[8:1],4,3,4,
{4}3b,5<3[4:1],4h[4:1],,
{4}1,4>6[4:1],5h[4:1],,
{16}5/7,,6,5,6,,2/4,,3,4,3,,5h[8:1],,6b,,
{1},
{8}1b/7b,,1q5[8:1]/3,2/8,7,,1p5[8:1]/7,2/8,
{8}3,,1-4[8:1]/3,2/8,1-6[8:1]/7,,1,,
{8}2/8,,6/8p4[8:1],1/7,2,,2/8q4[8:1],1/7,
{8}6,,6/8,1/7,2/8,1/7,8-5[8:1],2-5[8:1],
{8}8b-4[8:1],2b-6[8:1],8b-3[8:1],2b,8b,,1>8[8:3],,
{4}1b/7h[8:3],,1/7,6/7,
{8}4/8,4/8,3/7,2/6,1>4[8:1]/5<8[8:1],,1qq2[8:3]/5qq6[8:3],,
{4},,2/8,2/3,
{4}3/4,4V68[4:1]/6,3/4,1,
{4}5/6,3/5V31[4:1],5/6h[8:1],6,
{4}3/4,4V68[4:1]/6,3/4,1,
{4}5/6,3/5V31[4:1],5/6h[8:1],6,
{16}1/8,,,,6,5,4/7,,,,3,4,2/5,,,,
{8}1/5,2/6,3>8[8:1]/7<4[8:1],,3/7,,,,
{8}1/2h[8:3],,,3,4,4/5,,2/5,
{8},4/7,4-8[8:1]/7-4[8:1],,,,,,
{8}7h[8:3]/8,,,6,5,4/5,,4/7,
{8},2/5,2-5[8:1]/5-1[8:1],,,,,,
{8}3h[8:3]/4,,,2,1,1/8,,3/8,
{8},1/6,1-5[8:1]/6-1[8:1],,,,,,
{8}5/6h[8:3],,,7,8,1/8,,1/6,
{8},3/8,3-8[8:1]/8-4[8:1],,,,,,
{1}3/4h[4:7],
{1}5h[4:7],
{1}7h[4:7],
{1}2h[4:3],
{4}1/8h[4:3],2,3,4,
{4}4h[4:3]/5,6,7,8,
{8}1,2,3,4,5,6,7,8,
{16}2,1,2,1,2,,7,8,7,8,7,,1-4[8:1],,7-4[8:1],,
{8}1b-5[8:1],7b-3[8:1],1b-6[8:1],7b,1,,8<1[8:3],,
{4}2h[8:3]/8b,,2/8,2/3,
{8}2/6,2/6,3/7,4/8,1<6[8:1]/5>2[8:1],,1pp8[8:3]/5pp4[8:3],,
{4},,1/7,6/7,
{4}5/6,3/5qq1[8:3],5/6,8,
{4}3/4,4pp8[8:3]/6,3-1[8:1]/4,3,
{4}5/6,3/5qq1[8:3],5/6,8,
{4}3/4,4pp8[8:3]/6,3-1[8:1]/4,3,
{16}4/5,,,,3,4,2/5,,,,6,5,4/7,,,,
{8}4/5,2/7,1s5[8:1]/8z4[8:1],,1/8,,,,
{8}7-4[8:1],7,8,8,6,5,4/6,4/6,
{8}2-5[8:1],2,1,1,3,4,3/5,3/5,
{8}7-4[8:1],7,8,8,6,5,4/6,4/6,
{16}2-5[8:1],,2,,1,,1,,5/7,,3,4,1,,6,5,
{8}8b-3[8:1]*-5[8:1],,,,2,1,2/8,2/8,
{8}4-8[8:1],4,5,5,7,8,1/7,1/7,
{8}5-1[8:1],5,4,4,2,1,2/8,2/8,
{8}5/7,5h[8:1]/7h[8:1],,2/4,2h[8:1]/4h[8:1],,1z5[8:1]/2s6[8:1],1/2,
{1},
{1},
{1},
E
