&title=ガヴリールドロップキック
&wholebpm=168
&artist=ガヴリール(富田美憂),ヴィーネ(大西沙織),サターニャ(大空直美),ラフィエル(花澤香菜)「ガヴリールドロップアウト」
&des=玉子豆腐
&shortid=697
&genre=POPSアニメ
&cabinet=SD
&version=maimai MiLK
&chartconverter=Neskol
&lv_2=5
&des_2=-
&lv_3=7+
&des_3=-
&lv_4=9+
&des_4=はっぴー
&lv_5=12+
&des_5=玉子豆腐
&des_6=
&inote_2=
(168){1},
{1},
{1},
{1}3,
{1}4,
{1}5,
{1}6,
{1}7,
{4}1,1,1,,
{4}8,8,8,,
{4}7,7,7,,
{4}6,6,5/6,,
{4}5,5,5,,
{4}4,4,4,,
{4}3,3,3,,
{4}2,2,1/2,,
{1}1h[1:1],
{1},
{2}2,2,
{4}3,3,3,,
{1}4h[1:1],
{1},
{2}5,5,
{4}6,6,6,,
{2}8,8,
{4}7,7,7/8,,
{2}6,6,
{4}5,4,5,,
{2}4,4,
{4}3,3,3/4,,
{1},
{1},
{1}1-4[4:3],
{1},
{1}8-5[4:3],
{1},
{1}1-6[4:3],
{1},
{1}8-3[4:3],
{1},
{2}1,8,
{4}1,1,1/8,,
{1}1h[8:15]/8h[8:15],
{1},
{4},2h[4:7]/7h[4:7],,,
{1},
{1},
{4}1,1,2,2,
{4}3,3,3/4,,
{1}4b/5b,
{4}7,7,7,,
{4}8,8,7,7,
{4}6,6,5/6,,
{1}4b/5b,
{4}2,2,2,,
{4}1,1,1/8,,
{4}8,8,1/8,,
{2}1/2,7/8,
{4}1/8,1/8,1/8,,
{4}2,,,1,
{2},8,
{4},7,,,
{1},
{1},
{1},
E
&inote_3=
(168){1},
{1},
{1},
{1}4qq2[4:3]/5pp7[4:3],
{1},
{2}4/5,3/6,
{2}2/7,1-4[4:3]/8-5[4:3],
{1},
{4}3,3,3/4,,
{4}6,6,5/6,,
{4}3,3,4,4,
{4}3,4,3/4,,
{4}6,6,5/6,,
{4}3,3,3/4,,
{4}6,6,5,5,
{2}4h[4:1]/5h[4:1],3/6,
{2}7h[2:1],8,
{4}1,8,2/7,,
{2}5h[4:1]/6h[4:1],3h[4:1]/4h[4:1],
{2}4h[4:1]/5h[4:1],3/6,
{2}2h[2:1],1,
{4}8,1,2/7,,
{2}3h[4:1]/4h[4:1],5h[4:1]/6h[4:1],
{2}4h[4:1]/5h[4:1],3/6,
{4}1,2,3/4,,
{4}8,7,5/6,,
{4}4,4,5,5,
{4}4,5,3/6,,
{4}5,6,7/8,,
{4}4,3,1/2,,
{1}8b,
{1},
{1}2-7[2:1],
{1}6-3[2:1],
{1}2-7[2:1],
{4}8,1,2/7,,
{1}8<5[2:1],
{1}4>1[2:1],
{1}8-4[2:1],
{4}3,4/5,6,4/5,
{4}3h[2:1],4,4,,
{4}6h[2:1],5,5,,
{8}1h[8:3],,,2h[8:3],,,3h[8:3],,
{8},4h[8:3],,,5h[8:3],,,6h[8:3],
{8},,7h[8:3],,,8<2[8:13],,,
{1},
{1},
{4}7,7/8,2,1/2,
{4}7,7/8,2,1/2,
{4}8h[4:1],1b,2b/7b,,
{4}5/6,3/4,2/5,,
{4}2,1/2,7,7/8,
{4}2,1/2,7,7/8,
{4}1h[4:1],8b,2b/7b,,
{4}1/8,2/7,3/6,,
{4}6h[4:1],5,5/6,4b/7b,
{4}3h[4:1],4,3/4,2b/5b,
{4}6,7b/8b,3,1b<6[2:1]/2b>5[2:1],
{1},
{4}7,8,1,2,
{4}2,1,1/8,,
{4}2/7,2/7,,,
{1},
{1},
{1},
E
&inote_4=
(168){1},
{1},
{1},
{1}3/4<8[2:1],
{1}5>1[2:1]/6,
{1}3/4<8[2:1],
{1}5>1[2:1]/6,
{1}1>5[2:1]/8,
{4}6,5/7,3,2/4,
{8}6,,5/7,,2,2,1/2,,
{4}3,2/4,6,5/7,
{8}3,,2/4,,1/8,1/8,1/8,,
{8}3,,2/4,,7,7,8,,
{8}3,,2/4,,2,2,1,,
{4}5/6,4/7,3/4,2/5,
{4}1/8,4/5,2/7,,
{4}3h[4:5]/4,4,1,1,
{4}4,4,2/5,,
{4}5/6h[4:5],5,4,4,
{4}5,4,3/7,3/7,
{4}4,4h[4:1],5,5h[4:1],
{4}4,4/5,3/6,,
{4}4/5,4/5,3/4,2/3,
{4}1/4,5/8,6/7,,
{4}7h[4:5]/8,8,5,5,
{4}6,5,4/8,,
{4}3h[4:1],4,5h[4:1],4,
{4}3h[4:1],4,2/5,2/5,
{4}7,6/7,4,4/5,
{4}5/6,6p2[4:1]/7,,,
{1},
{1},
{4}3/4,3/4,2>5[4:1]/6,,
{4}6,5/6,7/8,1/6,
{4}1/2h[4:1],4,3h[4:1]/4,1,
{8}4/5,,1/8,,2/7,2/7,2/7,,
{4}3h[4:1],4h[4:1],1h[4:1],2,
{4}7h[4:1],5h[4:1],8h[4:1],6,
{4}4h[4:1],2h[4:1],3h[4:1],1h[4:1],
{4}6h[4:1],5h[4:1],7h[4:1],8b,
{4},,4h[1:1]/5,5,
{4}5,5,5,3/6,
{1}5p2[2:1]/7,
{8},2/4q7[2:1],,,,,,,
{8},,4h[4:1]/5h[4:1],,,3h[4:1]/6h[4:1],,,
{4}2/7,2h[2:1]/7h[2:1],,,
{1}1/8<1[2:1],
{4}3/4h[4:1],2,3/4h[4:1],1,
{4}3/4h[4:1],8,2/4,5/7,
{4}1/8,2b/7b,2b/7b,,
{16}4/6,,,3/5,,,4/6,,4/6,,,,1b,,,,
{4}5h[4:1]/6,7,5h[4:1]/6,8,
{8}5h[4:1]/6,,1,,8,8,1,1,
{4}2/7,4b/5b,2b/7b,,
{16}3/5,,,4/6,,,3/5,,3/5,,,,8b,,,,
{16}3h[16:3],,,4h[16:3],,,5,,3/6,,,,1/4,,,,
{16}6h[16:3],,,5h[16:3],,,4,,3/6,,,,5/8,,,,
{4}3/4,1/6,5/6,3/8,
{4}1/7,1/3,3/5,5/7,
{4}2/4,5,6,5/7,
{4}4,3,2/4,5,
{1}6>3[4:1],
{1},
{1},
{1},
E
&inote_5=
(168){1},
{1},
{1},
{1}5q2[2:1]/6,
{1}3/4p7[2:1],
{1}4qq2[2:1]/5pp7[2:1],
{1}3h[2:1]/6h[2:1],
{1}1>4[2:1]/8<5[2:1],
{16}5/6,,7,,1/8,,7,,6,5,6,,3/4,,5,,
{16}3/4,,2,,1/8,,2,,3,4,3,,5/6,,4,,
{16}6,5,6,,3,4,3,,7,5,7,,2,4,2,,
{16}1/8,,1/8,,7,8,,2,1,,1,,3b/7b,,,,
{16}3/4,,2,,1/8,,2,,3,4,3,,5/6,,4,,
{16}5/6,,7,,1/8,,7,,6,5,6,,3/4,,2,,
{16}8,1,8,1,8,1,8,1,8,1,8,1,8,1,8,1,
{4}8b,1b/7b,2b/6b,,
{1}1-4[8:3]/2h[2:1],
{1}1-4[8:3]/3h[2:1],
{8}5h[4:1]/6h[4:1],,,5/6,5h[8:1],7h[8:1],1h[8:1],8h[4:1],
{8},5h[8:1],7h[8:1],1h[8:1],8-5[8:1],,4,,
{1}4h[2:1]/7-2[8:3],
{1}5h[2:1]/7-2[8:3],
{2}2-7[8:1]/3-6[8:1],2-7[8:1]/3-6[8:1],
{4}1V36[4:1]/4V27[4:1],,,1/7,
{2}2-7[8:1]/7h[4:1],3-6[8:1]/6h[4:1],
{8}3-6[8:1],3,2-7[8:1],2,1,,2/8,,
{8}3h[4:1]/5h[4:1],,,3/5,3h[8:1],4h[8:1],2h[8:1],1h[4:1],
{8},3h[8:1],4h[8:1],1h[8:1],8-5[8:1],,4,,
{2}3h[4:1]/4-1[8:1],5-8[8:1]/6h[4:1],
{8}1/8,2,1/8,7,1-4[16:3]/8-5[16:3],,,,
{1},
{1},
{1}3>6[2:1]*pp6[2:1],
{4}8h[4:1],7h[4:1],6,5b/7b,
{4}6>3[8:1],6,2q7[8:1],2,
{8}5-3[8:1]/6-8[8:1],,,,5/6,5/6,3/8,,
{2}1>4[8:1]/5<8[8:1],4-1[8:1]/8-5[8:1],
{2}1V35[8:1]/5V71[8:1],1-6[8:1]/5-2[8:1],
{8}1-5[8:1],1,8-4[8:1],8,2-6[8:1],2,7-3[8:1],7,
{8}1>4[8:1],1,8<5[8:1],8,4-1[8:1]*-7[8:1],4,,,
{4}8,5/7,4/5,2/4,
{2}1-5[8:1]/5<7[8:1],1-5[8:1]/2v4[8:1],
{8}5h[8:1]/6h[8:1],,5/6,2h[8:1]/4h[8:1],,2/4,5h[8:1]/7h[8:1],,
{8}5/7,1h[8:1]/3h[8:1],,1/3,1h[8:1]/6h[8:1],,1/6,3h[8:1]/8h[8:1],
{8},3/8,2h[8:1]/6h[8:1],,2/6,4h[8:1]/8h[8:1],,4/8,
{4}2/6,1h[2:1]/5h[2:1],,,
{1}1/8<1[2:1],
{16}6/8h[16:3],,,7,8,,3/4,,1h[16:3]/6,,,8,1,,4/5,,
{32}2h[16:3]/7,,,,,,1,,2,,,,5/6,,,,4p3[4:1],3,2,1,8,7,6,5,4,,,,,,,,
{4},1b/2b,4b/7b,,
{8}2-5[8:1]/6-1[8:1],,,,8,1b,1b,,
{16}1h[16:3]/3,,,2,1,,5/6,,3/8h[16:3],,,1,8,,4/5,,
{32}2/7h[16:3],,,,,,8,,7,,,,3/4,,,,5q6[4:1],6,7,8,1,2,3,4,5,,,,,,,,
{4},7b/8b,2b/5b,,
{8}4-1[8:1]/5-8[8:1],,,,2/7,8b,8b,,
{4}2pp5[8:3]/4pp7[8:3],,,1b/8b,
{4}6qq3[8:3]/7q2[8:3],,,1b/8b,
{4}4b-1[8:1]*-7[8:1],4b,5b-2[8:1]*-8[8:1],5b,
{32}1,2,3,4,5,6,7,8,1,2,3,4,5,6,7,8,1,2,3,4,5,6,7,8,1,2,3,4,5,6,7,8,
{4}1>4[2:1],,,5<8[2:1],
{2},1<5[2:1]*>5[2:1],
{1},
{1},
{1},
E
