&title=エンドマークに希望と涙を添えて
&wholebpm=257
&artist=cosMo@暴走P
&des=小鳥遊さん
&shortid=719
&genre=オンゲキCHUNITHM
&cabinet=SD
&version=maimai MiLK
&chartconverter=Neskol
&lv_2=6
&des_2=-
&lv_3=9+
&des_3=-
&lv_4=12+
&des_4=はっぴー
&lv_5=14
&des_5=小鳥遊さん
&des_6=
&inote_2=
(257){1},
{1},
{1}4,
{1},
{1}5,
{1},
{1}4,
{1}4,
{1}5,
{1}5,
{2}4,4,
{1}4,
{2}3,3,
{1}3,
{2}2,2,
{1}2,
{2}1,1,
{1}1/8,
{1}8h[1:1],
{1},
{1}1h[1:1],
{1},
{1}2h[1:1],
{1},
{1}3h[1:1],
{1},
{2}4,4,
{1}4,
{2}5,5,
{1}4/5,
{2}6,6,
{1}6,
{2}7,7,
{1}7/8,
{1}1b/8b,
{2}7,7,
{2}6,6,
{2}5,4,
{1}4/5,
{2}3,3,
{2}2,2,
{2}1,8,
{1}1/8,
{2}2,2,
{2}3,3,
{2}4,5,
{1}4/5,
{2}6,6,
{2}7,7,
{2}8,1,
{1}1/8,
{2}1/2,1/2,
{1}1/2,
{2}7/8,7/8,
{1}7/8,
{2}1/2,1/2,
{1}1/2,
{2}7/8,7/8,
{1}7/8,
{1}1-5[4:7],
{1},
{1},
{1},
{1}8-4[4:7],
{1},
{1},
{1},
{1}1h[1:1],
{1},
{1}8h[1:1],
{1},
{1}7h[1:1],
{1},
{1}6h[1:1],
{1},
{2}5,5,
{2}5,5,
{2}4,4,
{2}4,4,
{2}3,3,
{2}3,3,
{1}2h[1:1],
{1},
{2}1,1,
{1}1/8,
{2}2,2,
{1}1/2,
{2}3,3,
{1}3/4,
{2}5,5,
{1}4/5,
{1}4-1[4:7],
{1},
{1},
{1},
{1}5-8[4:7],
{1},
{1},
{1},
{1}1b/8b,
{1},
{4}1,1,1,,
{4}2,2,2,,
{4}3,3,3,,
{4}4,4,4/5,,
{4}5,5,5,,
{4}6,6,6,,
{4}7,7,7,,
{4}8,8,1/8,,
{4}7,7,7,,
{4}6,6,6,,
{4}5,5,5,,
{4}4,4,4/5,,
{4}3,3,3,,
{4}2,2,2,,
{4}1,1,1,,
{4}8,8,1/8,,
{1}1h[1:1]/2h[1:1],
{1},
{1}3h[1:1]/4h[1:1],
{1},
{1}5h[1:1]/6h[1:1],
{1},
{1}7h[1:1]/8h[1:1],
{1},
{4}1,1,1,,
{4}8,8,1/8,,
{4}7,7,7,,
{4}6,6,5/6,,
{4}5,5,5,,
{4}4,4,4/5,,
{1}4/5,
{1},
{4}2,2,2,,
{4}3,3,3,,
{4}4,4,4,,
{4}5,5,4/5,,
{4}6,6,6,,
{4}7,7,7,,
{1}1h[1:1]/8h[1:1],
{1},
{1}1b/8b,
{1},
{1},
{1},
E
&inote_3=
(257){1},
{1},
{1},
{1},
{1},
{1},
{2}6,5/6,
{2}3,3/4,
{2}5,4/5,
{2}3/6,2b/7b,
{4}6,6,6,,
{4}4,4,4/5,,
{4}3,3,3,,
{4}5,5,4/5,,
{4}7,7,7,,
{4}1/8,1/8,1pp4[4:5]/8qq5[4:5],,
{1},
{2},3/6,
{2}6h[2:1],5,
{2}5/6,4/5,
{2}3h[2:1],4,
{2}3/4,2/5,
{2}6h[2:1],5,
{2}3h[2:1],4,
{2}5h[2:1],4h[2:1],
{1}5-1[2:1],
{2}2,1/3,
{4}2,2,2,,
{2}7,6/8,
{4}7,7,7,,
{4}6,6,5,,
{4}3,3,4,,
{2}5/6,3/4,
{4}4/5,4/5,4-1[4:3]/5-8[4:3],,
{1},
{4}2,2,1/2,,
{4}7,7,7/8,,
{4}6,5,4,3,
{4}4/5,4/5,4/5,,
{4}6,6,5/6,,
{4}3,3,3/4,,
{4}2,1,8,7,
{4}1/8,1/8,2/7,,
{4}6,6,5,5,
{4}4,3,1/2,,
{4}3,3,4,4,
{4}5,6,7/8,,
{4}7,7,8,8,
{4}1,2,3/4,,
{4}2,2,1,1,
{4}7/8,7/8,1/6,,
{2}3h[2:1],4,
{4}5,6,4/7,,
{2}6h[2:1],5,
{4}4,3,2/5,,
{4}2,2,1<6[2:1]/2,,
{2},4/5,
{2}3h[2:1],4,
{4}5,4,3/6,,
{4}3/4,3/4,3/4,3/4,
{4}5/6,5/6,5/6,5/6,
{4}3/4,3/4,5/6,5/6,
{4}3/4,3/4,2/5,,
{4}7/8,7/8,7/8,7/8,
{4}1/2,1/2,1/2,1/2,
{1}1h[2:1]/8h[2:1],
{4}1/8,2/7,3b/6b,,
{1}3h[1:1],
{1}4h[1:1],
{1}5h[1:1],
{1}6,
{1}7h[1:1],
{1}8h[1:1],
{1}1h[1:1],
{1}2,
{1}3h[2:1]/4h[2:1],
{1}5h[2:1]/6h[2:1],
{1}7h[2:1]/8h[2:1],
{1}1h[2:1]/2h[2:1],
{2}3/4,5/6,
{2}7/8,1/2,
{2}4/5,6/8,
{2}1/3,2b/7b,
{2}6h[2:1],5h[2:1],
{4}6,6,4/7,,
{2}3h[2:1],4h[2:1],
{4}3,3,2/5,,
{2}7h[2:1],8h[2:1],
{4}7,7,1/6,,
{2}1h[2:1],8h[2:1],
{4}1,1,2/7,,
{1}5<3[4:5],
{1},
{1}4>6[4:5],
{1},
{1}8<2[4:5],
{1},
{1}1>7[4:5],
{1},
{1}1h[2:1]/8h[2:1],
{4}1/8,2/7,3b/6b,,
{4}8,8,7,7,
{4}6,5,3/4,,
{4}5/6,5/6,3/4,3/4,
{4}5/6,5/6,4/7,,
{4}1,1,2,2,
{4}3,4,5/6,,
{4}3/4,3/4,5/6,5/6,
{4}3/4,3/4,2/5,,
{4}4,3,2/5,1,
{4}8,7,1/6,,
{4}5,6,4/7,8,
{4}1/2,1/2,3/8,,
{4}1,2,3/8,4,
{4}5,6,4/7,,
{4}5,4,3/6,2,
{4}1/8,1/8,2/7,,
{2}3h[2:1],4h[2:1],
{4}3,4/5,5/6,,
{2}6h[2:1],5h[2:1],
{4}6,4/5,3/4,,
{4}1/2,1/2,1<6[2:1]/2,,
{2},4/5,
{2}8h[2:1],1h[2:1],
{4}8,1/8,2b/7b,,
{4}4,3,1/2,7/8,
{4}1/6,2/5,3/4,,
{4}5,6,7/8,1/2,
{4}3/8,4/7,5/6,,
{4}8,7,5/6,3/4,
{4}2/5,1/6,7/8,,
{1}1h[2:1]/8h[2:1],
{4}1/8,2/7,3b/6b,,
{4}1/2,3,4,5/6,
{4}7/8,6,5,3/4,
{4}1/2,3,4,5/6,
{4}7/8,6,4/5,3,
{4}1/2,1/2,3/4,5/6,
{4}7/8,7/8,5/6,3/4,
{4}1/2,3/8,4/7,5/6,
{4}3/4,2h[2:1]/5h[2:1],,,
{1}1b/8b,
{1},
{1},
{1},
E
&inote_4=
(257){1},
{1},
{1},
{1},
{1},
{1},
{4}4/5h[4:3],4,4,4>5[4:3],
{1},
{4}6h[4:1],8h[4:1],1h[4:1],3,
{4}3h[4:1],1h[4:1],8h[4:1],6,
{4}5/6h[4:7],5,8,8,
{4}4,4,1,1,
{4}3h[1:1]/4,4,1,1,
{4}5<8[4:1],,,1/8,
{4}1/2h[1:1],1,4,4,
{4}8<5[4:1],,,4/5,
{8}4/6,4/6,,3/5,3/5,,4/5,4h[8:7]/5h[8:7],
{1},
{4}5,5,4,4,
{4}7,5,4,2,
{4}4,4,5,5,
{4}5/7,4/5,2/4,,
{4}4,4,5,5,
{4}2,4,5,7,
{4}5,4,3,3>6[2:1],
{4},,,4/5,
{4}5/6,4/6,3/6,2/6,
{2}2>5[4:1],6<1[4:1],
{4}3,3/4,2/5,1/6,
{4}7/8,5/6,4/7,,
{4}3/4,3/5,3/6,3/7,
{2}7<4[4:1],3>8[4:1],
{4}6,5/6,4/7,3/8,
{1}1/2-6[4:1],
{4}1h[4:3]/5,5,5,5<4[4:3],
{1},
{4}5/6,4/7,3/4,2/5,
{4}1,5/6,8,3/4,
{2}1-5[4:1],8-4[4:1],
{4}1h[4:7],,3,5,
{8}7,,8,8,,6,6,,
{4}7h[4:1],5h[4:1],4h[4:1],2,
{4}2h[4:1],4h[4:1],5h[4:1],7,
{4}7h[4:15]/8,6,8,6,
{4}2,4,2,4,
{4}1,5,8,4,
{4}1,5,8,4,
{4}3h[4:15]/4,2,4,2,
{4}6,8,6,8,
{4}5,1,4,8,
{4}5,1,4,8,
{4}5-3[4:1]/6,6,6,5/6,
{4}5-2[4:1]/6,6,6,5/6,
{4}5-1[4:1]/6,6,6,5/6,
{4}5-8[4:1]/6,6,6,5/6,
{4}4/7,3/8,1h[1:1]/2>7[2:1],,
{4},,2,3/8,
{4}2/5,1/6,7/8,5/6,
{4}4/5,3>8[4:1]/4<7[4:1],,,
{8}1-5[4:1]/7,,6,,7,7,7,,
{8}6/8-4[4:1],,5,,6,6,6,,
{8}1-5[4:1]/7,,6,,7,7,7,,
{8}6/8-4[4:1],,5,,6,6,6,,
{8}1-4[4:1]/8,,7,,8,8,8,,
{8}4-1[4:1]/5,,6,,5,5,5,,
{2}4h[4:3]/8,5h[4:1],
{4}4/5,1/8,2b/7b,,
{4}5/6h[2:7],,5,5,
{4}4,,4,4,
{4}3,,3,3,
{4}4,5,3,,
{4}3h[2:7]/4,,4,4,
{4}5,,5,5,
{4}6,,6,6,
{4}5,4,6,,
{1}1-6[4:1]/7h[2:1],
{1}2h[2:1]/8-3[4:1],
{1}1-5[4:1]/7h[2:1],
{1}2h[2:1]/8-4[4:1],
{4}1/5,2,3/7,4,
{4}1/5,6,3/7,8,
{4}1/5,7,2/6,5,
{4}4/8,3/7,2/6,,
{8}5h[4:1]/6,6,6,,6/7h[4:1],6,6,,
{4}7/8,5/6,4/7,,
{8}3/4h[4:1],3,3,,2h[4:1]/3,3,3,,
{4}1/2,3/4,2/5,,
{4}7,4/6,2,3/5,
{4}8,4/6,1,3/5,
{1}2>5[2:1]/6<1[2:1],
{4}4/8,3/7,2/6,,
{4}5h[4:1],6h[4:1],7h[4:1],8h[4:1],
{4}1h[4:1],2h[4:1],3h[4:1],4h[4:1],
{4}5h[4:1],6h[4:1],7h[4:1],8h[4:1],
{4}1h[4:1],2h[4:1],3h[4:1],4,
{4}4h[4:1],3h[4:1],2h[4:1],1,
{4}5h[4:1],6h[4:1],7h[4:1],8,
{2}4-1[4:1],8-5[4:1],
{1}4>5[4:3],
{1}8h[4:7],
{4}4,4,4,4>5[4:3],
{1},
{4}3/4,2/5,5/6,4/7,
{4}8,3/4,1,5/6,
{2}8-4[4:1],1-5[4:1],
{4}8h[4:7],,6,4,
{8}2,,1,1,,3,3,,
{4}2h[4:1],4h[4:1],5h[4:1],7,
{4}7h[4:1],5h[4:1],4h[4:1],2,
{4}1/2h[4:15],3,1,3,
{4}7,5,7,5,
{4}8,4,1,5,
{4}8,4,1,5,
{4}5/6h[4:15],7,5,7,
{4}3,1,3,1,
{4}4,8,5,1,
{4}4,8,5,1,
{4}3/4-6[4:1],3,3,3/4,
{4}3/4-7[4:1],3,3,3/4,
{4}3/4-8[4:1],3,3,3/4,
{4}3/4-1[4:1],3,3,3/4,
{4}2/5,1/6,7V52[2:1]/8h[1:1],,
{4},,7,1/6,
{4}4/7,3/8,1/2,3/4,
{4}4/5,5/6,7/8,,
{8}2/8-4[4:1],,3,,2,2,2,,
{8}1-5[4:1]/3,,4,,3,3,3,,
{8}2/8-4[4:1],,3,,2,2,2,,
{8}1-5[4:1]/3,,4,,3,3,3,,
{8}1/8-5[4:1],,2,,1,1,1,,
{8}4/5-8[4:1],,3,,4,4,4,,
{2}1/5h[4:3],4h[4:1],
{4}4/5,1/8,2b/7b,,
{4}1/8,1/8,6/7,6/7,
{4}4/5,4/5,2/3,2/3,
{4}1/8,6/7,4/5,2/3,
{4}1/8,6/7,4/5,3/6,
{4}7/8,5/6,3/4,1/2,
{4}7/8,5/6,3/4,1/2,
{8}1/7,1/7,,2/8,2/8,,1/8,1h[4:1]/8h[4:1],
{4},1/8,,,
{1}7h[4:23]/8<1[4:11],
{1},
{1},
{1},
{4}8,8,8,8,
{4}8,8,8,8,
{1},
{1},
{1},
E
&inote_5=
(257){1},
{1},
{1}3h[1:1],
{1}4h[1:1],
{1}5h[1:1],
{1}6h[1:1],
{4}2,2/5,2,2/5,
{4}2,2/5,2,2/5,
{8}1,8,3,6,2,7,4,5h[4:1],
{8},4,6,3,7,2,8-5[8:1],,
{4}8-3[8:1],8<5[8:1],8>3[8:1],8-5[8:1],
{4}8-3[8:1],8<5[8:1],8>3[8:1],8-5[8:1],
{4}8-3[8:1],8<5[8:1],8>3[8:1],8,
{8}6,5,6,4/7,,2,1-6[8:1],2,
{4}1-4[8:1],1<6[8:1],1>4[8:1],1-6[8:1],
{4}1-4[8:1],1<6[8:1],1>4[8:1],1,
{8}5/7,5/7,,2/4,2/4,,4/5,4/5h[8:7],
{4},6,6,2b,
{4}5,5,4,4,
{8}3,,3,4,3,,4,5,
{4}3,3,6,6,
{8}3,5,4,5,3,,6,5,
{8}6,,3,4,3,,4/5,,
{8}4/5,,6,5,6,,5,,
{8}4,,3,,4,5,4,5,
{8}4h[4:3],,8,8h[8:3],,,,,
{4}2/5,4/8,1/5,4/7,
{8}2/6,,7-4[8:1],8,7,,3,,
{4}4/8,2/5,3/7,1/5,
{8}2,1,2-6[8:1],1,2,,7-4[8:1],8,
{8}7,,2-5[8:1],1,2,,7<4[8:1],8,
{8}7,,2>5[8:1],1,2,,7,,
{8}5/6,,3/4,,5,4,5,4,
{8}5h[4:3],,1,1h[8:3],,,,,
{4}1,1,1,3-8[8:1]/7-4[8:1],
{8}3b/7b,,2/6,,5,1,6,2,
{8}3<6[8:1]/7,,8,8,,1/5,1/5,,
{8}7,8,4,3,1,2,6,5,
{16}8,7,6,5,4/8,,,,8,1,2,3,4/8,,,,
{8}2/6,,1b/8b,,2,5,4,7,
{8}2/6>3[8:1],,1,1,,4/8,4/8,,
{8}7,7,1,1,3,3,5,5h[4:1],
{8},6,5,4,3,2,1>4[4:1],,
{4}4q1[4:1],1>4[4:1],4,8<5[4:1],
{4}5p8[4:1],8<5[4:1],5,1>4[4:1],
{4}4q1[4:1],1>4[4:1],4,8<5[4:1],
{4}5p8[4:1],8<5[4:1],5,8,
{8}2,1,2,2,7,8,7,7,
{8}3,1,3,3,6,8,6,6,
{8}2,2,4,4,6,6,8,8,
{16}1,2,3,4,5,6,7,8,1,2,3,4,5,6,7,8,
{8}1/5,,7-4[8:1],8,7,,2,,
{8}3/4,,2-5[8:1],1,2,,7,,
{8}5/6,,8-4[8:1],1,8,,2,,
{8}3/4,,6-1[8:1],5,6,4,3,2,
{4}1<6[4:1],6-2[4:1],2>1[2:1],5h[2:1],
{4},,6-2[4:1],2-6[4:1],
{4}6>3[4:1],3>8[4:1],8<5[4:1],5,
{16}4,,3,,2,,1,,8,7,6,5,4,3,2,1,
{8}4/8,,2,1,3,8,4,7,
{8}5h[4:1],,6-8[8:1],6,,3,4,2,
{8}1/5,,7,8,6,1,5,2,
{8}4h[4:1],,3-1[8:1],3,,6,5,7,
{4}4/8-3[8:1],2-6[8:1],5-1[8:1],4-8[8:1],
{4}6-3[8:1],1-6[8:1],7-4[8:1],3>4[8:3],
{1}8h[2:1],
{4}2b/7b,4b/5b,1b/8b,,
{2}1h[4:1],2h[4:1],
{2}3h[4:1],4h[4:1],
{2}5h[4:1],6h[4:1],
{2}7h[4:1],8h[4:1],
{4}1,2,3,4,
{4}5,6,7,8,
{8}1,2,3,4,5,6,7,8,
{16}1,2,3,4,5,6,7,8,1b,,,,,,,,
{4}3/7,3-8[4:1]/7-4[4:1],,,
{4}2/6,2-5[4:1]/6-1[4:1],,,
{2}5h[4:1]/7h[4:1],2h[4:1]/4h[4:1],
{1}2V41[8:3]/7V58[8:3],
{16}1/8,2,3,4,5,6,7,8,1,2,3,4,5,6,7,8,
{16}1/5,4,3,2,1,8,7,6,5,4,3,2,1,8,7,6,
{16}1/5,2,3,4,1/5,8,7,6,1/5,2,3,4,1/5,8,7,6,
{1}1h[2:1]/5h[2:1],
{8}1h[4:1]/2,2,2,,1h[4:1]/8,8,8,,
{16}1,2,3,4,1-5[8:1],8,7,6,1b,,,,,,,,
{8}7/8h[4:1],7,7,,1/8h[4:1],1,1,,
{16}8,7,6,5,8-4[8:1],1,2,3,8b,,,,,,,,
{8}2,5,4,5,7,5,4,5,
{8}3,5,4,5,3h[4:1]/6h[4:1],,,,
{8}8,4,5,4,8,4,5,4,
{2}8-4[4:1],1b,
{12}2,3,4,7,6,5,2,3,4,7,6,5,
{12}1,2,3,8,7,6,1,2,3,8,7,6,
{12}4,3,2,5,6,7,4,3,2,5,6,7,
{12}3,2,1,6,7,8,3,2,1,6,7,8,
{12}4,3,2,1,8,7,3/6,2,1,8,7,6,
{12}2/5,1,8,7,6,5,1/4,8,7,6,5,4,
{2}1h[4:3]/3,8h[4:1],
{16}2,3,4,5,6,7,8,1,2/7,6,5,4,3,2,1,8,
{1}2b/7h[2:3],
{4}8,8,8,2-5[8:1]/6-1[8:1],
{8}2b/6b,,3/7,,4,8,3,7,
{8}2<7[8:1]/6,,5,5,,4/8,4/8,,
{8}2,1,5,6,8,7,3,4,
{16}1,2,3,4,1/5,,,,1,8,7,6,1/5,,,,
{8}3/7,,1b/8b,,7,4,5,2,
{8}3/7>2[8:1],,4,4,,1/5,1/5,,
{8}2,2,8,8,6,6,4,4h[4:1],
{8},3,4,5,6,7,8<5[4:1],,
{4}5p8[4:1],8<5[4:1],5-1[4:1],1>4[4:1],
{4}4q1[4:1],1>4[4:1],4-8[4:1],8<5[4:1],
{4}5p8[4:1],8<5[4:1],5-1[4:1],1>4[4:1],
{4}4q1[4:1],1>4[4:1],4,1,
{8}8,8,8,8,2,2,2,2,
{8}4,4,4,4,6,6,6,6,
{8}7,7,5,5,3,3,1,1,
{16}8,7,6,5,4,3,2,1,8,7,6,5,4,3,2,1,
{8}4/8,,2>5[8:1],1,2,,7,,
{8}5/6,,7<4[8:1],8,7,,2,,
{8}3/4,,1q5[8:1],8,1,,7,,
{8}5/6,,3-8[8:1],4,3,5,6,7,
{4}8>3[4:1],3-7[4:1],7<8[2:1],4h[2:1],
{4},,3q7[4:1],7q3[4:1],
{4}3<6[4:1],6<1[4:1],1>4[4:1],4,
{16}5,,6,,7,,8,,1,2,3,4,5,6,7,8,
{8}1-5[8:1]/5,,7-4[16:1],7,2-6[16:1],2,8-4[8:1],8,
{8}1-5[8:1],1,8-3[8:1],8,2-5[16:1],2,7-3[8:1],7,
{8}1-5[8:1],1,7-4[16:1],7,2-6[16:1],2,8,8,
{8}1,,2>5[8:1]/6,2/6,2/6<1[8:1],,,,
{8}2,2,4/8,4/8,7,7,1/5,1/5,
{8}2/6,2/6,3/7,3/7,4/8,4/8,1/5,1/5,
{1}2h[32:31]/6h[32:31],
{16}5b,4,3,2,1b/5b,8,7,6,1b/5b,,,,3/7-3[8:1],,,,
{4}2-6[8:1]/7,2/7-4[8:1],3-1[8:1]/7,3/8-4[16:1],
{4}2-5[8:1]/8,2/6-2[8:1],1-5[8:1]/6,1/8-5[8:1],
{4}1w5[8:1]/8,1,8w4[8:1],8,
{8}2,1,8,3/7,,1/5,1-5[8:1]/5,,
{4}1/8-3[8:1],2-5[8:1]/8,2/7-4[8:1],3-1[8:1]/7,
{4}3/8w4[8:1],8,1w5[8:1],1,
{8}3/7,3/7,,2/6,2/6,,5/7,5/7,
{24},,,2/4,,,2/4,,,,,,,,,,,,4,,5,,4,,
{1}3b>4[4:19]/6b,
{1},
{1},
{4}1,1,1,1,
{4}1,1,1,1,
{4}1,1,1w5[6:1],1b,
{1},
{1},
{1},
E
