&title=アンノウン・マザーグース
&wholebpm=222
&artist=wowaka
&des=LabiLabi
&shortid=726
&genre=niconicoボーカロイド
&cabinet=SD
&version=maimai MiLK
&chartconverter=Neskol
&lv_2=3
&des_2=-
&lv_3=7
&des_3=-
&lv_4=11
&des_4=玉子豆腐
&lv_5=13
&des_5=LabiLabi
&des_6=
&inote_2=
(222){1},
{1},
{2}1,1,
{1}1,
{2}2,2,
{1}2,
{2}3,3,
{1}3,
{2}4,4,
{1}4/5,
{2}5,5,
{1}5,
{2}6,6,
{1}6,
{2}7,7,
{1}7,
{2}8,8,
{1}1/8,
{1}1h[1:1],
{1},
{1}8h[1:1],
{1},
{1}7h[1:1],
{1},
{2}6,6,
{1}5/6,
{1}5h[1:1],
{1},
{1}4h[1:1],
{1},
{1}3h[1:1],
{1},
{2}2,2,
{1}1/2,
{1}1/8,
{1},
{2}2,2,
{1}2,
{2}3,3,
{1}3,
{2}4/5,4/5,
{1}4/5,
{2}5,5,
{1}5,
{2}6,6,
{1}6,
{2}7,7,
{1}7,
{2}1/8,1/8,
{1}1/8,
{1}1-5[4:7],
{1},
{1},
{1},
{1}8-4[4:7],
{1},
{1},
{1},
{1}1h[1:1]/2h[1:1],
{1},
{1}7h[1:1]/8h[1:1],
{1},
{1}1h[1:1]/8h[1:1],
{1},
{2}1/8,1/8,
{2}1b/8b,(204),
(222){1}2h[1:1],
{1},
{1}3h[1:1],
{1},
{1}4h[1:1],
{1},
{2}4/5,4/5,
{1}4/5,
{1}5h[1:1],
{1},
{1}6h[1:1],
{1},
{1}7h[1:1],
{1},
{2}1/8,1/8,
{1}1/8,
{2}2,2,
{2}1,1,
{2}8,8,
{1}1/8,
{2}7,7,
{2}6,6,
{2}5,5,
{1}4/5,
{2}3,3,
{2}4,4,
{2}5,5,
{1}4/5,
{2}6,6,
{2}7,7,
{2}8,8,
{1}1/8,
{1}2-6[4:7],
{1},
{1},
{1},
{1}7-3[4:7],
{1},
{1},
{1},
{2}8,8,
{1}8,
{2}7,7,
{1}7,
{2}6,6,
{1}6,
{2}5,4,
{1}4/5,
{2}4,4,
{1}4,
{2}3,3,
{1}3,
{2}2,2,
{1}2,
{2}1,8,
{1}1/8,
{1}1-4[4:7],
{1},
{1},
{1},
{1},
E
&inote_3=
(222){1},
{1},
{2}3,3/4,
{2}3,2/4,
{2}6,5/6,
{4}6,6,6,,
{2}3,3/4,
{2}3,2/4,
{2}5,6-3[4:3],
{1},
{2}2,1/2,
{2}2,1/3,
{2}7,7/8,
{4}7,7,7,,
{2}2,1/2,
{2}2,1/3,
{2}8,7<4[4:3],
{1},
{4}3,3,4,,
{2}2/5,3/4,
{4}6,6,5,,
{2}4/7,5/6,
{4}7,7,8,,
{2}1/6,7/8,
{4}2,2,1,,
{2}3/8,1/2,
{4}3,3,4,4,
{2}2/5,3/4,
{4}6,6,5,5,
{2}4/7,5/6,
{4}7,7,8,8,
{2}1/6,7/8,
{4}2,2,1,1,
{1}3h[2:1]/8h[2:1],
{1}2h[2:3]/7h[2:3],
{1},
{2}3,3/4,
{4}2,2,1/3,,
{2}6,5/6,
{4}7,7,6/8,,
{2}3/4,5/6,
{1}4h[2:1]/5h[2:1],
{2}3,1/2,
{4}3,3,2/4,,
{2}6,7/8,
{4}6,6,5/7,,
{2}2,3/4,
{4}2,2,1/3,,
{2}7,5-2[4:3]/6-1[4:3],
{1},
{2}2h[2:1],3,
{2}7h[2:1],6,
{2}3h[2:1],4,
{2}6h[2:1],5,
{2}4h[2:1],5,
{2}5h[2:1],4,
{1}4h[2:1],
{1}5h[2:1],
{2}4,3/4,
{2}5,5/6,
{2}4,2/3,
{2}5,6/7,
{2}4/5,1/2,
{2}4/5,7/8,
{1}4-1[4:3]/5-8[4:3],
{2},(204)2b/7b,
(222){1}4h[2:1],
{1}5h[2:1],
{1}4h[2:1],
{2}5,4/5,
{1}3h[2:1],
{1}6h[2:1],
{1}3h[2:1],
{2}4/5,4/5,
{2}6h[2:1],5,
{2}3h[2:1],4,
{2}6h[2:1],5,
{4}3,3,3/4,,
{2}6h[2:1],5h[2:1],
{2}4h[2:1],3,
{2}3h[2:1],4h[2:1],
{2}5h[2:1],6,
{2}6h[2:1],5,
{4}6,6,5/7,,
{2}3h[2:1],4,
{4}3,3,2/4,,
{2}6h[2:1],5,
{4}6,6,5/7,,
{2}3h[2:1],2h[2:1],
{2}1h[2:1],8,
{2}2h[2:1],1,
{4}2,2,1/3,,
{2}7h[2:1],8,
{4}7,7,6/8,,
{2}2h[2:1],1,
{4}2,2,1/3,,
{1}1>4[4:3]/8<5[4:3],
{2},3/6,
{2}2h[2:1],1,
{4}8,7,1/6,,
{4}2,2,1,1,
{2}3/8,2b/7b,
{2}7h[2:1],8,
{4}1,2,3/8,,
{4}7,7,8,8,
{2}1/6,2b/7b,
{1}3h[2:3]/4,
{4},4,4,,
{1}5/6h[2:3],
{4},5,5,,
{1}3h[2:3]/4,
{4},4,4,,
{1}5/6h[1:1],
{2}5,4/7,
{1}4h[2:3]/5,
{4},5,5,,
{1}4/5h[2:3],
{4},4,4,,
{1}4h[4:3],
{4},4,4,,
{1}5h[4:3],
{4},5,5,,
{1}3<6[4:3],
{1},
{1},
{1},
E
&inote_4=
(222){1},
{1},
{4}4,3,5,6,
{4}4,3/4,5,5/6,
{4}2,1,7,8,
{4}1/2,3/8,,4h[4:1],
{4}5,6,4,3,
{4}5,5/6,4,3/4,
{4}7h[4:1],8,2h[4:1],1s5[8:5],
{1},
{4}4,2,5,7,
{4}4,2/4,5,5/7,
{4}3,1,6,8,
{4}1/2,3/8,,4h[4:1],
{4}5,7,4,2,
{4}5,5/7,4,2/4,
{4}6h[4:1],8,3h[4:1],1,
{1}1>4[16:7]/8<5[16:7],
{4}2b/7b,,6,5/6,
{4}3,2/4,7/8,1/6,
{4}2,1/2,7,7/8,
{4}2,1/3,5/6,4/7,
{4}6,5/6,3,3/4,
{4}6,5/7,1/2,3/8,
{4}7,7/8,2,1/2,
{4}7,6/8,3/4,2/5,
{4}3,2/4,6,5/7,
{4}3,3/4,7/8,1/6,
{4}2,1/3,7,6/8,
{4}2,1/2,5/6,4/7,
{4}6,5/7,3,2/4,
{4}6,5/6,1/2,3/8,
{4}7,6/8,2,1/3,
{4}7,7/8,3/4,2/5,
{1}1>8[1:1]/6,
{4},,,1/8,
{4}4,2,5,7,
{1}5q2[2:1]/6<1[2:1],
{4}4,2,5,7,
{4}3,2/4,6,5/7,
{1}4qq2[2:1]/5pp7[2:1],
{2}3h[4:1]/6h[4:1],1b/8b,
{4}8,6,1,3,
{4}7,6/8,2,1/3,
{4}7,5,2,4,
{1}3V17[2:1]/4v6[2:1],
{4}2,4,7,5,
{4}3,4/8,6,1/5,
{4}2h[4:1],4,7h[4:1],5,
{6}4,5,4,5,3b/6b,,
{2}2h[2:1],3h[2:1],
{2}4h[2:1],5,
{1}1-4[8:3]/6-3[8:3],
{1}1-4[8:3]/6-3[8:3],
{2}7h[2:1],6h[2:1],
{2}5h[2:1],4b,
{1}3-6[8:3]/7-2[8:3],
{1}3-6[8:3]/7-2[8:3],
{4}5,5h[2:1],6,6h[2:1],
{4}7,7h[2:1],8,8h[2:1],
{4}1,1h[2:1],2,2h[2:1],
{4}3,3h[2:1],4,4h[4:1],
{4}5h[4:1],6h[4:1],7h[4:1],8h[4:1],
{4}1h[4:1],2h[4:1],3h[4:1],4h[4:1],
{4}5h[4:1],7h[4:1],1h[4:1],3h[4:1],
{4}5h[4:1],7,(204)1b/8b,,
(222){2}2>5[16:9],6,
{2}6q2[16:9],3,
{2}3p7[16:9],6,
{2}6qq7[16:15],2,
{2}1V38[8:9],4-7[8:5],
{1},
{2}3-8[8:3],5-8[8:3],
{1}4qq8[8:7],
{2}7<4[16:9],3,
{2}3p7[16:9],6,
{2}6q2[16:9],3,
{2}3pp2[16:15],7,
{2}8V61[8:9],5-2[8:5],
{1},
{2}3>8[8:3],4pp8[8:7]*qq8[8:7],
{1},
{4}3/6h[2:1],4,5,,
{1}5h[2:1]/6-8[8:3],
{4}3h[2:1]/6,5,4,,
{1}3-1[8:3]/4h[2:1],
{1}3h[2:1]/4-1[8:3],
{1}5-8[8:3]/6h[2:1],
{1}3h[2:1]/4pp4[8:7],
{2}3,2/5,
{4}2/6h[2:1],3,5,,
{1}5h[2:1]/6-1[2:1],
{4}3h[2:1]/7,6,4,,
{1}3-8[2:1]/4h[2:1],
{1}4qq4[8:5]/5h[2:1],
{1}5pp7[2:1]*qq3[2:1],
{2}4-1[2:1]/5,8,
{4}1,2/8,3/7,,
{2}3-8[8:3]/4,5,
{2}3V17[2:1]/4,6,
{2}3-8[8:3]/4,5,
{2}3V17[2:1]/4,6,
{2}5/6-1[8:3],4,
{2}5/6V82[2:1],3,
{2}5/6-1[8:3],4,
{2}5/6V82[2:1],3,
{8}2h[8:3],,,1,,,3h[2:1]/8,,
{4},4,3/4,,
{8}7h[8:3],,,8,,,1/6h[2:1],,
{4},5,5/6,,
{8}1h[8:3],,,8,,,2h[2:1]/7,,
{4},4,2/4,,
{8}8h[8:3],,,1,,,2/7pp4[4:3],,
{1},
{8}3h[8:3],,,4,,,2h[2:1]/5,,
{4},4,2/4,,
{8}6h[8:3],,,5,,,4/7h[2:1],,
{4},5,5/7,,
{8}3h[8:3],,,4,,,2/5h[2:1],,
{4},4,4/5,,
{8}6h[8:3],,,5,,,4h[2:1]/7,,
{4},5,4h[2:1]/5h[2:1],,
{1},
{1},
{1},
E
&inote_5=
(222){1},
{1},
{8}5h[4:3],,4,4,,3,3,,
{8}4h[4:3],,5,5,,6,6,,
{8}7h[4:3],,5,5,,6,6,,
{8}2h[4:3],,4,4,,3,3,,
{8}6h[4:3],,7,7,,8,8,,
{8}3h[4:3],,2,2,,1,1,,
{8}8h[4:3],,6,6,,5,5,,
{6}1,2,3,4h[4:1]/8h[4:1],,,
{8}2,,2,2-6[8:1],,8,8-4[8:1],,
{8}1,,1,1-5[8:1],,7,7-3[8:1],,
{8}2,,2,2>5[8:1],,8,8-4[8:1],,
{8}1,,1,1-5[8:1],,6,6,,
{8}7,,7,7-3[8:1],,1,1-5[8:1],,
{8}8,,8,8-4[8:1],,2,2-6[8:1],,
{8}7,,7,7<4[8:1],,1,1-5[8:1],,
{6}7,6,5,4/8,3/7,2/6,
{8}1b/5b,,2h[4:1]/8,8,8,,5/6,,
{8}3h[4:1]/4,4,4,,2/5,,5/6,,
{8}4/8,,1/7h[4:1],1,1,,3/4,,
{8}5/6h[4:1],5,5,,4/7,,3/4,,
{8}4/8,,3h[4:1]/5,5,5,,7/8,,
{8}1/2h[4:1],1,1,,3/8,,7/8,,
{8}1/5,,4/6h[4:1],4,4,,1/2,,
{8}7h[4:1]/8,8,8,,1/6,,1/2,,
{8}4/7,,2/8,1,8,1,2/8,,
{8}5/7,6,5,6,5/7,,2/5,,
{8}1/3,,1/7,8,1,8,1/7,,
{8}2/4,3,4,3,2/4,,4/7,,
{8}5/7,,3/5,4,5,4,3/5,,
{8}6/8,7,8,7,6/8,,3/8,,
{8}2/4,,4/6,5,4,5,4/6,,
{8}1/3,2,1,2,1/3,,4/5,,
{1}1b/8b,
{16},,,,,,,,,,4,5,3/6,,,,
{8}2-5[8:1],,2,1,,7,8,7,
{8}1,8-5[8:1],1,8,,3,4,3,
{8}2-5[8:1],,2,1,,6,5,4,
{8}7,8-4[8:1],7,8,,6,6,,
{8}4/5,,2/4,2/4,,5/7,5/7,,
{2}2-5[8:1]/6-1[8:1],3b/7b,
{8}8-4[8:1],,8,1,,5,6,7,
{8}8,2-5[8:1],8,2,,1,1,,
{8}7-4[8:1],,7,8,,2,1,2,
{8}8,1-4[8:1],8,1,,6,5,6,
{8}7-4[8:1],,7,8,,3,4,5,
{8}2,1-5[8:1],2,1,,3,3,,
{8}4/5,,5/7,5/7,,2/4,2/4,,
{6}1/5,2/6,3/7,4/8,1h[3:1]/5h[3:1],,
{2},2/8,
{8}2/4,,,3/5,3/5,3/5,,,
{48}1h[6:1],,,,,,,,2h[6:1],,,,,,,,3h[6:1],,,,,,,,4h[6:1],,,,,,,,5h[24:5],,,,,,,,,,8,,,1,,,
{6}8h[6:1],7h[6:1],6h[6:1],5h[6:1],4h[3:1],,
{2}1,2/8,
{8}6/8,,,5/7,5/7,5/7,,,
{48}1h[6:1],,,,,,,,3h[6:1],,,,,,,,4h[6:1],,,,,,,,5h[6:1],,,,,,,,7h[24:5],,,,,,,,,,8,,,1,,,
{6}8h[6:1],6h[6:1],5h[6:1],4h[6:1],2h[3:1],,
{12}3,4,3,6,5,6,3,4,3,6,5,6,
{12}3,4,3,6,5,6,3,4,3,6,5,6,
{12},,2,1,2,7,8,7,2,1,2,7,
{12}8,7,2,1,2,7,8,7,2,1,2,7,
{12},,3,4,2,6,5,7,2,1,3,7,
{12}8,6,3,4,1,6,5,8,2,1,3,7,
{4}1-5[8:1],1b/7b-4[8:1],2b-5[8:1]/7b,2b/8b-4[8:1],
{4}1b-5[8:1]/8b,1b>4[0.2702702702702737##0.1470588235294059]/8b<5[0.2702702702702737##0.1470588235294059],(204)1b/8b,,
(222){2}3h[2:1]/5,1h[2:1],
{4}4>1[2:1],5,6,,
{2}4/6h[2:1],8h[2:1],
{4}5<8[2:1],4,3,,
{1}3qq5[4:5]/6pp4[4:5],
{4},,,3,
{8}3/4,,,7,7p3[8:3],,,2,
{8}2q6[8:3],,,7,7,,,,
{2}2h[2:1]/4,8h[2:1],
{4}6>2[2:1],7,8,,
{2}5/7h[2:1],1h[2:1],
{4}3<7[2:1],2,1,,
{1}2pp8[4:5]/7qq1[4:5],
{4},,,6,
{8}5/6,,,2,2q6[8:3],,,7,
{8}7p3[8:3],,,2,2,,,,
{8},,4,4,5,,6>3[4:1],,
{4}3pp6[4:3],,2,1,
{8},,5,5,4,,3<6[4:1],,
{4}6qq3[4:3],,7,8,
{8},,5,,3,4,3,4,
{8}3,3,,6,5,4/7,,2,
{4}1s5[2:1]/8,6,5s1[2:1],7,
{8}8,,,5,4,3/6,,,
{8},,2,2,3,,2,2,
{4}2>7[2:1],8,7<2[2:1],8,
{8},,7,7,6,,7,7,
{4}7<2[2:1],1,2>7[2:1],1,
{8},,1,,6,5,6,5,
{8}6,,3/4,3/4,,,4,,
{2}4q2[2:1],2>6[2:1],
{2}6<4[2:1],5,
{8}5/6<3[2:1],,,3,,,5,,
{4}3>6[2:1]/4,6,5,4,
{8}5/6<3[2:1],,,3,,,5,,
{4}3>6[2:1]/6,5,4,,
{8}5/6<3[2:1],,,3,,,5,,
{4}3>6[2:1]/4,6,5,4,
{8}5/6<3[2:1],,,3,,,5,,
{4}3/6,5,4/5,,
{8}3h[4:1]/4h[4:1],,,4h[4:1]/5h[4:1],,,5h[4:1]/6h[4:1],,
{4},4/7,4/7,,
{8}5h[4:1]/6h[4:1],,,4h[4:1]/5h[4:1],,,3h[4:1]/4h[4:1],,
{4},2/5,2/5,,
{8}1h[4:1]/8h[4:1],,,2h[4:1]/3h[4:1],,,4h[4:1]/5h[4:1],,
{4},3/7,3/7,,
{8}1h[4:1]/8h[4:1],,,6h[4:1]/7h[4:1],,,4h[4:1]/5h[4:1],,
{4},2/6,2/6,,
{8}4h[8:3],,,7h[8:5],,,1h[4:1],,
{4},2/6,2/6,,
{8}5h[8:3],,,2h[8:5],,,8h[4:1],,
{4},3/7,3/7,,
{8}2h[8:3],,,6h[8:5],,,5h[4:1],,
{4},4/7,4/7,,
{8}7h[8:3],,,3h[8:5],,,4h[4:1],,
{4},2/5,2/5,,
{1}3-6[4:7],
{1},
{1},
{1},
{1},
E
