&title=ようこそジャパリパークへ
&wholebpm=170
&artist=どうぶつビスケッツ×PPP「けものフレンズ」
&des=某S氏
&shortid=668
&genre=POPSアニメ
&cabinet=SD
&version=maimai MiLK
&chartconverter=Neskol
&lv_2=5
&des_2=-
&lv_3=7+
&des_3=-
&lv_4=9+
&des_4=ロシェ@ペンギン
&lv_5=12
&des_5=某S氏
&lv_6=12+
&des_6=はっぴー
&inote_2=
(170){1},
{1},
{1},
{1},
{2}1,1,
{2}2,2,
{2}3,3,
{2}4,4,
{1}4/5,
{2}6,6,
{2}7,7,
{2}8,1b/8b,
{1}1-5[4:3],
{1},
{4}6,6,6,,
{4}7,7,7,,
{1}8-4[4:3],
{1},
{4}3,3,3,,
{4}2,2,2,,
{1}1h[1:1]/2h[1:1],
{1},
{1}3h[1:1]/4h[1:1],
{1},
{4}5,5,5,,
{4}6,6,6,,
{4}7,7,7,,
{4}8,8,8,,
{1}1h[2:1]/8h[2:1],
{4}8,8,7,7,
{4}6,6,5/6,,
{4}6,6,5,5,
{4}4,4,4/5,,
{4}4,4,3,3,
{4}2,2,1/2,,
{4}2,2,1,1,
{4}8,8,1/8,,
{1}7-3[4:3],
{1},
{1}2-6[4:3],
{1},
{2}7,8,
{1}1/2,
{2}2,1,
{1}7/8,
{2}8,1,
{2}8,1b/8b,
{4}1,1,1,,
{4}2,2,2,,
{4}3,3,3,,
{4}3/4,3/4,3/4,,
{4}5,5,5,,
{4}6,6,6,,
{4}7,7,7,,
{4}7/8,7/8,7/8,,
{4}7,7,7,,
{4}6,6,6,,
{4}5,5,5,,
{4}3/4,3/4,3/4,,
{4}3,3,3,,
{4}2,2,2,,
{4}1,1,1,,
{4}7/8,7/8,7/8,,
{2}1/2,7/8,
{4}1/8,1/8,1b/8b,,
{1},
{1},
{1},
E
&inote_3=
(170){1},
{1},
{1},
{1},
{4}4/5,3,4/5,6,
{4}4/5,3/6,2/7,,
{4}5/6,5/6,3/4,3/4,
{4}2,1,8,7,
{1}1b>8[4:7]/8b,
{1},
{1},
{2}4b/5b,2b/7b,
{4}3,4,2/5,,
{4}6,5,4/7,,
{4}3,3,4,4,
{4}5,5,5/6,,
{4}7,8,1/6,,
{4}2,1,3/8,,
{4}7,8,1,2,
{1}1-3[4:1]/8-6[4:1],
{2}6h[2:1],5,
{2}3h[2:1],4,
{8}4h[4:3]/5h[4:3],,,,,,,4/5,
{8},4/5,,3/6,,3/6,,2b/7b,
{2},5/6,
{2}1/8,3/4,
{8}1h[4:3]/8h[4:3],,,,,,,1/8,
{8},2/7,,3h[8:5]/6h[8:5],,,,,
{4},1,2,3,
{4}4/5,6,4/5,3,
{4}4/5,3/6,2/7,,
{4}7/8,7/8,1/2,1/2,
{1}4-1[8:3]/5-8[8:3],
{4}1/8,2,1/8,7,
{4}1/8,2/7,3/6,,
{4}1,2,3,4,
{4}5,6,7,8,
{1}1/2-5[8:3],
{1}7-4[8:3]/8,
{1}1/2>5[8:3],
{1}7<4[8:3]/8,
{4}3,3,3,2/4,
{4}6,6,6,5/7,
{4}3,3/4,6,5/6,
{2}4h[4:1]/5h[4:1],3h[4:1]/6h[4:1],
{1}1>4[8:3]/8<5[8:3],
{2}3b/6b,1b/8b,
{4}3,2/4,1/5,,
{4}6,5/7,4/8,,
{4}1/2,1/2,7/8,7/8,
{4}1/8,1/8,2/7,,
{4}6,5/7,4/8,,
{4}3,2/4,1/5,,
{4}1/2,1/2,7/8,7/8,
{4}2h[4:1]/7h[4:1],,1/8,1b/8b,
{4}3,2/4,1/8,1/8,
{4}6,5/7,1/8,1/8,
{2}3h[4:1]/4h[4:1],5h[4:1]/6h[4:1],
{4}1/8,1/8,2/7,,
{4}3,2/4,1/8,1/8,
{4}6,5/7,1/8,1/8,
{2}1h[4:1]/2h[4:1],7h[4:1]/8h[4:1],
{4}4h[4:1]/5h[4:1],,1/8,1/8,
{1}1pp4[1:1]/8qq5[1:1],
{2},2b/7b,
{1},
{1},
{1},
E
&inote_4=
(170){1},
{1},
{1},
{1},
{8}1/2,,3/8,3/8,,5/6,,1/6,
{8},3/4,,1/8,,3,3,,
{4}5/6,1/8,3/4,1/8,
{4}5/7,5/7,2/4,2/4,
{4}1b/8b,2h[4:1],3h[4:1],4h[4:1],
{4}5h[4:1],6h[4:1],7h[4:1],8,
{4}3/6,7h[4:1],8h[4:1],1<6[4:1]*>4[4:1],
{2},2b/8b,
{4}5/6,5/6,4/7,,
{1}4/5<4[2:1],
{8}1/2,1h[8:5]/2>7[8:3],,,,,,,
{8}7/8,7<2[8:3]/8h[8:5],,,,,,,
{4}3h[4:1]/4,2-6[4:1],,,
{4}5/6h[4:1],7-3[4:1],,,
{8}1/2,1<6[4:1]/2>5[4:1],,,,,,,
{4}4/5,3/6,2b/7b,,
{8}5/7,,4/6,,5,4,5,,
{8}2/4,,3/5,,4,5,4,,
{8}6/8,,1/7,,2/8,,1/2,1-5[8:1]/2-4[8:1],
{8},,,1-6[8:1]/2-5[8:1],,,,3b/8b,
{4},3/4,1/5,4/6,
{4}2/7,5/6,4/8,3/5,
{4}2/7,2>5[4:1]/8<5[4:1],,,
{4}1/2,3/4,5/6,7/8,
{4}4/5h[4:3],1,2,3b,
{8}6,5,6,4/7,,1/8,,2/5,
{8},1/8,,5/7,,4/5,4/5,,
{4}3/4,1/6,5/6,3/8,
{2}1-6[8:1]/2-5[8:1],1b/7b,
{8}3,4,3,2/5,,1/8,,4/7,
{8},1/8,,2/4,,4/5,4/5,,
{4}5/6,3/8,3/4,1/6,
{4}4/6,2v5[4:1]/8v5[4:1],,,
{1}1b<6[8:3]/2bp5[8:3],
{1}7q4[8:3]/8>3[8:3],
{1}2V84[2:1]/5V74[2:1],
{1}4V25[2:1]/7V15[2:1],
{2}7h[4:1]/8-5[8:1],1-4[8:1]/2h[4:1],
{2}6h[4:1]/8-5[8:1],1-4[8:1]/3h[4:1],
{4}5/6h[4:1],7,3h[4:1]/4,2,
{2}7h[4:3],2h[4:1],
{4}1b/8b,6h[4:1],7h[4:1],8<5[4:1]*>3[4:1],
{2},1b/7b,
{8}3,4,3,2/5h[8:3],,8,8,,
{8}6,5,6,4h[8:3]/7,,1,1,,
{4}3-1[8:1]/4-6[8:1],,7/8,1/6,
{4}5-3[8:1]/6-8[8:1],,1/2,3/8,
{8}7,8,7,1h[8:3]/6,,4,4,,
{8}2,1,2,3/8h[8:3],,5,5,,
{2}1-4[8:1]/7-4[8:1],2-4[8:1]/8-4[8:1],
{4}1/3,4/5,7b,7b,
{4}2/8,1/7,2/8,1/7,
{4}3/8,1/6,3/8,1/6,
{4}3-1[8:1]/4-6[8:1],,7/8,2/5,
{4}5-3[8:1]/6-8[8:1],,1/2,4/7,
{4}7b/8b,1/2,7/8,1/2,
{4}1/5,3/8,1/6,4/8,
{2}2h[4:1]/5-1[8:1],4-8[8:1]/7h[4:1],
{4}4/5,1/8,1b/2b,7b/8b,
{2}3h[4:1]/4h[4:1],5h[4:1]/6h[4:1],
{4}2/5,4/7,1b/8b,,
{1},
{1},
{1},
E
&inote_5=
(170){1},
{8},,,,,,,1-5[8:11]/5<4[8:11],
{1},
{1},
{8}2/8,3,4,1/7,,6,5,1/8,
{8},4,5,2/7,,1/8,2/7,3/6,
{4}4/5w1[8:1],5,1/8w4[8:1],8,
{4}1>5[4:1],5<1[4:1],1q4[4:1],5,
{16}8,,6,5,6,,3,4,3,,6,5,6,,2,4,
{16}3,,7,5,6,,2,4,3,,7,5,6,,2,1,
{16}2,,7,8,7,,2,1,2,,7,8,7,,1,8,
{2}2-5[8:1]/7-4[8:1],1b/7b,
{16}4/7,,6,,5,,6,,1h[16:3]/7,,,2,,,2/8h[4:1],,
{16},,7,,8,,1,,2h[16:3],,,3h[16:3],,,4,,
{16}2/5,,3,4,3,,6,5,6,,2,4,3,,7,5,
{16}6,,2,1,2,,7,8,7,,2,8,2,,7,1,
{16}7,,5,,4,,3,,1h[16:3]/2,,,8,,,7h[4:1],,
{16},,2,8,1,,7,1,8h[16:3],,,7h[16:3],,,6,,
{16}4/7,,6,5,6,,3,4,3,,5,4,5,,3/6,,
{4}4/5,1/8,2/7,1b,
{8}3V15[4:1]/6V84[4:1],,,,,,2/7,6,
{8}4,5,3,6,2-6[8:1]/7-3[8:1],,,,
{8}4/5h[4:1],,6,6,7h[4:1],,1,3/8,
{8},2/5,,4/7,,3qq5[8:3]/6pp4[8:3],,3b/6b,
{8},,,2,2,,3qq7[8:3]/8h[4:1],,
{8},,,5,5,,6,5,
{8}4/7,,1/8,2pp3[8:1]/7qq6[8:1],,,,1/8,
{16},,2/7,,2,,3,4,3,,5,,6,,7,,
{4}1/8,1b,2b,3b,
{8}4/8,3/7,2/6,1h[4:1]/5,,2,8,3qq1[8:1]/7qq5[8:1],
{8},,,2/6,,4/5,4/5q2[8:1],,
{4}3>8[8:1],6<1[8:1],4p7[8:1],5,
{8}1b/7b,4b/5b,2b/8b,4b/5b,2b/7b,8,8,,
{8}1/5,2/6,3/7,4/8h[4:1],,7,1,2v4[8:1]/6v8[8:1],
{8},,,3v1[8:1]/7v5[8:1],,,,,
{4}1>5[4:1],5<3[4:1]*q3[4:1],,,
{4}8<4[4:1],4>6[4:1]*p6[4:1],,,
{4}4h[2:1]/5h[4:11],,,6<2[8:3],
{4},,,3>7[8:3],
{4},,,7<3[4:1]*p3[4:1],
{2},2b,
{2}5>2[8:1]/6,3/4<7[8:1],
{2}7<3[8:1]/8,1/2>6[8:1],
{8}2/7,,4/6,4/6,3/5,3/5,4/7,4/7,
{2}2h[4:1]/5h[4:1],3h[4:1]/8h[4:1],
{16}1/7,,6,5,6,,3,4,3,,7,8,7,,1,8,
{2}2-5[8:1]/7-4[8:1],2b/8b,
{8}2<8[8:1]/5,5,5,5,4/7>1[8:1],4,4,4,
{8}2<8[8:1]/5,5,5,5,4/7>1[8:1],4,4,4,
{2}3q8[8:1]/4<7[8:1],5>2[8:1]/6p1[8:1],
{8}3/4,3qq8[16:7]/4pp7[16:7],3/4,3/4,,,,,
{8}4/7>1[8:1],4,4,4,2<8[8:1]/5b,5,5b,5,
{8}4/7>1[8:1],4,4,4,2<8[8:1]/5b,5,5b,5,
{4}7-2[8:1],3,1-6[8:1],4,
{4}4h[4:1]/5p4[4:1],,1b,1b,
{8}2>5[8:1],2,8,8,7b<4[8:1],7,1b,1,
{8}2>5[8:1],2,8,8,7b<4[8:1],7,1b,1,
{4}2-5[8:1],8<1[4:1],4,8,
{8}5/6,5qq2[16:7]/6pp1[16:7],5/6,5/6,,,,,
{8}7<4[8:1],7,1,1,2b>5[8:1],2,8b,8,
{8}7<4[8:1],7,1,1,2b>5[8:1],2,8b,8,
{4}7h[4:1],8,1-5[8:1]/6,5<4[4:1],
{4},,1b/8b,1b/8b,
{8}3-7[8:1]/5,,8,,4/6-2[8:1],,1,1,
{8},3/6,1>4[8:1]/8<5[8:1],,1b/8b,,,,
{1},
{1},
{1},
E
&inote_6=
(170){1},
{8},,,,,,,2<7[16:9],
{16},,,,,,,,,6-2[16:15]*-3[16:15],,,,,,,
{1},
{8}2/4,5,6,5/7,,4-1[8:1]*<6[8:1],4,,
{8},6pp5[8:3],6,5,,4,4,,
{4}5-8[8:1]/7,4/5,2/4-1[8:1],4/5,
{4}8<4[4:1],4>8[4:1],8<4[4:1],4,
{16}2b,,2,,3,,3,,8,,6,5,6,5,6,5,
{16}7,,7,,6,,6,,1,,3,4,3,4,3,4,
{16}2,,2,,3,,3,,8,,6,5,6,5,7,,
{2}7q5[8:1]/8>2[8:1],1b/6b,
{16}3/6,,4-1[8:1],,5-8[8:1],,,,,,,1,,,1/8,,
{16},,3<6[8:1],,3,,7,,7h[16:3],,,6h[16:3],,,5,,
{8}4,2p5[4:1]/6-3[4:1],2/6,,,,,,
{8}4,2p5[4:1]/6-3[4:1],2/6,,,,,,
{16}2/7,,8-4[8:1],,1-5[8:1],,,,,,,6,,,6h[4:1],,
{16},,4,5,3,,5,4,5h[16:3],,,6h[16:3],,,7,,
{8}7h[2:1],5,4V27[8:3],4,,,,,
{4}1-3[8:1]/8-6[8:1],1-4[8:1]/8-5[8:1],1/8,4bqq4[8:3]/5bpp5[8:3],
{8},,,,7,8,1,2,
{2}3-8[8:1]/4-7[8:1],2-5[8:1]/7-4[8:1],
{8}5pp5[4:1],,5qq5[4:1],,,,1,1/8,
{8},2/4,,5/7,,1-5[8:1]/8v5[8:1],,1b/8b,
{8},,,6,5/7,,4/5<1[4:1],,
{8}3h[4:1],,,3,2/4<8[4:1],,8>4[4:1],,
{8}4,,8,8<4[8:1]*>4[8:1],,,,2/6,
{8},3pp8[2:1]/4V68[2:1],3/4,,,,,,
{4}4/5,1b,2b,3b,
{8}2/4,5>2[8:1],6,7,,4-1[8:1]*<6[8:1],4,,
{8},6pp5[8:3],6,5,,4,4,,
{4}5-8[8:1]/6,2/5,3/4-1[8:1],4/7-1[8:1],
{8}8v3[8:1]*v5[8:1],,8b,,1b/8b,2b/7b,3b/6b,,
{8}3/5,4,5/7,8-5[8:1],,4qq4[4:1],4,5,
{8},5-8[8:1],5,1pp1[4:1],,8,7,6,
{2}1>4[8:1]/5<8[8:1],4>1[8:1]/8<5[8:1],
{2}1-4[8:1]/5-8[8:1],4v1[8:1]/8v5[8:1],
{8}1b/5b,,,4/5,,7>2[8:7],5,4,
{4}2,7b,8b,1b,
{16}7<4[8:1],,,8,,,1,,2>5[8:1],,,1,,,8,,
{8}5p1[8:3]/7p1[8:3],,,,,,,1/8,
{8}1-4[8:1],,5,6,7/8q4[8:1],,6,7,
{8}8-5[8:1],,4,3,1p5[8:1]/2,,3,2,
{8}1/8,,4/5,4>1[8:1]/5<8[8:1],,,,2,
{4}2h[4:1],1<3[2:1],3,2,
{8}8b,1,2/5,3,4/7,6,2/5,1,
{2}7q5[8:1]/8>2[8:1],1b/6b,
{8}5>1[4:1]/6,7,6,5,4<8[4:1],2,3,4,
{8}5>1[4:1],7,6,5,4<8[4:1],,8>4[4:1],,
{4}4<8[4:1],8>4[4:1],4,8,
{8}1q5[8:1],1,6pp5[8:3],6,5,5,4,4,
{8}3/4<8[4:1],2,3,4,5>1[4:1],7,6,5,
{8}4<8[4:1],2,3,4,5,6,7,8,
{8}2-4[8:1]/7-5[8:1],,,,1/8q1[16:7],,1,2,
{8}3,,8,1,2b/7b,,2b/7b,,
{8}3/8,7,1/6,2,3h[8:1]/8h[8:1],,3h[8:1]/8h[8:1],,
{8}1/6,2,3/8,7,1h[8:1]/6h[8:1],,1h[8:1]/6h[8:1],,
{2}3-8[8:1]/7-4[8:1],2-5[8:1]/6-1[8:1],
{8}1q5[8:1],1,6pp5[8:3],6,5,5,4,3,
{8}1/6,2,3/8,7,1h[8:1]/6h[8:1],,1h[8:1]/6h[8:1],,
{8}3/8,7,1/6,2,3h[8:1]/8h[8:1],,3h[8:1]/8h[8:1],,
{8}6-3[8:1],,2-7[8:1],,5-8[8:1],,1>8[2:1],1,
{8}8,,,1,1,,3/7>2[4:1],,
{8}2-6[4:1],,6-3[4:1],,2,,1,1q5[4:1],
{8},6,6pp5[8:3],,2b,,,,
{1},
{1},
{1},
E
