&title=しねばいいのに
&wholebpm=138
&artist=どぶウサギ
&des=はっぴー
&shortid=683
&genre=niconicoボーカロイド
&cabinet=SD
&version=maimai MiLK
&chartconverter=Neskol
&lv_2=3
&des_2=-
&lv_3=7
&des_3=-
&lv_4=10
&des_4=LabiLabi
&lv_5=13
&des_5=はっぴー
&des_6=
&inote_2=
(138){1},
{1},
{1}6,
{1}5,
{1}4,
{1}3,
{1}3,
{1}4,
{1}5,
{1}6,
{1}4/5,
{2}3,3,
{2}2,2,
{2}1,1,
{2}8,1/8,
{2}7,7,
{2}6,6,
{2}5,5,
{2}4,4/5,
{2}5,5/6,
{2}4,3/4,
{2}5,5/6,
{2}4,3/4,
{1}5h[1:1],
{1},
{1}6h[1:1],
{1},
{1}7h[1:1],
{1},
{1}8h[1:1],
{1},
{2}1,1,
{2}2,2,
{4}3,3,4,,
{4}3,3,4,,
{2}5,5,
{2}6,6,
{4}7,7,8,,
{4}7,7,8,,
{1}1-4[4:3],
{1},
{1}1-5[4:3],
{1},
{1}8-5[4:3],
{1},
{1}8-4[4:3],
{1},
{1}1/8,
{4}1,1,1,,
{4}2,2,2,,
{4}3,3,3,,
{4}4,5,4/5,,
{4}5,5,5,,
{4}6,6,6,,
{4}7,7,7,,
{4}8,1,1/8,,
{4}8,8,8,,
{4}7,7,7,,
{4}6,6,6,,
{4}4/5,4/5,4/5,,
{4}4,4,4,,
{4}3,3,3,,
{4}2,2,2,,
{4}1/8,1/8,1/8,,
{1}1h[2:1]/8h[2:1],
{1}1b/8b,
{1},
{1},
{1},
E
&inote_3=
(138){1},
{1},
{2}2,3,
{2}4,4/5,
{2}5,6,
{4}7,7,7/8,,
{2}7,6,
{2}5,4/5,
{1}4qq1[4:5]/5pp8[4:5],
{1},
{1}1h[2:1]/8h[2:1],
{4}2,2,1,,
{4}7,7,8,,
{4}2,2,1,1,
{4}8,8,7/8,,
{4}6,6,5,,
{4}3,3,4,,
{4}6,6,5,5,
{4}4,4,3/4,,
{4}3,3,2,2,
{4}1,1,7/8,,
{4}6,6,7,7,
{4}8,8,1/2,,
{4}2,1,8,,
{4}7,8,1,,
{4}2,3,4/5,4v1[2:1]/5,
{1},
{4}7,8,1,,
{4}2,1,8,,
{4}7,6,5/6,5/6-3[8:3],
{1},
{4}2,1,7/8,,
{4}7,8,1/2,,
{4}2,3,4/5,4-1[8:3]/5-8[8:3],
{1},
{4}7,8,1/2,,
{4}2,1,7/8,,
{4}7,6,5/6,5/6q3[2:1],
{1},
{2}2h[2:1],3h[2:1],
{2}4h[2:1],5,
{2}4h[2:1],5h[2:1],
{2}6h[2:1],7,
{2}7h[2:1],6h[2:1],
{2}5h[2:1],4,
{2}5h[2:1],4h[2:1],
{2}3h[2:1],2,
{1}1b/8b,
{4}7b,7,7/8,7/8,
{4}2,2,1/2,1/2,
{4}7h[4:1],8,2h[4:1],1,
{4}1/8,1/8,2/7,,
{4}3,3,3/4,3/4,
{4}6,6,5/6,5/6,
{4}3h[4:1],4,6h[4:1],5-1[2:1],
{1},
{4}1b/2b,1/2,1/2,1/2,
{4}7/8,7/8,7/8,7/8,
{2}1h[4:1]/2h[4:1],7h[4:1]/8h[4:1],
{4}1/8,1/8,2/7,,
{4}5/6,5/6,5/6,5/6,
{4}3/4,3/4,3/4,3/4,
{2}5h[4:1]/6h[4:1],3h[4:1]/4h[4:1],
{1}4-1[8:3]/5-8[8:3],
{1}1h[4:3]/8h[4:3],
{1}1b/8b,
{1},
{1},
{1},
E
&inote_4=
(138){1},
{1},
{1}3h[1:1],
{1}4h[1:1],
{1}5h[1:1],
{1}6h[1:1],
{1}3h[1:1],
{1}4h[1:1],
{1}5h[1:1],
{1}6h[1:1],
{2}3,3/6,
{8}4,,6,,8,8,1,,
{8}5,,3,,1,1,8,,
{8}3,3,2/4,,6,6,5/7,,
{4}4>1[4:1]*<7[4:1],,,3/8,
{8}5,,3,,1,1,8,,
{8}4,,6,,8,8,1,,
{8}7,7,6/8,,2,2,1/3,,
{4}5>2[4:1]*<8[4:1],,,1/6,
{4}3/6<3[4:1],,,2/7,
{4}3>6[4:1]/6,,,2/7,
{4}3/6<3[4:1],,,2/7,
{1}1pp4[2:1]/8qq5[2:1],
{1}3-6[2:1]*p6[2:1],
{4}4h[4:1],5h[4:1],4h[4:1],5,
{1}8-5[2:1]*z4[2:1],
{4}5-7[4:1]*qq3[4:1],,,4/5,
{4}4-1[4:1]/5-8[4:1],,,1/8,
{4}4/6-2[4:1],,,3/4,
{4}4-1[4:1]/5-8[4:1],,,1/8,
{8}8b,,8b,,8b,8b,8b,,
{4}2p6[4:1]/7h[2:1],,,1/2,
{4}2h[2:1]/7q3[4:1],,,7/8,
{4}3b,3b,4b,2/5,
{4}1-5[4:1]/7-3[4:1],,,2/8,
{1}3bpp5[4:1]/4b,
{1}3bp5[4:1]/4b,
{1}2bp5[4:1]/4b,
{1}3b>5[2:1]/4bp5[2:1],
{4}4h[2:1],2,5h[2:1],7,
{1}4w8[2:1],
{4}5h[2:1],7,4h[2:1],2,
{1}5w1[2:1],
{4}4h[4:1],2h[4:1],1h[4:1],8h[4:1],
{1}7w3[2:1],
{4}5h[4:1],7h[4:1],8h[4:1],1h[4:1],
{1}2w6[2:1],
{4}2/7,4b,7b,8b,
{4}3-1[8:1]/4-7[8:1],,3/4,2/6,
{4}3-1[8:1]/4-7[8:1],,3/4,2/6,
{2}5-1[8:1]/6-8[8:1],5-1[8:1]/6-8[8:1],
{4}5>2[4:1]/6<1[4:1],,,3/4,
{4}3-1[8:1]/4-7[8:1],,3/4,2/6,
{4}3-1[8:1]/4-7[8:1],,3/4,2/6,
{2}7-5[8:1]/8-4[8:1],7-5[8:1]/8-4[8:1],
{4}7<4[4:1]/8>3[4:1],,,7/8,
{2}1-4[8:1]/2,7/8-5[8:1],
{2}1-5[8:1]/2,7/8-4[8:1],
{2}1-6[8:1]/2,7/8-3[8:1],
{8}5h[2:1],,4h[4:1],,,2/7,2/7,,
{2}5-8[8:1]/6,3/4-1[8:1],
{2}5-1[8:1]/6,3/4-8[8:1],
{2}5-2[8:1]/6,3/4-7[8:1],
{4}1/8,2/7,3/6,4/5,
{1}4qq1[2:1]/5pp8[2:1],
{1}2b/7b,
{1},
{1},
{1},
E
&inote_5=
(138){1},
{4},8,1,2<7[8:5],
{4},6>3[8:5],,2<7[8:5],
{4},6>3[8:5],,2<7[8:5],
{4},6>3[8:5],,2qq7[2:1],
{4},,,7>2[8:5],
{4},3<6[8:5],,7>2[8:5],
{4},3<6[8:5],,7>2[8:5],
{4},3,5,8p2[8:3],
{2},8-5[8:1],
{8}2pp6[2:1]/7V16[2:1],,,,,,,1/8,
{4}1b/8b,3/4-1[8:1],,5-8[8:1]/6,
{4},3/4-1[8:1],,5/6h[4:1],
{4}8h[4:1],1h[4:1],3h[4:1],1h[4:1],
{4}8h[4:1],6h[4:1],5,3/4-1[8:1],
{4}2,5-8[8:1]/6,7,3/4-1[8:1],
{4}2,5-8[8:1]/6,7,3h[4:1]/4,
{4}1h[4:1],8h[4:1],6h[4:1],8h[4:1],
{4}1h[4:1],3h[4:1],4,4/5<4[2:1],
{4}1h[2:1],,,4>5[2:1]/5,
{4}8h[2:1],,,4/5<4[2:1],
{4}1h[2:1],,,1/8,
{16}2/4,,,4/5,,,5/7,,,1/8,,,1<6[4:1]/3v6[4:1],,,,
{4},,5h[8:1]/6h[8:1],5h[8:1]/6h[8:1],
{4}3h[8:1]/4h[8:1],3h[8:1]/4h[8:1],5h[4:1]/6,8b,
{2}8b-5[8:1]*z4[8:1],8b-5[8:1]*z4[8:1],
{2}8b-5[8:1]*z4[8:1],8b-5[8:1]*z4[8:1],
{4}1h[2:1]/8h[2:1],,,2/7,
{4}3/6,4/5>1[8:3]*V31[8:3],,,
{2}7w3[8:1],7w3[8:1],
{2}7w3[8:1],7w3[8:1],
{8}1/8,1/8,1/8,,2/7,,5b,,
{4}7z3[8:3],,,1>3[8:1]/5,
{4}6,1>5[8:1]/5,7,1>7[4:1]/5,
{4}8,1,1-5[8:1]/8-4[8:1],,
{4}3h[4:1]/7,7h[4:1],3h[4:1],7h[4:1],
{4}2h[4:1],6h[4:1],1h[4:1],5h[4:1],
{4}8h[4:1],4h[4:1],7h[4:1],3h[4:1],
{4}6h[4:1],2h[2:1],,5b,
{2}3h[2:1]/4,2h[4:5],
{1}1h[4:3],
{2}5/6h[2:1],7h[4:5],
{1}8h[4:3],
{4}3h[2:1]/4,2,2h[4:5],1,
{4}1,1,1h[4:1],,
{4}5/6h[2:1],7,7h[2:1],8,
{16}8,,,5/6,,,3/4,,,1/2,,,4/5,,4/5,,
{4}2/7,,,3b>1[8:1]/8b<6[8:1],
{4},1>3[8:1]/6<8[8:1],,3>1[8:1]/8<6[8:1],
{4},1>3[8:1]/6<8[8:1],,3/8,
{4}1/6,3/8,1/6,3/8,
{4}1h[8:1]/6h[8:1],3h[8:1]/8h[8:1],4h[8:1]/5h[8:1],1>3[8:1]/6<8[8:1],
{4},3>1[8:1]/8<6[8:1],,1>3[8:1]/6<8[8:1],
{4},3>1[8:1]/8<6[8:1],,5-2[8:1]/6-1[8:1],
{4},3-8[8:1]/4-7[8:1],,5q4[8:5]/6<4[8:5],
{4},,,1/6,
{32}1b/6b,2/7,3/8,,,,,,3b/8b,2/7,1/6,,,,,,1/6,2/7,3/8,,,,,,3/8,2/7,1/6,,,,,,
{32}1/6,2/7,3/8,,,,,,3/8,2/7,1/6,,,,,,1/6,2/7,3/8,,,,,,3/8,2/7,1/6,,,,,,
{4}1h[8:1]/6h[8:1],1/6,3h[8:1]/8h[8:1],3/8,
{4}1/6,3/8,1/6,3/8,
{32}3b/8b,2/7,1/6,,,,,,1/6,2/7,3/8,,,,,,3/8,2/7,1/6,,,,,,1/6,2/7,3/8,,,,,,
{32}3/8,2/7,1/6,,,,,,1/6,2/7,3/8,,,,,,3/8,2/7,1/6,,,,,,1/6,2/7,3/8,,,,,,
{32}4b/7b,3/6,2/5,,,,,,2b/5b,3/6,4/7,,,,,,4/7,3/6,2/5,,,,,,2/5,3/6,4/7,,,,,,
{32}4/7,3/6,2/5,,,,,,2/5,3/6,4/7,,,,,,4/7,3/6,2/5,,,,,,2/5,3/6,4/7,,,,,,
{32}8,7,6,5,4,3,2,1,8,7,6,5,4,3,2,1,8,7,6,5,4,3,2,1,8,,,,2b/7b,,,,
{1}2b/7b,
{1},
{1},
{1},
E
