&title=Ultranova
&wholebpm=156
&artist=A4paper
&des=小鳥遊さん
&shortid=632
&genre=maimai
&cabinet=SD
&version=maimai MURASAKi PLUS
&chartconverter=Neskol
&lv_2=6
&des_2=-
&lv_3=8+
&des_3=-
&lv_4=12+
&des_4=Jack
&lv_5=14
&des_5=小鳥遊さん
&des_6=
&inote_2=
(156){1},
{1},
{1},
{1},
{1},
{2}1,1,
{2}2,2,
{4}3,3,3,3,
{1}4b/5b,
{4}5,5,5,,
{4}6,6,6,,
{4}7,7,7,,
{4}8,8,1,1,
{4}8,8,8,,
{4}7,7,7,,
{4}6,6,6,,
{4}5,5,4,4b,
{4}5,5,4/5,,
{4}3,3,3/4,,
{4}2,2,1/2,,
{4}8,8,1,1,
{4}8,8,1/8,,
{4}2,2,1/2,,
{4}3,3,4,4,
{4}5,5,6,6,
{1}4-1[4:3],
{1},
{1}8h[1:1],
{1},
{1}1h[1:1],
{1},
{1}7h[1:1],
{1},
{1}2h[1:1],
{1},
{1}8-5[4:3],
{1},
{1}1-4[4:3],
{1},
{1}7-4[4:3],
{1},
{1}2-5[4:3],
{1},
{2}8,8,
{2}7,7,
{2}6,6,
{2}5,4/5,
{4}4,4,4,,
{4}3,3,3,,
{4}2,2,1,1,
{4}8,8,2b/7b,,
{4}2,2,2,,
{4}3,3,3,,
{4}4,4,5,5,
{4}4,5,4,,
{4}5,5,5,,
{4}6,6,6,,
{4}7,7,8,8,
{4}1,8,1b,,
{4}8,8,1/8,,
{4}7,7,7/8,,
{4}6,6,5,5,
{4}4,4,5,5,
{4}4,4,4/5,,
{4}3,3,3/4,,
{4}2,2,1,1,
{4}8,8,7,7,
{1}1-5[4:3],
{1},
{1}8-4[4:3],
{1},
{4}2,2,2,,
{4}3,3,3,,
{4}4,4,5,5,
{4}3,3,6,6,
{1}4b/5b,
{1},
{1},
{1},
E
&inote_3=
(156){1},
{4}2h[4:1],1,7/8,,
{4}1/2,7/8,1/8,,
{4}7h[4:1],8,1/2,,
{4}1/8,2/7,3/6,4/5,
{4}6h[4:1],5,3/4,,
{4}5/6,3/4,4/5,,
{4}3h[4:1],4,6h[4:1],5,
{4}3>8[16:5]/4,,,7b,
{4}7,8,7/8,,
{4}2,1,1/2,,
{4}7,7/8,2,1/2,
{4}8,7,6,5,
{4}3,4,3/4,,
{4}6,5,5/6,,
{4}3,3/4,6,5/6,
{4}3,3/4,2/5,,
{4}5,6,5/7,,
{4}4,3,2/4,,
{4}1,2,1/3,,
{4}8,7,6/8,,
{4}6,5/6,7,7/8,
{4}2,1/2,3,3/4,
{4}5,4/6,3,2/4,
{4}6,5/7,2,1/3,
{1}1bpp4[1:1]/8bqq5[1:1],
{1},
{1}4b/5b,
{1}4h[1:1],
{1}3h[1:1],
{2}2,1,
{1}8h[1:1],
{1}7h[1:1],
{1}6h[1:1],
{2}5,4/5,
{1}4h[1:1],
{1}5h[1:1],
{1}6h[1:1],
{2}7,8,
{2}1,1/2,
{2}2,2/3,
{2}3,3/4,
{2}4,4/5,
{1}5>2[2:1],
{4}1,1,1/8,,
{1}1<6[2:1],
{4}5,5,4/5,,
{1}3-8[8:3]/4-7[8:3],
{1}1-6[8:3]/2-5[8:3],
{4}3,2/4,6,5/7,
{4}1/3,6/8,2b/7b,,
{4}3,3/4,6,5/6,
{4}3/4,5/6,3/4,2,
{4}2,1/2,7,7/8,
{4}1/2,7/8,1/2,,
{4}3,3/4,2,1/2,
{4}3/4,1/2,3/4,5,
{4}6,5/6,7,7/8,
{1}5>2[8:3]/6<1[8:3],
{4}7h[4:1],8,2h[4:1],1,
{4}7/8,1/2,3/4,5,
{4}6h[4:1],5,3h[4:1],4,
{4}5/6,3/4,1/2,,
{4}7h[4:1],8,6h[4:1],5,
{4}7/8,5/6,3/4,2,
{4}2h[4:1],1,3h[4:1],4-8[4:1],
{4},,1/8,2b/7b,
{4}6h[4:1],5,3/4,,
{4}5/6,3/4,3/6,,
{4}3h[4:1],4,5/6,,
{4}3/4,2/5,1/6,7/8,
{4}2h[4:1],1,7/8,,
{4}1/2,7/8,3/6,,
{4}7h[4:1],8,2h[4:1],1,
{4}7h[4:1],6h[4:1],5h[4:1],4w8[4:3],
{1},
{1},
{1},
E
&inote_4=
(156){1},
{16}2h[16:3],,,3h[16:3],,,4,,,,7,,6,,5,,
{8}4,3,1/2,1-5[8:1]/2-6[8:1],,,,,
{16}7h[16:3],,,6h[16:3],,,5,,,,4,,5,,6,,
{8}7/8,7-3[8:1]/8-4[8:1],,,,1/6,1/6,,
{16}2h[16:3],,,3h[16:3],,,4h[4:1],,,,2,,1,,8,,
{16}7h[16:3],,,6h[16:3],,,5h[4:1],,,,7,,8,,1,,
{16}2h[16:3],,,3h[16:3],,,4h[4:1],,,,2,,1,,8,,
{4}7-4[8:1],2-6[8:1],8-4[8:1],1b,
{8}3,3,2/4,,8,8,2,2,
{8}6,6,5/7,,1,1,7,7,
{8}3,3,4,2,2-5[8:1],,8,,
{8}6,6,5,7,7-4[8:1],,1,,
{8}3,3,2/4,,8,8,2,2,
{8}6,6,5/7,,1,1,7,7,
{8}3,3,4,2,2-5[8:1],,8,,
{8}6,6,5,7,7-4[8:1],,1,,
{4}2h[4:3],5,7,1,
{8}7,5,6,2,4,3,6,5,
{8}7h[4:1],,8,,5/6,3,4,3,
{16}1/2,,,,4/5,,,,7h[16:3],,,6h[16:3],,,5,,
{8}4,4,6,6,2,2,8,8,
{8}1/7,1/7,1/7,2/8,2/8,2/8,1-5[8:1],,
{8}6,6,7,7,8,8,1,1,
{16}2/7,,2/7,,3/6,,3/6,,4,5,4,5,4,5,4,5,
{1}4>5[4:5],
{1},
{1}2-5[8:9]/7b,
{1}7-2[8:9],
{1}4-7[8:9],
{2}8h[2:1],1h[2:1],
{1}7-4[8:9],
{1}2-7[8:9],
{1}5-2[8:9],
{2}1h[2:1],8h[2:1],
{2}1>4[4:1],6<1[4:1],
{2}3<6[4:1],8>3[4:1],
{2}5<8[4:1],2>5[4:1],
{2}7>2[4:1],3<6[4:1],
{4}7pp2[2:1],,4,3,
{4}2pp5[2:1],,7,6,
{4}5pp8[2:1],,3,2,
{4}1pp4[2:1],,5,6,
{16}7h[16:3],,,6h[16:3],,,5h[16:3],,,4h[16:3],,,5,,3/4,,
{16}2h[16:3],,,3h[16:3],,,4h[16:3],,,5h[16:3],,,4,,5/6,,
{16}7h[16:3],,,6h[16:3],,,5h[16:3],,,4h[16:3],,,5,,2/3,,
{16}1h[16:3],,,3h[16:3],,,4h[16:3],,,5h[16:3],,,4,,6/7,,
{2}5-1[8:1]/8h[4:1],1h[4:1]/4-8[8:1],
{16}1/8,,1h[8:1]/8h[8:1],,,2h[8:1]/7h[8:1],,,3h[8:1]/6h[8:1],,,4h[8:1]/5h[8:1],,,4q5[8:5]/5<4[8:5],,
{1}4/5,
{4}4qq1[8:3]/5pp8[8:3],,,2b/7b,
{16}1/8,,2,3,,3,4,,4,5,,5,6,,5/7,,
{16}4/8,,7,6,,6,5,,5,4,,4,3,,2/4,,
{16}1/5,,2,3,,3,4,,4,5,,5,6,,5/7,,
{16}4/8,,7,6,,6,5,,5,4,,4,3,,2/4,,
{16}1/8,,2,1,,7,8,,2,1,,7,8,,3/4,,
{16}5/6,,3,1,,6,8,,3,1,,6,8,,3/4,,
{16}5/6,,4,1,,5,8,,4,1,,5,8b-4[8:1],,,,
{16}2b,,,6b,,,1b/3b,,,6b/8b,,,4/5,,3/6,,
{8}2/7h[4:1],1,8,7,6,5,4,3,
{8}2h[4:1]/7,8,1,2,3,4,5,6,
{8}2/7h[8:3],3,4,5h[8:3],6,7,8h[4:1],4,
{8}2h[8:3],6,5,4h[8:3],3,2,1h[4:1],6,
{8}8,7,6,4/5,3,2,1/8,7,
{8}6/8,5,4,1/3,2,1/5,2/6,3/7,
{16}4h[8:1]/8h[8:1],,,1h[8:1]/5h[8:1],,,4/8,,3/7,,2/6,,1b-5[8:1]/5,,,,
{16}7b,,,3b,,,6b/8b,,,1b/3b,,,4/5,,3/6,,
{1}2qq5[4:5]/7pp4[4:5],
{1},
{16}2h[16:3],,,4h[16:3],,,5-1[8:1],,,,8,,8,,,,
{16}7h[16:3],,,5h[16:3],,,4-8[8:1],,,,1,,1,,,,
{8}2-6[8:1]/8,,4,,7,5,4,2,
{8}1/7-3[8:1],,5,,2,4,5,7,
{8}2-5[8:1],2,7-3[8:1],7,1-5[8:1],1,8,,
{16}6/8,,,1/3,,,5/7,,,2/4,,,3/6,,2/7,,
{1}1b/8b,
{1},
{1},
{1},
E
&inote_5=
(156){1},
{16}3,2/4,,6,5/7,,1/8-4[8:1],,,,4/8,,3,,2,,
{16}1/8,,4,5,4,,2-4[8:1]/7,,,,2b/6,,7,,8,,
{16}6,5/7,,3,2/4,,1-5[8:1]/8,,,,1/5,,6,,7,,
{8}1h[4:1]/8,3,8h[4:1],6,2h[4:1],4,8,4,
{16}3,2/4,,6,5/7,,1/8-4[8:1],,,,4/8,,3,,2,,
{16}6,5/7,,3,2/4,,1-5[8:1]/8,,,,1/5,,6,,7,,
{96}1,,,,,,8,,,,,,1,,,,,,8,,,,,,1,,,,,,8,,,,,,1,,,,,,8,,,,,,1,,2,,3,,4,,5,,6,,7,,8,,1b,,,,,,,,,,,,,,,,,,,,8,,,7,,,6,,,5,,,
{8}4-8[8:1],3,4/5-1[8:1],6,4-8[8:1]/5,3,4b/5b,,
{16}2,4,,3,5,,4,6,,3,4,3,4,,2/8,,
{16}7,5,,6,4,,5,3,,6,5,6,5,,1/7,,
{16}2,1,3,,6,5,6,5,4/7,,3,4,2,,1/5,,
{16}7,8,6,,3,4,3,4,2/5,,6,5,7,,4/8,,
{16}2,4,,3,5,,4,6,,3,4,3,4,,2/8,,
{16}7,5,,6,4,,5,3,,6,5,6,5,,1/7,,
{16}2,1,3,,6,5,6,5,4/7,,3,4,2,,1/5,,
{16}4,5,4,,8,1,8,2/7,,1/8,1/8,,1/5,2/6,3/7,4/8,
{8}1/5h[1:1],8,7,6,4,3,2,1,
{8}2h[8:3],3,4,5h[8:3],6,7,8h[4:1],7,
{8}6h[8:5],7,8,1,2,1h[4:1],2,3h[8:5],
{16}4,,5,,6,,7,,6,,5,,6,3,6,3,
{8}4/5,4/5,3/6,3/6,2/7,2/7,1/8,1/8,
{16}8-4[8:1],1,7,2,8,,1-5[8:1],1,,,1/5,,8,7,6,5,
{48}4,,,5,,,4,,,5,,,4b,3,2,1,,,,,,,,,5b,6,7,8,,,,,,2b,3,4,,,,,,,7b,6,5,,,,
{32}1,2,3,4,5,6,7,8,1,2,3,4,5,6,7,8,1,2,3,4,5,6,7,8,1,2,3,4,5,6,7,8,
{1}1bpp7[2:3]/5bpp3[2:3],
{1},
{1}3h[4:7]/8qq2[2:1],
{1}2qq5[2:1],
{1}1pp7[2:1]/6h[4:7],
{2}7v4[8:1],4v1[8:1],
{1}1V36[2:1]/5V72[2:1],
{1}4V27[2:1]/8V63[2:1],
{1}3v5[2:1]*V15[2:1],
{1}8-4[2:1]*V62[2:1],
{16}2h[1:1],,,4,,,5,,,6,,,7,,8,,
{16}7h[1:1],,,5,,,4,,,3,,,2,,1,,
{16}2h[1:1],,,3,,,4,,,5,,,6,,7,,
{16}7h[1:1],,,6,,,5,,,4,,,3,,2,,
{16}3h[1:1],,,5,5,,6,,,7,,,8,,7,,
{16}6h[1:1],,,4,4,,3,,,2,,,1,,2,,
{16}2h[1:1],,5,5,,,6,,7,7,,,8,,7,,
{16}7h[1:1],,4,4,,,3,,2,2,,,1,,2,,
{16}2b,,3,4,3,4,3>8[16:3],,5,5,,6,6,,5,,
{16}7,,6,5,6,5,6<1[16:3],,4,4,,3,3,,4,,
{16}2,,3,4,3,4,3qq8[4:1],,5,5,,6,6,,5,,
{16}7,,6,5,6,5,6pp1[4:1],,4,4,,3,3,,4,,
{32}2,3,4,5,,,,,8,,1,,8,,1,,7,6,5,4,,,,,1,,8,,1,,8,,
{32},,,,1b,2,3,,,,8b,7,6,,,,2b,3,4,,,,7b,6,5,,,,3b,2,1,,
{32}5,6,7,8,1,2,3,4,5,6,7,8,1,2,3,4,5,6,7,8,1,2,3,4,5,6,7,8,1,2,3,4,
{4}1-4[8:1]/5-8[8:1],,1-6[8:1]/5-2[8:1],1b/5b,
{16}1/8,,2,1,3,1,2h[8:1],,7,8,6,8,7h[8:1],,2,,
{16}4/6,,7,8,6,8,7h[8:1],,2,1,3,1,2h[8:1],,7,,
{16}3/5,,6,5,7,5,6h[8:1],,3,8,2,7,1,6,8,5,
{16}1/6,,3,4,2,4,3h[8:1],,6,1,7,2,8,3,1,4,
{16}3/8,,7,8,6,8,7h[8:1],,2,4,3,5,4,6,5,7,
{16}4/8,,2,1,3,1,2h[8:1],,7,5,6,4,5,3,4,2,
{16}1/5,,3,4,3,4,2h[8:1],,6,5,6,5,7h[8:1],,4,,
{4}2pp8[4:1]/6pp4[4:1],,,3b/7b,
{16}1/8,,7-4[8:1],8,6,8,7,,2-5[8:1],1,3,1,2,,8,,
{16}3/4,,2-5[8:1],1,3,1,2,,7-4[8:1],8,6,8,7,,1,,
{16}5/6,,3-8[8:1],4,2,4,3,,6,1,7,2,8,3,1,4,
{16}3/8,,6-1[8:1],5,7,5,6,,3,8,2,7,1,6,8,5,
{16}1/6,,2-6[8:1],1,3,1,2,,7,5,6,4,5,3,4,2,
{16}1/5,,7-3[8:1],8,6,8,7,,2,4,3,5,4,6,5,7,
{16}1-5[16:1]/8,,,1b/7-4[16:1],,,2-5[16:1]/7b,,,2b/8-4[16:1],,,1h[8:1]/8b,,,,
{48}1b/7h[48:5],2,3,4,5,,,,,2h[48:5]/8b,7,6,5,4,,,,,1b/8h[48:5],2,3,4,5,,,,,1h[48:5]/8b,7,6,5,4,,,,,2/7,,,,,,1/8,,,,,,
{16}6,5/7,,3,2/4,,1-5[8:1]/8,,,,1/5,,6,,7,,
{16}1/8,,5,4,5,,2/7-5[8:1],,,,3/7,,2,,1,,
{16}3/4,2/4,,5/6,5/7,,1/8-4[8:1],,,,4/8,,3,,2,,
{8}1/8h[4:1],6,1h[4:1],3,7h[4:1],5,1,5,
{16}6,5/7,,3,2/4,,7,8,6,1,5,2,4,,5/6,,
{16}3,2/4,,6,5/7,,2,1,3,8,4,7,5,,3/4,,
{96}1,,,,,,8,,,,,,1,,,,,,8,,,,,,1,,,,,,8,,,,,,1,,,,,,8,,,,,,1,,2,,3,,4,,5,,6,,7,,8,,1b,,,,,,,,,,,,,,,,,,,,8,,,7,,,6,,,5,,,
{16}4-2[16:1]*-7[16:1],,,4,,,5-2[16:1]*-7[16:1],,,5,,,1-5[8:1]/8-4[8:1],,3b/6b,,
{1}1b/8b,
{1},
{1},
{1},
E
