&title=Sunshine world tour
&artist=夢色キャスト
&wholebpm=140
&demo_seek=58.92
&demo_len=30.01
&lv_1=2
&lv_2=4
&lv_3=7
&lv_4=9
&lv_5=11
&des_4=LabiLabi
&des_5=LabiLabi
&inote_1=(140.0){1},,,,,
{1}4,
{1}4,
{1}5,
{1}5,
{1}4,
{1}3,
{1}2,
{1}1,
{1}8,
{1}7,
{1}6,
{1}4/5,
{1}5,
{1}6,
{1}7,
{1}8,
{1}1,
{1}2,
{1}3,
{1}4/5,
{1}6h[1:1],,
{1}5h[1:1],,
{1}4h[1:1],,
{1}3h[1:1],,
{1}4-8[4:3],,
{2}8,8,
{1}8,
{2}7,7,
{1}7,
{2}6,6,
{1}6,
{2}5,5,
{1}5b,
{2}4,4,
{1}4,
{2}3,3,
{1}3,
{2}2,2,
{1}2,
{2}1,1,
{1}1b,
{1}8-4[4:3],,
{2}5,5,
{1}5,
{2}6,6,
{1}6,
{2}7,7,
{1}7,
{2}8,8,
{1}8,
{2}1,1,
{1}1,
{2}2,2,
{1}2,
{1}3-8[4:3],,
E
&inote_2=(140.0){1},,,,,
{2}7,7/8,
{2}7,7/8,
{2}2,1/2,
{2}2,1/2,
{2}8,8,
{4}7,7,7,,
{2}6,6,
{4}5,5,5,,
{2}4,4,
{4}3,3,3,,
{2}2,2,
{4}1,1,1,,
{1}2h[2:1],
{1}3h[2:1],
{1}4h[2:1],
{4}5,4,5,,
{1}6h[2:1],
{1}7h[2:1],
{1}8h[2:1],
{4}1,8,1,,
{1}1-5[4:3],,
{1}8-4[4:3],,
{1}1-6[4:3],,
{1}8-3[4:3],,
{2}1/8,1/8,
{1}1b/8b,
{4}7,7,7,,
{4}6,6,6,,
{4}5,5,5,,
{4}4,4,4/5,,
{4}3,3,3,,
{4}2,2,2,,
{4}1,1,1,,
{4}8,8,1/8,,
{4}2,2,2,,
{4}3,3,3,,
{4}4,4,4,,
{4}5,5,4/5,,
{4}6,6,6,,
{4}7,7,7,,
{4}8,8,8,,
{4}1,1,1/8,,
{1}1h[1:1]/8h[1:1],,
{2}2,1/2,
{2}2,1/2,
{2}7,7/8,
{2}7,7/8,
{4}1,1,1,,
{4}2,2,2,,
{4}3,3,3,,
{4}4/5,4/5,4/5,,
{4}5,5,5,,
{4}6,6,6,,
{4}7,7,7,,
{4}1/8,1/8,1/8,,
{1}1-4[4:3]/8-5[4:3],,
E
&inote_3=(140.0){1},,,,,
{4}1,2,3/8,,
{4}8,7,1/6,,
{4}1,2,3/8,,
{4}8,7,1/6,,
{4}2,2,3,3,
{4}4,4,3/5,,
{4}7,7,6,6,
{4}5,5,4/6,,
{4}3,3,2,2,
{4}1,1,2/8,,
{4}6,6,7,7,
{4}8,8,1/7,,
{4}2,2,1/2,,
{1}7h[2:1]/8h[2:1],
{4}7,7,7/8,,
{1}1h[2:1]/2h[2:1],
{4}2,2,1/2,,
{1}7h[2:1]/8h[2:1],
{4}3/6,3/6,2/7,2/7,
{1}1b^4[4:1]/8b^5[4:1],
{1}3h[2:1]/4h[2:1],
{1}1h[2:1]/2h[2:1],
{1}7h[2:1]/8h[2:1],
{1}5h[2:1]/6h[2:1],
{4}3h[2:1],4,4,,
{4}6h[2:1],5,5,,
{4}2h[2:1],3,3,,
{4}7h[2:1],6,6,,
{4}1/2,3/8,4/7,5/6,
{4}1b/8b,,1/2,1/2,
{1}1-6[4:1]/2-5[4:1],
{4}4,5,6,7,
{1}7-4[4:1]/8-3[4:1],
{4}5,4,3,2,
{4}1/2,1/2,3/8,,
{4}7/8,7/8,1/6,,
{4}3,4,3,2/5,
{4}6,5,6,4/7,
{1}3-8[4:1]/4-7[4:1],
{4}2,3,4,5,
{1}5-2[4:1]/6-1[4:1],
{4}7,6,5,4,
{4}3/4,3/4,2/5,,
{4}5/6,5/6,4/7,,
{4}2,1,2,3/8,
{4}7,8,7,1/6,
{4}5/6,5/6,3/4,3/4,
{1}2b-5[4:1]/7b-4[4:1],
{4}3h[4:1],4,2/5,1,
{4}6h[4:1],5,4/7,8,
{4}3h[4:1],4,2/5,1,
{4}6h[4:1],5,4/7,8,
{4}2,2,3,3,
{4}4,4,3/5,,
{4}7,7,6,6,
{4}5,5,4/6,,
{4}3,3,2,2,
{4}1,1,2/8,,
{4}6,6,7,7,
{4}8,8,1/7,,
{1}1bpp4[4:7]/8bqq5[4:7],,,
E
&inote_4=(140.0){1},
{4}3/6,3/6,2/7,2/7,
{4}1h[2:1]/8h[2:1],,,3/6<3[2:1],
{4},,,6/3>6[2:1],{1},
{8}1h[4:1]/2h[4:1],,,,3/8,3/8,3/8,,
{8}7h[4:1]/8h[4:1],,,,1/6,1/6,1/6,,
{8}1h[4:1]/2h[4:1],,,,4/7,4/7,4/7,,
{8}7h[4:1]/8h[4:1],,,,2/5,2/5,2/5,,
{4}6/3h[4:1],4,3/6h[4:1],5,
{4}2/1<4[4:1],,,7/8,
{4}3/6h[4:1],5,6/3h[4:1],4,
{4}7/8>5[4:1],,,1/2,
{4}7/2h[4:1],4,2/7h[4:1],5,
{4}2/1<4[4:1],,,7/8,
{4}2/7h[4:1],5,7/2h[4:1],4,
{4}7/8,5/6,3/4,1b/2b,
{4}4/5,2,4/5,7,
{4}1h[4:1],2h[4:1],3h[4:1],4,
{4}3/4,8,5/6,1,
{4}8h[4:1],7h[4:1],6h[4:1],5,
{4}2/4,8,5/7,1,
{4}1h[4:1],8h[4:1],7h[4:1],6,
{2}2/1-5[8:1],7/8-4[8:1],
{8}1/8,,2/7,2b-5[8:1]/7b-4[8:1],,,,,
{8}2^5[4:1],,,8,8,,1/7,,
{8}7^4[4:1],,,1,1,,2/8,,
{8}3^8[4:1],,,5,5,,4/6,,
{8}6^1[4:1],,,4,4,,3/5,,
{8}1^6[4:1],,,5,5,,2/7,,
{8}8^3[4:1],,,4,4,,2/7,,
{4}3/4,2/4,5/6,5/7,
{4}1/2,1/3,7/8,6/8,
{1}1pp4[2:1]/8qq5[2:1],
{4}1b/8b,,5/6,3/8,
{4}1V75[4:1]/2v4[4:1],,,7/8,
{4}6/5h[4:1],1,6/5h[4:1],1,
{4}7v5[4:1]/8V24[4:1],,,1/2,
{4}3/4h[4:1],8,3/4h[4:1],8,
{8}7/8-5[8:1],,,,2,2,1/2,,
{8}2/1-4[8:1],,,,7,7,7/8,,
{8}3,3,2/4,,6,6,5/7,,
{4}6/3>6[4:1],,,3/8,
{4}1<5[4:1]/2p4[4:1],,,7/8,
{4}7/5h[4:1],4,7/5h[4:1],4,
{4}7q5[4:1]/8>4[4:1],,,1/2,
{4}2/4h[4:1],5,2/4h[4:1],5,
{8}1/2-6[8:1],,,,7,1/8,1/8,,
{8}8/7-3[8:1],,,,2,1/8,1/8,,
{4}3/4,2/8,5/6,1/7,
{8}8,1,8,1,8,,2b/7b,,
{2}3-8[8:1]/4-8[8:1],5-1[8:1]/6-1[8:1],
{1}3>6[2:1]/4p5[2:1],
{8}7,8,7,,7/8,1/6,1/6,,
{8}2,1,2,,1/2,3/8,3/8,,
{8}7,8,7,,7/8,1/6,2/5,,
{8}2,1,2,,1/2,3/8,4/7,,
{4}3/6h[4:1],5,6/3h[4:1],4,
{4}7/8>5[4:1],,,1/2,
{4}6/3h[4:1],4,3/6h[4:1],5,
{4}2/1<4[4:1],,,7/8,
{4}2/7h[4:1],5,7/2h[4:1],4,
{4}7/8>5[4:1],,,1/2,
{4}7/2h[4:1],4,2/7h[4:1],5,
{4}1/2,3/4,5/6,7/8,
{1}1b>8[4:7]/8b<1[4:7],,,
E
&inote_5=(140.0){1},
{12}1/8,,,2,
{995}4,,,,,,,,,,,,,,,,,,,,,,,,,,,,,,,,,,,,,,,,,,,,,,,,,,,,,,,,,,,,,,,,,,,,,,,,,,,,,,,,,,,
{12}3,2/6,,,7,
{995}5,,,,,,,,,,,,,,,,,,,,,,,,,,,,,,,,,,,,,,,,,,,,,,,,,,,,,,,,,,,,,,,,,,,,,,,,,,,,,,,,,,,
{12}6,
{4}3V51[4:1]/7V51[4:1],,,1/8,
{4}2V48[4:1]/6V48[4:1],,,1/8,
{4}2V41[8:3]/7V58[8:3],,,2/7,
{16}1,1,,3/7,,4/6,,5,5,,2/6,,2/6,,,,
{16}8,8,,2/6,,3/5,,4,4,,3/7,,3/7,,,,
{16}5,5,,3/7,,2/8,,1,1,,2/6,,2/6,,,,
{16}4,4,,2/6,,1/7,,8,8,,3/7,,3/7,,,,
{16}2/7,,1,,8,,1,,3/8,,2,,7,8,7,,
{8}1/6,7,2-6[8:1]/8-4[8:1],,,,1/5,,
{16}2/7,,8,,1,,8,,1/6,,7,,2,1,2,,
{8}3/8,2,1-5[8:1]/7-3[8:1],,,,4/8,,
{16}3/6,,4,,5,,4,,2/5,,3,,6,5,6,,
{8}4/7,6,3-7[8:1]/5-1[8:1],,,,4/8,,
{16}3/6,,5,,4,,5,,4/7,,6,,3,4,3,,
{8}2/7,5,3/6,2,1b/5,2b/6,3b/7,4b/8,
{8}7,7,4/6,,2,2,3/5,,
{16}2-6[8:1],1,2,,,,,,7-3[8:1],8,7,,,,,,
{8}1,2,3/7,,8,7,2/6,,
{8}8h[4:3],2,2,3,3,4,4,5,
{8}7,6,3/4,,2,3,5/6,,
{16}3-7[8:1],4,3,,,,,,6-2[8:1],5,6,,,,,,
{2}4-2[8:1]/5-1[8:1],4-8[8:1]/5-7[8:1],
{16}2b-5[8:1],,7b-4[8:1],,2b,,7b,,,,1,,1,,8^5[8:1],8,
{8},,,4,4,5,5,6,
{16}6^3[8:1],,,,2q7[8:1],,,,,,8,,8,,1^4[8:1],1,
{8},,,5,5,4,4,3,
{16}3^6[8:1],,,,7p2[8:1],,,,,,1,,1,,8^5[8:1],8,
{8},,,3,2,2,1-6[8:1],1,
{8}1-5[8:1],,1-4[8:1],,1,,5/6,4/7,
{16}3/8,,2,1,,,6,5,6,,3,4,,,,,
{16}5/6,,2,1,,,4/5,,3/6,,3/6,,2/7,,2/7,,
{16}1/6,,,3/8,,,2/5,,,4/7,,,2/6,,1/5,,
{4}4b-7[8:1]/8b-3[8:1],,5/6,3/8,
{16}4/5,,,1-5[8:1]/2-6[8:1],,,1b/2b,,,,,,8<4[4:1],,8,,
{8}4>8[4:1],,8<4[4:1],,4,,8,8,
{16}4/5,,,7-3[8:1]/8-4[8:1],,,7b/8b,,,,,,1>5[4:1],,1,,
{4}5<1[4:1],1>5[4:1],5,1,
{16}5-1[8:1]/6-1[8:1],,,,,,,,7/8,,1/6,1h[16:3]/6h[16:3],,,,,
{16}3-8[8:1]/4-8[8:1],,,,,,,,1/2,,3/8,3h[16:3]/8h[16:3],,,,,
{2}5^3[8:1]/6p2[8:1],6p2[8:1]/7pp1[8:1],
{8}1/5,3,4/8,6,3/4,,1/6,,
{16}3/4,,,7-3[8:1]/8-4[8:1],,,7b/8b,,,,,,1>5[4:1],,1,,
{8}5<1[4:1],,1>5[4:1],,5,,1,1,
{16}5/6,,,1-5[8:1]/2-6[8:1],,,1b/2b,,,,,,8<4[4:1],,8,,
{8}4>8[4:1],,8<4[4:1],,4,,8,1/7,
{2}2bv5[8:1]/8bv5[8:1],4bV25[16:3]/6bV85[16:3],
{2}2b/1b<4[8:1],8b/1bs5[8:1],
{16}1/8h[16:3],,,7h[16:3],,,6^3[8:1],,,,2,,2,,1-5[8:1],1,
{16},,,,,,1/8,2/7,3-8[8:1]/6-1[8:1],,,,,,,,
{16}7b/8b,,,4b/5b,,,1b/2b,,,,,,4h[4:3],,5,5<3[16:5],
{4},,,2/7,
{16}8,8,,2/6,,3/5,,4,4,,3/7,,3/7,,,,
{16}1,1,,3/7,,4/6,,5,5,,2/6,,2/6,,,,
{16}4,4,,2/6,,1/7,,8,8,,3/7,,3/7,,,,
{16}5,5,,3/7,,2/8,,1,1,,2/6,,2/6,,,,
{16}2/7,,8,,1,,8,,1/6,,7,,2,1,2,,
{8}3/8,2,1-5[8:1]/7-3[8:1],,,,4/8,,
{16}2/7,,1,,8,,1,,3/8,,2,,7,8,7,,
{8}1/6,7,2-6[8:1]/8-4[8:1],,,,1/5,,
{16}3/6,,5,,4,,5,,4/7,,6,,3,4,3,,
{8}2/5,3,4-8[8:1]/6-2[8:1],,,,1/5,,
{16}3/6,,4,,5,,4,,2/5,,3,,6,5,6,,
{8}4/7,6,3/5,2,4b/8b,,2b/6b,,
{1}1b>8[4:7]/8b<1[4:7],,,
E
