&title=My Dearest Song
&wholebpm=145
&artist=月鈴 白奈(CV:高野 麻里佳)
&des=Jack
&shortid=648
&genre=オンゲキCHUNITHM
&cabinet=SD
&version=maimai MURASAKi PLUS
&chartconverter=Neskol
&lv_2=5
&des_2=-
&lv_3=8
&des_3=-
&lv_4=11+
&des_4=LabiLabi
&lv_5=13
&des_5=Jack
&des_6=
&inote_2=
(145){1},
{1},
{1}4h[1:1],
{1},
{1}5h[1:1],
{1},
{2}4,4,
{2}3,3,
{2}2,2,
{1}1-5[4:3],
{1},
{1}8h[2:1],
{2}8,8,
{2}7,7,
{4}6,6,6,,
{1}5h[2:1],
{2}4,4,
{2}3,3,
{4}2,2,2,,
{1}1h[2:1],
{2}1,1,
{2}2,2,
{4}3,3,3,,
{1}4h[2:1],
{2}5/6,5/6,
{1}5/6,
{2}3/4,3/4,
{1}3/4,
{2}5,5,
{2}6,6,
{1}7-3[4:3],
{1},
{4}1,1,1,,
{4}8,8,8b,,
{2}1/2,1/2,
{2}7/8,7/8,
{4}6,6,6,,
{4}5,4,5,,
{2}3/4,3/4,
{2}5/6,5/6,
{4}4,4,4,,
{1}3-8[4:3],
{1},
{1},
{1}1h[2:1],
{1}1h[2:1],
{1}2h[2:1],
{1}2h[2:1],
{2}3,3,
{2}4,4,
{2}5,5,
{2}6,6,
{1}7-3[4:3],
{1},
{1}2-6[4:3],
{1},
{2}7,7,
{2}8,8,
{1}1h[2:1]/8h[2:1],
{1}2h[2:1]/7h[2:1],
{2}7b/8b,7/8,
{2}1/2,1/2,
{4}3,3,3,,
{4}4,5,4,,
{2}5/6,5/6,
{2}3/4,3/4,
{4}5,5,6,6,
{1}7h[2:1]/8h[2:1],
{4}1/2,1/2,1/2,,
{4}7/8,7/8,7/8,,
{4}6,6,5,5,
{4}4,5,4,,
{4}3,3,2,2,
{4}1/8,1/8,1/8,,
{4}7,7,6,6,
{1}4-1[4:3]/5-8[4:3],
{1},
{1},
{4}1,1,1,,
{4}2,2,2,,
{4}3,3,3,,
{4}4,4,4,,
{1}5-8[4:3],
{1},
{1}4-1[4:3],
{1},
{1}2b/7b,
{1},
{1},
{1},
E
&inote_3=
(145){1},
{1},
{2}4h[2:1],5h[2:1],
{2}6h[2:1],7,
{2}5h[2:1],4h[2:1],
{2}3h[2:1],2,
{2}8h[2:1],7h[2:1],
{2}6h[2:1],5,
{2}1h[2:1],2h[2:1],
{1}3-7[2:1],
{1}6-2[2:1],
{1}3-8[2:1]/6-1[2:1],
{4}3,3,2/4,,
{4}6,6,5/7,,
{4}3,4,5,6,
{1}7/8-4[2:1],
{4}6,6,5/7,,
{4}3,3,2/4,,
{4}6,5,4,3,
{1}1-5[2:1]/2,
{4}3,3,2/4,,
{4}6,6,5/7,,
{4}3,4,5,6,
{1}7/8-4[2:1],
{2}3h[4:1]/4h[4:1],4/5,
{2}5h[4:1]/6h[4:1],4/5,
{2}3h[4:1]/4h[4:1],2/5,
{2}5h[4:1]/6h[4:1],4/7,
{4}7,7/8,7,6/8,
{4}2,1/2,2,1/3,
{1}3V14[2:1],
{1}6V85[2:1],
{2}5h[4:1]/6h[4:1],3h[4:1]/4h[4:1],
{4}4/5,3/6,2/7,1b/8b,
{4}2h[4:1],1,3/8,3/8,
{4}4,5,6/7,,
{4}7h[4:1],8,1/6,1/6,
{4}5,4,2/3,,
{4}2h[4:1],1,3/8,3/8,
{2}5h[4:1]/7h[4:1],2h[4:1]/4h[4:1],
{4}7h[4:1],8,1/6,1/6,
{1}4-1[2:1]/5-8[2:1],
{1}2h[4:3]/7h[4:3],
{4}2/7,2/7,3/6,4/5,
{4}3h[4:1],4,6h[4:1],5,
{4}3h[4:1],4,4/5,,
{4}6h[4:1],5,3h[4:1],4,
{4}6h[4:1],5,4/5,,
{4}2h[4:1],4,7h[4:1],5,
{4}2h[4:1],4,4/5,,
{4}7h[4:1],5,2h[4:1],4,
{4}7h[4:1],5,4/5,,
{4}3h[4:1],1,6h[4:1],8,
{4}3h[4:1],1,1/8,,
{4}6h[4:1],8,3h[4:1],1,
{4}6h[4:1],8,1/8,,
{4}3h[4:1],2,6h[4:1],7,
{4}3h[4:1],2,1/8,,
{4}6h[4:1],7,3h[4:1],2,
{4}6h[4:1],7,1/8,1b/8b,
{2}2h[2:1]/7,3h[2:1],
{4}4h[2:1],,5,6,
{2}2/7h[2:1],6h[2:1],
{4}5h[2:1],,4,3,
{4}2,1/3,7,6/8,
{4}2,1/3,7,6/8,
{1}1>4[2:1]/8<5[2:1],
{4}3/6,2/7,1/8,1b/8b,
{4}1h[4:1],2h[4:1],3h[4:1],4h[4:1],
{4}5h[4:1],6h[4:1],7h[4:1],8b,
{4}8h[4:1],7h[4:1],6h[4:1],5h[4:1],
{4}4h[4:1],3h[4:1],2h[4:1],1b,
{4}1h[4:1],2h[4:1],3h[4:1],4,
{2}5h[4:1]/6h[4:1],3h[4:1]/4h[4:1],
{4}8h[4:1],7h[4:1],6h[4:1],5,
{1}4-1[2:1]/5-8[2:1],
{1}2h[4:3]/7h[4:3],
{4}2/7,2/7,3/6,4/5,
{4}3h[4:1],4,3/4,,
{4}6h[4:1],5,5/6,,
{4}3h[4:1],4,2/5,,
{4}6h[4:1],5,4/7,,
{1}1pp4[2:3]/8qq5[2:3],
{1},
{1}4h[1:1]/5h[1:1],
{2},3/6,
{1}2b/7b,
{1},
{1},
{1},
E
&inote_4=
(145){1},
{1},
{1}1-5[4:1]/8h[2:1],
{1}1h[2:1]/8-4[4:1],
{1}1h[2:1]/2-6[4:1],
{1}7-3[4:1]/8h[2:1],
{1}4-8[4:1]/5h[2:1],
{1}4h[2:1]/5-1[4:1],
{4}3/6,3/6,2/7,2/7,
{1}1b>4[2:1]/8b<5[2:1],
{2}8-4[8:1],1-5[8:1],
{1}7>5[2:1],
{4}1/2-4[8:1],8,1/2-4[8:1],8,
{4}7-5[8:1]/8,1,7-5[8:1]/8,1,
{4}3h[4:1],2h[4:1],1h[4:1],8h[4:1],
{4}7<2[4:1],,,2/7,
{4}7-5[8:1]/8,1,7-5[8:1]/8,1,
{4}1/2-4[8:1],8,1/2-4[8:1],8,
{4}6h[4:1],7h[4:1],8h[4:1],1h[4:1],
{4}2>7[4:1],,,2/7,
{4}1/2-5[8:1],8,1/2-5[8:1],8,
{4}7-4[8:1]/8,1,7-4[8:1]/8,1,
{4}3h[4:1],2h[4:1],1h[4:1],8h[4:1],
{4}7<2[4:1],,,2/7,
{8}1>5[4:1],,,7,7,,4/5,,
{8}8<4[4:1],,,2,2,,4/5,,
{8}2>6[4:1],,,8,8,,4/5,,
{8}7<3[4:1],,,1,1,,4/5,,
{4}3/5,1,4/6,8,
{4}1/3,7,6/8,2,
{8}1q8[4:1]/8,,,,,,,1/8,
{1}1/8<1[2:1],
{2}7/8-5[8:1],1-4[8:1]/2,
{4}7/8,1/2,3/4,5/6,
{16}1/8h[16:3],,,7h[16:3],,,6,,6-3[8:1],,,,2,,,,
{16}1/2h[16:3],,,3h[16:3],,,4,,5,,5,,4/6,,,,
{16}1h[16:3]/8,,,2h[16:3],,,3,,3-6[8:1],,,,7,,,,
{16}7h[16:3]/8,,,6h[16:3],,,5,,4,,4,,3/5,,,,
{16}1/7h[16:3],,,6h[16:3],,,5,,5-1[8:1],,,,2,,,,
{2}7-4[8:1]/8-4[8:1],1-5[8:1]/2-5[8:1],
{16}2h[16:3]/8,,,3h[16:3],,,4,,4-8[8:1],,,,7,,,,
{1}1pp5[2:1]*qq5[2:1],
{1}2h[4:3]/7h[4:7],
{8}1,,1,,8,8,8,,
{8}4/5,,1,,3,3,2/4,,
{8}4/5,,8,,6,6,5/7,,
{8}3/5,,1,,3,3,2/4,,
{4}6h[4:1],5h[4:1],4h[4:1],3,
{8}7h[4:1],,5,,4,3/5,2/6,,
{8}2h[4:1],,4,,5,4/6,3/7,,
{8}8h[4:1],,6,,4,3/5,2/6,,
{4}3h[4:1],4h[4:1],5h[4:1],6,
{8}2/4,,3,3,4,4,2/5,,
{8}5/7,,6,6,5,5,4/7,,
{8}2/4,,1,1,8,8,3/7,,
{8}5/7,,8,8,1,1,2/6,,
{8}1,1,2,2,3,3,4,4,
{8}5,5,6,6,7,7,8,8,
{4}1h[4:3],,3,3,
{4}7/8,5/6,3/4,1/2,
{1}7v5[4:1]/8V24[4:1],
{1}1V75[4:1]/2v4[4:1],
{1}5V31[4:1]/6v8[4:1],
{1}3v1[4:1]/4V68[4:1],
{4}3h[4:1],4,2/5,8,
{4}6h[4:1],5,4/7,1,
{4}4h[4:1],5,3/6,2/7,
{1}1bpp4[2:1]/8bqq5[2:1],
{4}2-5[8:1],1-6[8:1],2-5[8:1],1-6[8:1],
{4}2-5[8:1],1-6[8:1],2-5[8:1],1b,
{4}7-4[8:1],8-3[8:1],7-4[8:1],8-3[8:1],
{4}7-4[8:1],8-3[8:1],7-4[8:1],8b,
{4}1-5[8:1],8-4[8:1],1-5[8:1],8-4[8:1],
{6}1b,1b,1b,8b,8b,8b,
{4}1/2,3/4,5/6,7/8,
{1}1bw5[2:1]/2,
{1}2h[4:7]/7h[4:3],
{8}8,,8,,1,1,1,,
{4}4/8,3/7,2/6,1/5,
{4}4/8,1/5,2/6,3/7,
{16}8h[16:3],,,7h[16:3],,,6,,6<3[2:1],,,,,,,,
{4},,2/5,1/6,
{1}7<8[8:11]/8>7[8:11],
{1},
{2}1/2,7/8,
{2}1/2,7/8,
{1}1b/8bw4[4:5],
{1},
{1},
{1},
E
&inote_5=
(145){1},
{1},
{2}2b<5[8:1]/7,2/7>4[8:1],
{16}1/5,,,2/6,,,3qq8[4:1]/7qq4[4:1],,3/7,,,,,,,,
{2}1>4[8:1]/5p8[8:1],4q1[8:1]/8<5[8:1],
{16}2/6,,,3/7,,,4/8,,4qq3[8:1]/8qq7[8:1],,,,,,,,
{16}1/2h[16:3],,,4h[16:3],,,5,,7-4[8:1]/8-3[8:1],,,,7/8,,,,
{16}2/5,,,4/7,,,1/2,,7/8,,4,,1/2,,5,,
{16}7h[16:3]/8,,,5h[16:3],,,4,,1-6[8:1]/2-5[8:1],,,,1/2,,,,
{4}7/8>3[8:1],6,4/5<8[8:1],3,
{4}1/2>5[8:1],8,6/7>2[8:1],5,
{1}3>6[2:1]/4p5[2:1],
{8}7/8>3[8:1],,4,,6,5,4/7,,
{8}1<6[8:1]/2,,5,,3,4,2/5,,
{4}6<1[8:1],4p7[8:1],5q2[8:1],3>6[4:1],
{4}6,,4-1[8:1]/5-8[8:1],4/5,
{8}5>2[8:1]/6,,1,,7,8,1/6,,
{8}3/4<7[8:1],,8,,2,1,3/8,,
{2}5q1[8:1]/6<8[8:1],1>3[8:1]/8q4[8:1],
{16}4<7[8:1]/5>2[8:1],,,,,,,,1/8,,4,4,6,,5,5,
{8}3<6[8:1],,8,,2,1,3/8,,
{8}6>3[8:1],,1,,7,8,1/6,,
{4}3>8[8:1],5q2[8:1],4p7[8:1],6<3[4:1],
{8}3,,,1/8,1pp2[8:1]/8qq7[8:1],,,,
{2}1q6[8:1]/8h[4:1],6q3[8:1]/7h[4:1],
{4}3q8[8:1]/4,7<4[8:1],8>3[8:1],6,
{2}1h[4:1]/8p3[8:1],2h[4:1]/3p6[8:1],
{4}5/6p1[8:1],2>5[8:1],1<6[8:1],3,
{16}1/8,,,,2,1,2,1,2,,4/5,,7/8>3[8:1],,,,
{16}6,,,,7,8,7,8,7,,4/5,,1/2,,7/8,,
{1}4qq1[2:1]/5pp8[2:1],
{8}1h[4:1],3,8h[4:1],6,2h[4:1],3,7h[4:1],6,
{4}3-8[8:1],4,6-1[8:1],5,
{16}2,6,3,7,4,8,5,5,8,4,7,3,6,2,5,5,
{16}1b-5[8:1],,,1/5,,,7,,4-8[8:1]/7<4[8:1],,,,4/7,,,,
{16}2-6[8:1],,,2/6,,,8,,4>1[8:1]/8-4[8:1],,,,4/8,,,,
{16}6-2[8:1],,,2/6,,,8,,4<7[8:1]/8>3[8:1],,,,4/8,,,,
{16}1/2,,,7/8,,,1pp4[4:1]/5pp8[4:1],,1/5,,,,,,,,
{16}1-5[8:1],,,1/5,,,6,,2-7[8:1]/6-3[8:1],,,,2/6,,,,
{16}1-3[16:1]/8-4[16:1],,,1/8,,,2/6,,1-5[16:1]/8-6[16:1],,,1/8,,,3/7,,
{16}1-4[16:1]/8-5[16:1],,,1/8,,,3/6,,1>4[8:1]/8<5[8:1],,,,1pp4[8:3]/8qq5[8:3],,,,
{24}1/8,,,,,,,,,,,,2/7,,,6,5,4,3,,,,,,
{1}8b,
{16}1-5[8:1],,,,1,,,,4,6,4,6,3,5,3,5,
{8}2h[2:1],4,5,6,7h[2:1],5,4,3,
{8}2h[4:1],8,6h[2:1],8,1,2,3h[4:1],1,
{12}7<4[8:1],,,8,,,3,4,2/5,6,5,4/7,
{16}3h[16:3],,,2h[16:3],,,1,,6h[16:3],,,7h[16:3],,,8,,
{8}3h[8:5],8,7,6,5,4h[8:1],5h[8:1],6h[8:1],
{16}3h[4:1],,,,7,7,4,5,2>5[8:1],,,,,,6,,
{16}6h[16:3],,,7h[16:3],,,8,,3h[16:3],,,2h[16:3],,,1,8,
{16}1,,7,5,6,,2,4,3,,8,1,8,,2/7,,
{16}3h[4:1]/4,,4,,4,,6,5,6,,4/7,,3/8,,1/2,,
{16}5/6h[4:1],,5,,5,,3,4,3,,2/5,,1/6,,7/8,,
{16}1/2h[4:1],,1,,1,,7,8,7,,1/6,,2/5,,3/4,,
{16}7h[4:1]/8,,8,,8,,2,1,2,,3/8,,4/7,,5/6,,
{16}2,4,2,4,3,5,3,5,4,6,4,6,5,7,5,7,
{16}1,8,2,7,3,6,4,5,3/6,,2/7,,1>8[4:3]/8<1[4:3],,4/5,,
{16},,,,,,,,,,,,,,2,4,
{16}3,,7,5,6,,1,4,3,,8,5,6,,4/5,,
{2}2b/7b,3/6,
{16}3/4,,,5/6,,,4>1[4:1]/5<8[4:1],,4/5,,,,,,,,
{24}3/6,,,,,,,,,6,5,4,3<6[8:1],,,,,,3,,,,,,
{6}6,5/7,4/8,3,2/4,1/5,
{16}8-4[8:1],,,4/8,,,2,,2>5[8:1]/5-1[8:1],,,,2/5,,,,
{16}7-3[8:1],,,3/7,,,1,,1-5[8:1]/5<8[8:1],,,,1/5,,,,
{16}3-7[8:1],,,3/7,,,1,,1<6[8:1]/5>2[8:1],,,,1/5,,,,
{48}1/8,,,,,,,,,4,,,5,,,,,,3/4,,,,,,5/6,,,,,,1/8,,2/7,,3/6,,4/5,,,,,,,,,,,,
{8}1-5[8:1]/8b,2,1/8-4[8:1],7,2-5[8:1]/8,1,2/7-4[8:1],8,
{8}1>3[12:1]/7,3,1/8-4[8:1],6,1-5[8:1]/8,3,1/8<6[12:1],6,
{8}2>5[8:1]/8,1,2/8-4[8:1],7,2-6[8:1]/8,1,2/7<4[8:1],8,
{8}1-5[8:1]/7,3,1/7-3[8:1],8,1bw5[8:1]/7,,,,
{16}8-4[8:1],,,4/8,,,3,,3-6[8:1]/7-2[8:1],,,,3/7,,,,
{6}1/5b,4b/8,3b/7,2b/6>3[8:1],1b,8b,
{16}4-1[16:1]/5-8[16:1],,,4/5,,,3/6,,1>4[8:1]/8<5[8:1],,,,1pp4[8:3]/8qq5[8:3],,,,
{8}1/8,,,,,4h[4:1]/5h[4:1],,,
{2}4h[4:1]/5<8[8:1],4>1[8:1]/8h[4:1],
{16}8-4[8:1],,,,8,,,,5,3,5,3,6,4,6,4,
{16}7<4[8:1],,,,2h[4:1],,,,7,,5,4,5,,3/6,,
{4}2/7<4[4:1],4>1[4:1],1<6[4:1],6,
{8}4h[2:1],,7,6,5h[4:1],3,4,,
{16}5,4,5,4,5,,1,8,1,,2/8,,3/7,,4/6,,
{16}5h[8:17],,,1,,,7,,,3,,,,6,,,
{16},4,,,,7,,,,1,,,,,,,
{24}1,2,3,4h[2:1],,,,,,,,,1,8,7,6h[2:1],,,,,,,,,
{24}8,1,2,3h[2:1],,,,,,,,,8,7,6,5h[8:3],,,,,,,,,
{1}1b,
{1},
{1},
{1},
E
