&title=KISS CANDY FLAVOR
&wholebpm=146
&artist=カラフル・サウンズ・ポート
&des=Moon Strix
&shortid=624
&genre=ゲームバラエティ
&cabinet=SD
&version=maimai MURASAKi PLUS
&chartconverter=Neskol
&lv_2=4
&des_2=-
&lv_3=8
&des_3=-
&lv_4=11
&des_4=ぴちネコ
&lv_5=13
&des_5=Moon Strix
&des_6=
&inote_2=
(146){1},
{1},
{1},
{1},
{1},
{2}1,1,
{2}2,2,
{2}3,3,
{4}4,4,4,,
{2}5,5,
{2}6,6,
{2}7,7,
{4}8,8,8b,,
{2}1/8,8,
{2}7,7/8,
{2}6,6,
{2}5,4/5,
{2}4,4,
{2}3,3/4,
{2}2,2,
{2}1,1/8,
{2}2,2,
{4}3,3,3,,
{2}4,4,
{4}5,5,4/5,,
{2}6,6,
{4}7,7,7,,
{2}8,8,
{4}1,1,1/8,,
{2}7,7,
{4}6,6,6,,
{2}5,5,
{4}4,4,4/5,,
{2}3,3,
{4}2,2,2,,
{2}1,1,
{4}8,8,1/8,,
{1}1-4[4:3],
{1},
{1}8-5[4:3],
{1},
{2}1/8,1/8,
{4}1/8,1/8,1b/8b,,
{4}1,1,1,,
{4}2,2,2,,
{4}3,3,3,,
{4}4,4,4/5,,
{4}5,5,5,,
{4}6,6,6,,
{4}7,7,7,,
{4}8,8,1/8,,
{4}7,7,7,,
{4}6,6,6,,
{4}5,5,5,,
{4}4,4,4/5,,
{4}3,3,3,,
{4}2,2,2,,
{4}1,1,1,,
{4}8,8,1b/8b,,
{4}1,1,1,1,
{4}2,2,1/2,,
{1}3-7[4:3],
{1},
{4}8,8,8,8,
{4}7,7,7/8,,
{1}6-2[4:3],
{1},
{4}1,1,2,2,
{4}3,3,4/5,,
{1}5-8[4:3],
{1},
{4}8,8,7,7,
{4}6,6,4/5,,
{1}4-1[4:3],
{1},
{1}1h[1:1]/2h[1:1],
{1},
{1}7h[1:1]/8h[1:1],
{1},
{1}1h[2:1],
{1}8h[2:1],
{4}1,1,1,,
{4}8,8,8,,
{1}1b/8b,
{1},
{1},
{1},
E
&inote_3=
(146){1},
{1},
{1},
{1},
{1},
{4}3,3,2/4,,
{4}6,6,5/7,,
{4}3,3,4,4,
{4}5,5,4/6,,
{4}7,7,6/8,,
{4}2,2,1/3,,
{4}7,7,8,8,
{4}1,1,2/8,2b/8b,
{4}3,3,1/2,,
{4}6,6,7/8,,
{4}3,3,4,4,
{4}5,5,7/8,,
{4}7,7,1/8,,
{4}2,2,1/8,,
{4}6,6,5,5,
{1}4<1[2:1],
{2}7h[4:1],5/6,
{2}2h[4:1],3/4,
{2}6h[2:1],5h[2:1],
{2}4h[2:1],3,
{2}3h[4:1],1/2,
{2}6h[4:1],7/8,
{2}2h[2:1],1h[2:1],
{2}8h[2:1],7,
{4}4,4,3h[4:1],,
{4}2,1,7/8,,
{4}5,5,6h[4:1],,
{4}7,8,1/2,,
{4}1,1,2h[4:1],,
{4}3,4,5/6,,
{4}8,8,7h[4:1],,
{4}6,5,3/4,2b/5b,
{4}1,2,3,3,
{4}4,5,7/8,,
{4}8,7,6,6,
{4}5,4,1/2,,
{4}4,5,3,6,
{4}2/7,2/7,1b/8b,1b/8b,
{4}7,6,5,4,
{4}3,2,1/8,1/8,
{4}2,3,4,5,
{4}6,7,1b/8b,,
{4}7,6,4/5,4/5,
{4}3,2,1/8,,
{2}2-5[4:1],7-4[4:1],
{2}1-5[4:1],6,
{4}2,3,4,5,
{4}6,7,1/8,1/8,
{4}7,6,5,4,
{4}3,2,1b/8b,,
{4}2,3,4/5,4/5,
{4}6,7,1/8,,
{2}7-4[4:1],2-5[4:1],
{1}8-4[4:1],
{4}5,6,7/8,7/8,
{4}1,2,3/4,,
{4}5/6,7,3/4,2,
{4}1/8,2/7,3/6,,
{4}4,3,1/2,1/2,
{4}8,7,5/6,,
{4}3/4,2,5/6,7,
{1}4-1[4:1]/5-8[4:1],
{4}4/5,3/4,4/5,5/6,
{4}7/8,1/2,3/4,,
{4}3h[4:1],4,6h[4:1],5,
{4}2h[4:1],3,7h[4:1],6,
{4}1/8,7/8,1/8,1/2,
{4}3/4,5/6,7/8,,
{4}7h[4:1],8,2h[4:1],1,
{4}6h[4:1],5,3h[4:1],4,
{4}2,1,3/8,,
{4}7,8,1/6,,
{4}3,4,2/5,,
{4}6,5,4/7,,
{1}1pp4[1:1]/8qq5[1:1],
{1},
{1}4qq1[1:1]/5pp8[1:1],
{1},
{1}2b/7b,
{1},
{1},
{1},
E
&inote_4=
(146){1},
{8}5,,2/8,,,1,2/8,,
{8}4,,1/7,,,8,1/7,,
{8}5,,1/3,,,2,1/3,,
{8}4,,6/8,,,7,6/8,,
{4}3h[4:1]/5,1,4/6h[4:1],8,
{8}3,4,3,,6/8,,1/3,,
{4}4/6h[4:1],8,3h[4:1]/5,1,
{8}6,5,6,,1h[4:1]/3h[4:1],,,,
{4}3h[4:1]/5,1,4/6h[4:1],8,
{8}3,4,3,,6/8,,3h[4:1],,
{4}2h[4:1],1h[4:1],8h[4:1],7h[4:1],
{4}6<3[4:1],,,2b/7b,
{4}3/4,6/8,4/5,1/8,
{8}5/6,,1/3,,7,8,7,,
{4}5/6,1/3,4/5,1/8,
{8}3/4,,6/8,,2,1,2,,
{4}3/4,5/8,4/5,2/7,
{8}5/6,,1/4,,7,8,7,,
{4}5/6,1/4,4/5,2/7,
{1}3b>6[8:3]/4bp5[8:3],
{4}3h[4:1],4,6h[4:1],5,
{8}2h[4:1],,1,1-5[8:1],,,,,
{4}3h[4:1],4,6h[4:1],5,
{4}2h[4:1],1-5[8:1],,,
{4}6h[4:1],5,3h[4:1],4,
{8}7h[4:1],,8,8-4[8:1],,,,,
{4}6h[4:1],5,3h[4:1],4,
{4}7h[4:1],8-4[8:1],,,
{8}5b/6b,,2,1,2,,7,8,
{1}7z3[8:3],
{8}3/4,,7,8,7,,2,1,
{1}2qq7[16:7],
{2}1/7<4[8:1],2>5[8:1],
{8}7h[4:1],,8,8,,1/6,,,
{2}3>8[8:1]/5,6<1[8:1],
{8}3h[4:1],,4,4,3,,2/5,,
{4}4b/8b,1/5,3/7,2/6,
{4}3-6[16:3]/7-2[16:3],,,4/8,
{2}6h[4:1]/7h[4:1],2h[4:1]/3h[4:1],
{4}2pp4[4:1]/7qq5[4:1],,,2/7,
{4}3/4,5/7,3/8,1/5,
{4}3b>8[8:1]/7b<4[8:1],,1/5,3/7,
{4}1b/6b,2/8,1/7,2/8,
{8}5,5,3/4,,1h[8:1]/7h[8:1],,2h[8:1]/8h[8:1],,
{4}1/7,2/8,1/7,2/8,
{8}5,5,3/4,,7b-4[8:1]/8b-3[8:1],,,,
{4}1/6,2/8,1/7,2/8,
{8}5,5,3/4,,1/6,,8,7,
{4}6h[4:1],4h[4:1],2h[4:1],8,
{2}8b-4[8:1],1bv4[8:1]/7bv4[8:1],
{4}1/6,3/8,1/6,3/8,
{8}5,5,3/4,,1h[8:1]/6h[8:1],,3h[8:1]/8h[8:1],,
{4}1/6,3/8,1/6,3/8,
{8}5,5,3/4,,7b-4[8:1]/8b-3[8:1],,,,
{4}1/6,3/8,1/6,3/8,
{8}5,5,3/4,,1/6,,8,7,
{4}6h[4:1],4h[4:1],2h[4:1],8b-4[8:1],
{4},5bw1[16:3],,,
{8}2/8,,5/6,5/6,,3/4,3/4,,
{8}7,8,7h[4:1],,1,,2/4,2/4,
{8},5/7,5/7,,2,2,1,,
{16}7,,7,,8,,,,4,5,4,5,4b,,,,
{8}1/7,,3/4,3/4,,5/6,5/6,,
{8}2,1,2h[4:1],,8,,5/7,5/7,
{8},2/4,2/4,,7,7,8,,
{16}2,,2,,1,,,,5,4,5,4,5b,,,,
{8}2/7,,3/4,3/4,,1/7,1/7,,
{8}6,5,6h[4:1],,8b,,1/3,1/3,
{8},6/8,6/8,,3,3,2/4,,
{16}6,,6,,5/7,,,,1,8,1,8,1b,,,,
{8}2/7,,5/6,5/6,,2/8,2/8,,
{8}3,4,3h[4:1],,1b,,6/8,6/8,
{8},1/3,1/3,,4/5,4/5,3/6,3b/6b,
{16},,1,8,1,8,1,8,1,8,1,8,1b,,,,
{4}6h[8:13],5,7,4,
{8}8,,3,3h[4:1],,,,,
{4}3h[2:3],4,2,5,
{4}1,6h[4:1],,,
{1}1h[4:3]/8bqq5[2:1],
{1}4bqq1[2:1]/5h[4:3],
{8}2h[4:1]/8h[4:1],,,3h[8:3]/7h[8:3],,,,4h[2:1]/6h[2:1],
{8},,,,5,,3/6,2/7,
{1}1b/8b,
{1},
{1},
{1},
E
&inote_5=
(146){1},
{8}5/6,,3,5,,5,3,,
{8}3/4,,6,4,,4,6,,
{8}5/6,,3,5,,5,3,,
{8}3/4,,6,4,,4,6,,
{8}8<5[8:1],,2>5[8:1],2,,7,8,1,
{8}2h[8:5],3,4,5,5h[8:1],,7/8,,
{8}1>4[8:1],,7<4[8:1],7,,2,1,8,
{8}7h[4:3],6,5,4,4h[4:1],,,,
{8}8<5[8:1],,2>5[8:1],2,,7,8,1,
{8}2h[2:1],3,4,5,5,,6,5,
{4}4v5[8:1],6q3[8:1],2<7[8:1],5w1[8:1],
{16}5b,,,,1w5[8:1],,,,1b,,,,2/7,,1,8,
{4}1-4[8:1],5-8[8:1],2-7[8:1],6-3[8:1],
{16}2,,2,,1/3,,2,1,3,8,4,7,5,,,,
{4}8-5[8:1],4-1[8:1],7-2[8:1],3-6[8:1],
{16}7,,7,,6/8,,7,8,6,1,5,2,4,,,,
{4}2-5[8:1],6-1[8:1],3-8[8:1],7-4[8:1],
{16}3,,3,,2/4,,3,4,2,5,1,6,8,,,,
{4}7-4[8:1],3-8[8:1],5>2[8:1]*<8[8:1],5,
{16}3b/7b,,6,5,6,,1/8,,3,4,3,4,2/5,,,,
{8}3h[2:1]/4,,5,6,7h[8:7],,5,4,
{8}3,2,1,8-3[8:1]*-5[8:1],,8,,,
{8}5/6h[2:1],,4,3,2h[8:7],,3,4,
{24}5,,,6,,,7,,,8,,,8h[4:1],,,2,3,4,5,,,,,,
{8}3h[2:1]/4,,5,6,7h[8:7],,5,4,
{8}3,2,1,8-3[8:1]*-5[8:1],,8,,,
{4}4/5p8[4:1],8p3[4:1],3p6[4:1],6p1[4:1],
{16}1<5[4:1],,,,5,,,,2,,7,2,7,1,7,8,
{8}7h[2:1],,1,2,3h[8:7],,1,8,
{8}7,6,5,4-1[8:1]*-7[8:1],,4,,,
{8}1/2h[2:1],,8,7,6h[8:7],,7,8,
{24}1,,,2,,,3,,,4,,,4h[4:1],,,6,7,8,1,,,,,,
{2}5>3[8:1]/8<5[8:1],1>4[8:1]/4<6[8:1],
{8}3h[8:3]/7,6,5,4-1[8:1]*-7[8:1],,4,,,
{4}2/8<4[4:1],4>8[4:1],8V64[4:1],4V28[4:1],
{16}8p4[4:1],,,,4p8[4:1],,,,8,,,,4,,6,4,
{8}6h[4:1],1,4h[4:1],1,6h[4:1],1,4h[4:1],1,
{8}7h[4:1],1,5h[4:1],1,6,,4p8[8:1]/8p4[8:1],,
{4}4/8,4<7[8:1]/8>3[8:1],4/8,1/5,
{8}2/5,5/8,3/5,5/7,2v5[8:1]/8v5[8:1],,2/8,,
{8}3h[4:1],8,5h[4:1],8,3h[4:1],8,5h[4:1],8,
{8}2h[4:1],8,5,3/7,2-5[8:1]/6-1[8:1],,2b/6b,,
{8}3/7<4[8:1],,3>8[8:1],3,,5,6,7,
{8}3/8,2/7,1<6[8:1]*>4[8:1]/6,1,1w5[8:1],,1,,
{8}2>5[8:1]/8,,6<1[8:1],6,,4,3,2,
{24}1/6,,,2/7,,,3/8,,,2/7,,,1/6h[4:1],,,1,2,3,4,,,,,,
{8}1/7<4[8:1],,3>8[8:1],3,,5,6,7,
{8}3/8,2/7,1w5[8:1]/6,1,1,,7,8,
{4}1-5[8:1],1<6[8:1]*>4[8:1],1,2/8,
{4}2>4[8:1]/6>4[8:1],2<8[8:1]/6<8[8:1],2/6,4/8,
{8}2>5[8:1]/8,,6<1[8:1],6,,4,3,2,
{8}1/6,2/7,3/8<5[8:1]*>3[8:1],8,8w4[8:1],,8,,
{8}1/7<4[8:1],,3>8[8:1],3,,5,6,7,
{24}3/8,,,2/7,,,1/6,,,2/7,,,3h[4:1]/8,,,8,7,6,5,,,,,,
{8}2>5[8:1]/8,,6<1[8:1],6,,4,3,2,
{8}1/6,2/7,3/8w4[8:1],8,8,,2,1,
{4}8-4[8:1],8<5[8:1]*>3[8:1],8,1/7,
{4}4-1[8:1]*-2[8:1],4-6[8:1]*-7[8:1],4w8[8:1],4,
{8}3-7[8:1]/6,,5-1[8:1],5,,2,3,4,
{8}5h[2:1],6,7,8,1>4[8:1],,1,1<6[8:1],
{16},,1,,1,,,,5/6,,4/7,,3/8,,2,2,
{48},,,1,,,1,,,,,,2,,3,,4,,1,,8,,7,,3,,4,,5,,8,,7,,6,,2b,,,,,,,,,,,,
{8}3/6-2[8:1],,4-8[8:1],4,,7,6,5,
{8}4h[2:1],3,2,1,8<5[8:1],,8,8>3[8:1],
{16},,8,,8,,,,7/8,,1/6,,2/5,,3,3,
{48},,,4,,,4,,,,,,3,,,5,,,3,,,5,,,3,,2,,1,,8,,7,,6,,4b/5b,,,,,,,,,,,,
{8}2-6[8:1]/4,,8-4[8:1],8,,3,2,1,
{8}8h[2:1],7,6,5,4<7[8:1],,4,4>1[8:1],
{16},,4,,4,,,,3/8,,2/7,,1/6,,7,7,
{48},,,8,,,8,,,,,,7,,6,,5,,8,,1,,2,,6,,5,4,,,1,,2,,3,,7b,,,,,,,,,,,,
{8}5/7-3[8:1],,1-5[8:1],1,,6,7,8,
{8}1h[2:1],2,3,4,5>2[8:1],,5,5<8[8:1],
{16},,5,,5,,,,2/5,,3/6,,4/7,,6,6,
{48},,,5,,,5,,,,,,3,,,6,,,2,,,7,,,1,,,8,,,1,,,8,,,2,,3,,4,,5,,6,,7,,
{8}1b/8b,,3/6h[2:1],5,,5,3,,
{8}3h[4:3]/4,,6,4,,4,6,,
{8}5/6h[4:3],,3,5,,5,3,,
{16}3h[4:3]/4,,,,6,,4,,,,4,,6,,4,5,
{1}4pp7[2:1]*qq1[2:1],
{1}8pp3[2:1]*qq5[2:1],
{8}2-5[8:1],,,6-1[8:1],,,,2qq7[8:3]/3q6[8:3],
{4},,,1-4[8:1]/8-5[8:1],
{1}1b/8b,
{1},
{1},
{1},
E
