&title=Calamity Fortune
&wholebpm=200
&artist=LeaF
&des=小鳥遊さん
&shortid=641
&genre=東方Project
&cabinet=SD
&version=maimai MURASAKi PLUS
&chartconverter=Neskol
&lv_2=7
&des_2=-
&lv_3=9
&des_3=-
&lv_4=12+
&des_4=玉子豆腐
&lv_5=14
&des_5=小鳥遊さん
&des_6=
&inote_2=
(200){1},
{1},
{2}1,1,
{4}1,1,1,1b,
{2}8,8,
{4}8,8,8,1/8,
{2}1,1,
{4}1/8,1/8,1/8,1/8,
{1}1-4[4:3]/8-5[4:3],
{1},
{2}4/5,4/5,
{4}4,4,3,3,
{2}1/2,1/2,
{4}8,8,7,7,
{2}5/6,5/6,
{4}4,4,3,3,
{2}1/2,1/2,
{4}1,1,8,8,
{1}7-2[4:3],
{4},,,3,
{1}3-6[4:3],
{4},,,8b,
{1}1h[4:3]/8h[4:3],
{2}7/8,7/8,
{4}7,7,8,8,
{2}1/2,1/2,
{4}3,3,4,4,
{2}5/6,5/6,
{4}7,7,8,8,
{1}1h[4:3]/8h[4:3],
{4}1/8,1/8,2/7,,
{2}3/4,3/4,
{4}5,4,5,4b,
{2}5/6,5/6,
{1}4h[2:1]/7h[2:1],
{2}7/8,7/8,
{4}1,1,2,2,
{1}3-8[4:3],
{1},
{1}8,
{1}7,
{1}6,
{1}5,
{2}3/4,3/4,
{2}3/4,3/4,
{2}1/2,1/2,
{4}1/2,1/2,1/2,1b/2b,
{1},
{1}1-6[4:3]/2-5[4:3],
{1},
{1}7-4[4:3]/8-3[4:3],
{1},
{1}5-2[4:3]/6-1[4:3],
{1},
{1}3-8[4:3]/4-7[4:3],
{1},
{2}1,1,
{2}1,1,
{2}2,2,
{2}2,2,
{4}3,3,3,,
{4}4,4,4,,
{1}5-8[4:3],
{1},
{2}8h[4:1],1h[4:1],
{4}8,8,8,8b,
{4}1,1,2,2,
{4}1,1,1,1/8,
{4}8,8,7,7,
{4}6,6,5,5,
{4}4,4,3,3,
{4}2,2,1,1,
{1}1/8,
{4}8,1,8,1b/8b,
{1}8<5[4:3],
{1},
{1}4>1[4:3],
{4},,,8b,
{2}1/2,3/4,
{2}5/6,7/8,
{4}8,7,6,5,
{4}4,3,2,1,
{1}1b/8b,
{1}1>4[4:3]/8<5[4:3],
{1},
{4}3,4,3,3,
{4}6,5,6,6,
{4}4,5,4,4,
{4}3/4,4/5,5/6,,
{4}6,5,6,6,
{4}3,4,3,3,
{4}5,4,5,5,
{4}5/6,4/5,3/4,,
{4}2,1,2,2,
{4}7,8,7,7,
{4}1,8,1,1,
{4}1/2,1/8,7/8,,
{4}7,8,7,7,
{4}2,1,2,2,
{4}8,1,8,8,
{4}1/8,2/7,3/6,4/5,
{1}4-1[4:7],
{1},
{1},
{1},
{1}5-8[4:7],
{1},
{1},
{1},
{1}1b,
{1},
{1},
{1},
E
&inote_3=
(200){1},
{1},
{4}3,4,5,,
{4}6h[2:1],,5,4/7,
{4}6,5,4,,
{4}3h[4:1],4,3/4,,
{4}5,4,3/6,3/6,
{4}4,5,3/6,,
{1}2h[2:1]/7h[2:1],
{8}1,1,8,,2b/7b,,,,
{4}3,3/4,6,5/6,
{4}4/5,4/5,3/6,,
{4}2,1/2,7,7/8,
{4}1/8,1/8,2/7,,
{4}6,5/6,3,3/4,
{4}4/5,4/5,3/6,,
{4}6,7,8,1/2,
{4}3,2,1/8,,
{2}7h[2:1],8,
{2}2h[2:1],1,
{2}3h[2:1],4,
{4}6,5,5/6,5-2[8:5]/6-1[8:5],
{1},
{4}3h[4:1],4,2/5,,
{4}6h[4:1],5,4/7,,
{4}3h[4:1],4,2/5,,
{4}3,4,5,6,
{4}7h[4:1],8,1/6,,
{4}2h[4:1],1,3/8,,
{1}2h[2:1]/7h[2:1],
{8}8,8,1,,2b/7b,,,,
{4}2,2,3,3,
{4}3h[2:1]/4h[2:1],,,2/5,
{4}6,6,7,7,
{4}8,1,2/7,,
{4}6,6,5,5,
{2}3h[4:1]/4h[4:1],5h[4:1]/6h[4:1],
{4}3,3,4,4<8[4:3],
{1},
{1}1h[1:1],
{1}2h[1:1],
{1}3h[1:1],
{2}4,4/5,
{1}5h[1:1],
{1}6h[1:1],
{1}7h[1:1],
{2}8,1/8,
{1}1-4[2:1]/8-5[2:1],
{1}7-4[2:1],
{1}2-5[2:1],
{1}8-4[2:1],
{4}3,3,2/4,,
{1}3-8[2:1],
{1}6-1[2:1],
{1}4-8[2:1],
{4}7,7,6/8,,
{1}7<4[2:1],
{1}2>5[2:1],
{1}8<5[2:1],
{4}4,4,3/5,,
{1}5-2[2:1]/6-1[2:1],
{1}3-8[2:1]/4-7[2:1],
{1}4qq1[4:5]/5pp8[4:5],
{1},
{1}2h[2:1]/7h[2:1],
{4}1/8,1/8,1/8,2/7,
{4}3,3,6,6,
{4}4/5,4/5,4/5,3/6,
{1}3h[2:1]/4h[2:1],
{1}5h[2:1]/6h[2:1],
{1}2h[2:1]/4h[2:1],
{1}5h[2:1]/7h[2:1],
{1}1>4[2:1]/8<5[2:1],
{4}3/6,2/7,1b/8b,,
{1}8h[1:1],
{1}7h[1:1],
{1}6h[1:1],
{4}5h[2:1],,6,5/6,
{1}4h[1:1]/5,
{1}3h[1:1],
{1}2h[1:1],
{4}1,,2/7,2>7[4:3]/7,
{1},
{4}1/8,1/8,2/7,2/7,
{4}3/6,3/6,4/5,2b/7b,
{4}3,2/4,6,5/7,
{4}4/6,3/7,2/8,,
{4}6,5/7,3,2/4,
{4}3/5,2/6,1/7,,
{4}6,5/7,3,2/4,
{4}3/5,2/6,1/7,,
{4}5/6,4/7,3/8,1/2,
{4}3/4,2/5,1/6,7b/8b,
{4}1/8,1/2,1/8,7/8,
{4}5/6,3/4,2/5,,
{4}4/5,5/6,4/5,3/4,
{4}1/2,7/8,1/6,,
{4}1/8,7/8,1/8,1/2,
{4}1/8,6/8,1/8,1/3,
{8}2,2,2,,7,7,7,,
{8}1,1,1,,1/8,1/8,1/8,,
{1}1pp4[4:5]/8,
{1},
{1}5pp8[4:5],
{1},
{1}2h[2:1]/7h[2:1],
{1}3h[2:1]/6h[2:1],
{1}4qq1[4:5]/5pp8[4:5],
{1},
{1}2b/7b,
{1},
{1},
{1},
E
&inote_4=
(200){1},
{1},
{4}6h[4:1],5,7h[4:1],5,
{8}7/8,,1/8,,1,8,2b/7b,,
{4}3h[4:1],4,2h[4:1],4,
{4}1/2,1>4[4:1]/8q5[4:1],,,
{4}6h[4:1],5,7h[4:1],5,
{4}2h[4:1],4,3h[4:1],4,
{4}3/4,4-1[16:3]/5-8[16:3],,,
{8}1/8,1/8,1/8,,2b/7b,,,,
{4}3/4<7[16:3],2,1,7/8,
{4}5>2[16:3]/6,7,8,1/2,
{4}3/4<7[16:3],2,1,1/8,
{4}2h[4:1],4h[4:1],6h[4:1],8,
{4}7/8>3[16:3],6,5,3/4,
{4}1<6[16:3]/2,3,4,5/6,
{4}7/8>3[16:3],6,5,4/5,
{4}3h[4:1],1-4[16:3]*-6[16:3],,,
{4}2h[4:1],4,5h[4:1],4,
{4}2h[4:1],4,1>4[16:3],,
{4}7h[4:1],5,4h[4:1],5,
{4}7h[4:1],5,8,1b,
{4}8-5[16:3],3q4[8:3],,,
{8}2/4,,6/8,,2,1,3/8,,
{8}5/7,,1/3,,7,8,1/6,,
{4}3-1[8:1]/4,8,3-1[8:1]/4,8,
{4}4/7-5[8:1],1-3[8:1],8-4[8:1],,
{8}2/4,,6/8,,2,1,3/8,,
{4}4/6-8[8:1],2,4/6-8[8:1],2,
{4}1/2,2-5[16:3]/3-7[16:3],,,
{8}1/8,1/8,1/8,,2b/7b,,,,
{4}7h[4:1],5,4h[4:1],5,
{8}5,5,5-8[16:3],,,,1b,,
{4}2h[4:1],4,5h[4:1],4,
{4}1/8,2>8[8:3]/7,,,
{4}6h[4:1],5,3h[4:1],5,
{4}6h[4:1]/8,2h[4:1],5h[4:1],4h[4:1],
{4}5h[4:1],6h[4:1],7h[4:1],8h[4:1],
{1}1>7[2:1]*q8[2:1],
{1}1h[1:1],
{1}8h[1:1],
{1}7h[1:1],
{1}6h[1:1],
{1}5V31[8:5],
{1}8V64[8:5],
{2}3-6[16:3],7-2[16:3],
{8}3,,4/5,4/5,3/6,,1b>4[16:5]/8b<5[16:5],,
{4},,,2/7,
{4}1-7[8:1]/2,2-4[8:1],1-6[8:1],2-5[8:1],
{4}8-6[8:1],1-3[8:1],8-5[8:1],1-4[8:1],
{4}7-5[8:1],8-2[8:1],7-4[8:1],8-3[8:1],
{4}7<4[16:3],3,2,1/3,
{4}7/8-2[8:1],7-5[8:1],8-3[8:1],7-4[8:1],
{4}1-3[8:1],8-6[8:1],1-4[8:1],8-5[8:1],
{4}2-4[8:1],1-7[8:1],2-5[8:1],1-6[8:1],
{4}2>5[16:3],6,7/8,1/3,
{4}3/4-6[8:1],3-1[8:1],4-7[8:1],3-8[8:1],
{4}5-7[8:1],4-2[8:1],5-8[8:1],4-1[8:1],
{4}6-8[8:1],5-3[8:1],6-1[8:1],5-2[8:1],
{8}6<1[16:3],,2,,3,3,2/4,,
{4}5-3[8:1]/6,6-8[8:1],5-2[8:1],6-1[8:1],
{4}4-2[8:1],5-7[8:1],4-1[8:1],5-8[8:1],
{8}3-1[8:1],,4-6[8:1],,3-8[8:1],,4,4,
{8},2V46[8:3]/6V82[8:3],,,,,,,
{4}6h[4:1],4h[4:1],5h[4:1],3-8[8:1],
{4}4-7[8:1],3-8[8:1],4,7b,
{8}3,3,5,5,4,4,6-1[8:1],,
{8}5-2[8:1],,6-1[8:1],,5,4b,4b,,
{4}3,2/4,3,3/4,
{4}6,5/7,6,5/6,
{4}3,3/4,3,4/5,
{4}6,5/6,6,4/5-2[16:3]*-8[16:3],
{8},,,,1,8,2/7,,
{8}3,5,4,6,5,,2/7,,
{2}8h[2:1],7h[2:1],
{2}6h[2:1],5h[2:1],
{2}4h[2:1],3h[2:1],
{4}2h[2:1],,1,1b,
{1}2-6[8:3]*V46[8:3],
{1}7qq7[2:1]/8pp8[2:1],
{2}1/2-5[8:1],7-4[8:1]/8,
{8}1,,2/7,3/6,4/5,,8,,
{1}1b>4[4:1]/5b<8[4:1],
{2}2>5[8:1]/6<1[8:1],2>5[8:1]/6<1[8:1],
{4}2>5[8:1]/6<1[8:1],,2/6,4b/8b,
{16}3h[16:3],,,4-8[16:3],,,8<5[16:3]*>3[16:3],,8,,,,,,,,
{16}6h[16:3],,,5-1[16:3],,,1<6[16:3]*>4[16:3],,1,,,,,,,,
{16}3h[16:3],,,4-8[16:3],,,8<5[16:3]*>3[16:3],,8,,,,,,,,
{4}6,3-8[8:1]/7-4[8:1],,2b/6b,
{16}3h[16:3],,,4-8[16:3],,,8pp2[16:3]*qq6[16:3],,8,,,,,,,,
{16}6h[16:3],,,5-1[16:3],,,1pp3[16:3]*qq7[16:3],,1,,,,,,,,
{16}3h[16:3],,,4-8[16:3],,,8pp2[16:3]*qq6[16:3],,8,,,,,,,,
{4}6<1[8:1],2>5[8:1],6<1[8:1],2,
{16}3h[16:3],,,4<8[16:3],,,8>3[16:3]*q4[16:3],,8,,,,,,,,
{16}6h[16:3],,,5>1[16:3],,,1<6[16:3]*p5[16:3],,1,,,,,,,,
{16}3h[16:3],,,4<8[16:3],,,8>3[16:3]*q4[16:3],,8,,,,,,,,
{4}6,3-8[8:1]/7-4[8:1],,2b/6b,
{16}3h[16:3],,,4<8[16:3],,,8p2[16:3]*v2[16:3],,8,,,,,,,,
{16}6h[16:3],,,5>1[16:3],,,1q7[16:3]*v7[16:3],,1,,,,,,,,
{16}3h[16:3],,,4<8[16:3],,,8p2[16:3]*v2[16:3],,8,,,,,,,,
{8}7-3[8:1],7,8-4[8:1],8,1-5[8:1],1,2-6[8:1],2,
{1}7<4[8:5],
{1}3>8[8:5],
{1}7<4[8:5],
{4}3,2,1,8,
{1}7>2[8:5],
{1}3<6[8:5],
{1}7pp3[4:5]*qq3[4:5],
{1},
{1}1b>8[8:21]/8b,
{1},
{1},
{1},
{1},
E
&inote_5=
(200){1},
{1},
{8}5,4,3/6,4,5,4,3/6,4,
{16}4/5,,4/5,,3/6,,4,5,4,5,4,,8b,,,,
{8}4,5,3/6,5,4,5,3/6,5,
{8}1,2/8,3/7,4/6,5-2[8:1]*-8[8:1],,5b,,
{8}4,3,2/5,3,4,3,2/5,3,
{8}5,6,4/7,6,5,6,4/7,6,
{16}4/8,,,3/7,3/7,,2/6,,1-4[8:1]/5-8[8:1],,,,1/5,,,,
{16}3-8[8:1]/7-4[8:1],,3/7,,3/7,,,,2b/6b,,,,4,5,4,5,
{16}3/6,,2,1,,1,2,,7-4[8:1],,8,,1/7,,,,
{16}5/6,,7,8,,8,7,,2-5[8:1],,1,,2/8,,,,
{16}3/4,,2,1,,1,2,,7-4[8:1],,8,,1/7,,,,
{16}1-5[8:1],,,,1<6[8:1]*>4[8:1],,,,1,,,,5,4,5,4,
{16}3/6,,7,8,,8,7,,2-6[8:1],,8-4[8:1],,2,,8,,
{16}3,,2,1,,1,2,,7-3[8:1],,1-5[8:1],,7,,1,,
{16}6,,7,8,,8,7,,2-6[8:1],,8-4[8:1],,2,,8,,
{8}1-3[8:1],5-7[8:1],1-5[8:1],5w1[8:1],1,,,,
{8}7,7,2,6,6,2,5,5,
{8}2,4,4,2,3-7[8:1],3,,,
{8}2,2,7,3,3,7,4,4,
{8}7,5,5,7,6-2[8:1],,8b,,
{4}5<1[4:1],1>5[4:1],5w1[8:1],,
{16}3/8,,2-5[16:1],1,,1,2,,8-4[16:1],1,,1,8,,,,
{16}1/6,,7-4[16:1],8,,8,7,,1-5[16:1],8,,8,1,,,,
{16}3/8,,2-5[16:1],1,,1,2,,8-4[16:1],1,,1,8,,,,
{4}1w5[8:1],1,8w4[8:1],8,
{16}1/6,,7-4[16:1],8,,8,7,,1-5[16:1],8,,8,1,,,,
{8}1>4[8:1]/5<8[8:1],,1/5,,1/5,4/8,3/7,2/6,
{16}1/5,,,2/6,2/6,,3/7,,4-1[8:1]/8-5[8:1],,,,4/8,,,,
{8}2-5[8:1]/6-1[8:1],2/6,2/6,,3b/7b,,,,
{8}4,3,2/5,3,4,3,2/5,3,
{16}1/8,,1/8,2/7,3/6,,2/7,,2/7-4[8:1],,,,1b,,,,
{8}5,6,4/7,6,5,6,4/7,6,
{16}7,7,,2,2,,1/8,,3/6,,2,1,8,7,6,5,
{8}4,5,3/6,5,4,5,3/6,5,
{4}3h[8:1]/6h[8:1],3h[8:1]/6h[8:1],4h[8:1]/5h[8:1],4h[8:1]/5h[8:1],
{8}3/8,2,3/8,2,1/6,7,1/6,7,
{16}3/6,,4,5,4,,7,8,,1/6,,2,1,,3/8,,
{1}2b/7b<4[2:1],
{1}2>5[2:1],
{4}5,5,4,4,
{1}3<6[8:3],
{16}3h[1:1],,,,,,,,4,,,5,,,6,,
{16}6h[1:1],,,,,,,,5,,,4,,,3,,
{4}3h[4:1],4,6h[4:1],5,
{8}4/5,,4,5,3-8[8:1]/6-1[8:1],,3b/6b,,
{1},
{16}4,5,4,5,3,6,3,6,2,7,2,7,1,8,1,8,
{16}3,4,3,4,2,5,2,5,1,6,1,6,8,7,8,7,
{16}5,6,5,6,4,7,4,7,3,8,3,8,2,1,2,1,
{16}3,4,5,6,7,8,1,2,6,5,4,3,2,1,8,7,
{16}1,5,2,6,3,7,4,8,5,1,4,8,3,7,2,6,
{16}1,5,2,6,3,7,4,8,3,7,2,6,1,5,8,4,
{16}1,5,2,6,3,7,4,8,5,1,4,8,3,7,2,6,
{16}1,2,3,4,5,6,7,8,5,4,3,2,1,8,7,6,
{16}1/5,,3,4,3,,4/8,,6,5,6,,5,4,3,2,
{16}1/5,,6,5,6,,4/8,,3,4,3,,4,5,6,7,
{16}4/8,,2,1,2,,1/5,,7,8,7,,2,1,2,,
{16}1/5,2,3,4,5,6,7,8,1/5,4,3,2,1,8,7,6,
{16}1/5,,3,4,3,,4/8,,6,5,6,,5,4,3,2,
{16}1/5,,6,5,6,,4/8,,3,4,3,,4,5,6,7,
{16}4/8,,2,1,2,,1/5,,7,8,7,,1/8,,2/7,,
{8},2/4,,5/7,1/8,2/7,3/6,4/5,
{4}3h[4:3]/6,6,5,5,
{4}4-1[8:1]*-2[8:1],4-6[8:1]*-7[8:1],4,1b,
{16}3/6,,4,4,4,,4/5,,3/6,,3h[4:1]/6h[4:1],,,,,,
{8}5<8[8:1],,5>2[8:1],,5,8b,8b,,
{4}2-7[4:1],7-4[4:1],4-1[4:1],1-5[4:1],
{4}5-2[4:1],2-7[4:1],7-4[4:1],4-1[4:1],
{4}1-5[4:1],5-2[4:1],2-7[4:1],7-4[4:1],
{4}4-1[4:1],1-5[4:1],5-2[8:1],2,
{16}1s5[8:1]/8z4[8:1],,,,,,,,3,6,3,6,4h[8:1]/5h[8:1],,,,
{16}3/6,,5,4,5,,2,1,,3/8,,7,8,,1/6,,
{1}2b>5[2:1]/7b,
{1}7<4[2:1],
{4}4,4,5,5,
{4}6>3[8:3],,,1b,
{16}6h[1:1],,,,,,,,5,,,4,,,3,,
{16}3h[1:1],,,,,,,,4,,,5,,,6,,
{4}6h[4:1],5,3h[4:1],4,
{8}3/6,,4/5,3/6,4-8[8:1]/5-1[8:1],,4/5,,
{16}2b/7b,,,,1,8,1,8,2,7,2,7,3,6,3,6,
{4}4-2[8:1]/5-2[8:1],4-7[8:1]/5-7[8:1],4-8[8:1]/5-1[8:1],4/5,
{32}1,2,3,4,5,6,7,8,1,2,3,4,5,6,7,8,1w5[8:1],,,,,,,,1b,,,,,,,,
{16}3/8,,2,1,2-5[8:1],1,2,,2/8-4[8:1],,7,,1/8,,2,,
{16}1/6,,7,8,7-4[8:1],8,7,,1-5[8:1]/7,,2,,1/8,,7,,
{16}3/8,,2,1,2-5[8:1],1,2,,2/8-4[8:1],,7,,1/8,,2,,
{32}1/8,,,,1,2,3,4,5,,,,8,7,6,5,4,,,,1,2,3,4,5,,,,,,,,
{16}1/6,,7,8,7-4[8:1],8,7,,1-5[8:1]/7,,2,,1/8,,7,,
{16}3/8,,2,1,2-5[8:1],1,2,,2/8-4[8:1],,7,,1/8,,2,,
{16}1/6,,7,8,7-4[8:1],8,7,,1-5[8:1]/7,,2,,1/8,,7,,
{16}4,5,4,,3/6,,7,8,,1/6,,2,1,,3/8,,
{16}2/6,,7,8,6>3[8:1],8,7,,1-5[8:1]/6,,2,,1/8,,6,,
{16}3/7,,2,1,3<6[8:1],1,2,,3/8-4[8:1],,7,,1/8,,3,,
{16}2/6,,7,8,6>3[8:1],8,7,,1-5[8:1]/6,,2,,1/8,,6,,
{32}2/7,,,,1h[8:1]/8,7,6,5,4,,,,1/8h[8:1],2,3,4,5,,,,1h[8:1]/8,7,6,5,4,,,,,,,,
{16}3/7,,2,1,3<6[8:1],1,2,,3/8-4[8:1],,7,,1/8,,3,,
{16}2/6,,7,8,6>3[8:1],8,7,,1-5[8:1]/6,,2,,1/8,,6,,
{16}3/7,,2,1,3<6[8:1],1,2,,3/8-4[8:1],,7,,1/8,,3,,
{16}5,4,5,,3/6,,2,1,,3/8,,7,8,,1/6,,
{1}2b>5[2:1]/7b,
{1}7<4[2:1],
{1}2>5[2:1],
{4}6,5,4,3,
{1}5<8[2:1],
{1}4>1[2:1],
{16}1,8,1,8,1,8,1,8,2,7,2,7,2,7,2,7,
{32}1,2,3,4,5,,,,8,7,6,5,4,,,,1,2,3,4,5,6,7,8,1,2,3,4,5,6,7,8,
{1}1b<1[4:11]*>1[4:11]/5b,
{1},
{1},
{1},
{1},
{1},
E
