&title=華鳥風月
&wholebpm=123
&artist=幽閉サテライト
&des=rioN
&shortid=541
&genre=東方Project
&cabinet=SD
&version=maimai MURASAKi PLUS
&chartconverter=Neskol
&lv_2=2
&des_2=-
&lv_3=6
&des_3=-
&lv_4=9+
&des_4=某S氏
&lv_5=12+
&des_5=rioN
&des_6=
&inote_2=
(123){1},
{1},
{1}1,
{1}1,
{1}2,
{1}2,
{2}3,3,
{2}3,3,
{1}4h[2:1],
{4}4,4,4,4,
{4}5,5,5,,
{4}6,6,6,,
{4}7,7,7,,
{1}8h[2:1],
{4}1,1,1,,
{4}2,2,2,,
{1}3h[1:1]/4h[1:1],
{1},
{1}4b/5b,
{1}3,
{1}4/5,
{1}6,
{2}4,4,
{2}3,3,
{1}2-5[4:3],
{1},
{2}6,6,
{2}7,7,
{1}8-3[4:3],
{1},
{2}3,3,
{2}2,2,
{1}1-6[4:3],
{1},
{1}6h[2:1],
{1}7h[2:1],
{1}8-4[4:3],
{1},
{1}3h[2:1],
{1}2h[2:1],
{1}1-5[4:3],
{1},
{4}6,6,6,,
{4}7,7,7,,
{4}8,8,8,,
{1}1/8,
{4}1,1,1,,
{4}2,2,2,,
{1}3h[1:1],
{1},
{4}4,4,4,,
{4}3,3,3,,
{4}2,2,2,,
{1}1b/8b,
{4}8,8,8,,
{4}7,7,7,,
{1}6-3[4:3],
{1},
{4}1,1,1,,
{4}2,2,2,,
{4}3,3,3,,
{4}4,4,5,5,
{4}4,4,4,,
{4}5,5,5,,
{1}4-1[4:3],
{1},
{2}8,8,
{2}7,7,
{1}6h[1:2],
{1},
{1},
{1},
{1},
E
&inote_3=
(123){1},
{1},
{1}3h[1:1],
{1}4,
{1}6h[1:1],
{1}5,
{2}3h[1:1],4,
{1}4,
{2}6h[1:1],5,
{4}5,,4/5,3/6,
{4}2b,1,8,7,
{4}5/6,5/6,4/7,,
{4}7,8,1,2,
{1}3-8[8:3]/4-7[8:3],
{4}1,8,7,6,
{4}5,4/6,3/7,2/8,
{1}1>5[4:3],
{4},,5,6,
{2}7h[2:1],8,
{2}2h[2:1],1,
{1}7<4[2:1],
{4}3,3,1/2,,
{4}2h[2:1],1,1,,
{4}7h[2:1],8,8,,
{1}2>5[2:1],
{4}6,5,4/7,,
{4}6h[2:1],5,5,,
{4}3h[2:1],4,4,,
{1}6<1[2:1],
{4}2,2,3/4,,
{4}3h[2:1],4,4,,
{4}6h[2:1],5,5,,
{1}3>8[2:1],
{4}6,5,4/7,,
{4}3h[2:1],4,5,,
{4}6h[2:1],5,4,,
{1}3>8[2:1]/4<7[2:1],
{4}7,7,5/6,,
{4}6h[2:1],5,4,,
{4}3h[2:1],4,5,,
{1}5qq2[1:1]/6pp1[1:1],
{1},
{4}3b/4b,3/4,2/5,,
{4}5/6,5/6,4/7,,
{4}4/5,3/6,2/7,1/8,
{1}1h[2:1]/8h[2:1],
{4}7/8,7/8,1/6,,
{4}1/2,1/2,3/8,,
{4}1/8,2/7,3/6,4/5,
{1}4-1[2:1]/5-8[2:1],
{4}7b,8,1,2,
{4}3/4,3/4,2/5,,
{4}2,1,8,7,
{1}5-2[8:3]/6-1[8:3],
{4}8,1,2,3,
{4}4,3/5,2/6,1/7,
{1}8<5[2:1],
{1}4>1[2:1],
{4}7b,8,1,2,
{4}3/4,3/4,1/6,,
{4}2,1,8,7,
{1}5>2[8:3]/6<1[8:3],
{4}8,1,2,3,
{4}4,3/5,2/6,1/7,
{1}8<4[8:5],
{4}3,6,4,5,
{1}2b/7b,
{1},
{1},
{1},
E
&inote_4=
(123){1},
{4},,,1/8,
{1}1>4[2:1]/8<5[2:1],
{4}2/7,,2/8,1/7,
{2}4/8,1/5,
{4}3h[2:1]/7h[2:1],,,1/8,
{1}1p4[2:1]/8<5[2:1],
{1}4>1[2:1]/5p8[2:1],
{1}1-5[2:1]/8-4[2:1],
{8}1/2,,,4/5,,,7/8,,
{8}1h[4:1],,7h[4:1],,5,6,5,,
{8}8h[4:1],,2h[4:1],,4,3,4,,
{8}1-4[8:1],,8,,8-5[8:1],,1,1h[4:1],
{8},8,8,2,2,6,6,4,
{8}4h[4:1],,3h[4:1],,2,1,2/8,,
{8}5h[4:1],,6h[4:1],,7,8,1/7,,
{1}1pp4[4:3]/8qq5[4:3],
{1},
{1}3p5[2:1]/6b,
{1}3/6q4[2:1],
{1}2p4[4:3]/7q5[4:3],
{8},,,,4/5,,4,5,
{8}3/6,,3,3h[8:3],,2,2,,
{8}3/6,,6,6h[8:3],,7,7,,
{4}2h[4:1],8,7h[4:1],1,
{4}3h[4:1]/4,8,5/6h[4:1],1b,
{8}2h[4:3],,,8h[8:3],,,,,
{8}7h[4:3],,,1h[8:3],,,,,
{2}1-5[8:1],8-4[8:1],
{2}2-5[8:1],7-4[8:1],
{8}2h[4:3],,,4h[8:3],,,,,
{8}7h[4:3],,,5h[8:3],,,,,
{2}4-8[8:1],5-1[8:1],
{2}3-8[8:1],6-1[8:1],
{4}3h[4:3],5,4,5,
{4}6h[4:3],4,5,4,
{4}2h[4:3],4,5,4,
{4}7h[4:3],5,4,5,
{4}1h[4:3],3,4,3,
{4}8h[4:3],6,5,6,
{4}1/2,3/4,5/6,7/8,
{4}5/6,3/4,1/2,7b/8b,
{8}1/7,,1/7,,2,1,2,,
{8}2/8,,2/8,,7,8,7,,
{8}4/6,,4/6,,3,4,3,,
{4}3<6[4:1],,,1/8,
{4}7/8,1/6,2/5,3/4,
{4}1/2,3/8,4/7,5/6,
{1}5qq2[4:3]/6pp1[4:3],
{4},,4/5,2b/7b,
{4}2h[4:3],3,1,3,
{4}7h[4:3],6,8,6,
{4}3h[4:3],4,2,4,
{4}6h[4:3],5,7,5,
{4}7/8,1/6,5/6,4/7,
{4}3/4,2/5,1/2,3/8,
{1}1qq6[2:1]/2pp5[2:1],
{8}7/8,,,4/5,,,1b/2b,,
{8}8h[4:1],,2h[4:1],,4,3,4,,
{8}1h[4:1],,7h[4:1],,5,6,5,,
{8}8-5[8:1],,1,,1-4[8:1],,8,8h[4:1],
{8},1,1,7,7,3,3,5,
{8}5h[4:1],,6h[4:1],,7,8,1/7,,
{8}4h[4:1],,3h[4:1],,2,1,2/8,,
{1}1pp4[4:3]/8qq5[4:3],
{1},
{2}4/8,2/6,
{2}3/7,1/5,
{1}4>5[4:7]/8,
{1},
{1},
{1},
{1},
E
&inote_5=
(123){1},
{8},,,,,,1,8,
{1}7<2[4:3],
{4}1>5[4:1],,8-4[8:1],1-5[8:1],
{2}8<4[4:1],1s5[4:1],
{8}6h[2:1],,,,3,,8,1,
{16}2>7[4:1],,,,,,,,8h[16:3],,,7h[16:3],,,6,,
{4}3/5-2[8:1],1,4-7[8:1]/6,8,
{1}4>5[2:1]/5<4[2:1],
{8}1/8,,,4/5,,,2b/7b,,
{16}7-5[8:1]/8-4[8:1],,,,7/8,,,,3p7[8:1],,,6,,,6,,
{16}1-3[8:1]/8-4[8:1],,,,1/8,,,,5q2[8:1],,,3,,,3,,
{8}1-5[8:1]/8-6[8:1],,1/8-4[8:1],,3-1[8:1]/8,,3/8,8,
{8},6,1/2,3,7/8,5/6,3/4,1b/8b,
{16}2-5[8:1]/6-1[8:1],,,,,,,,3/4<8[8:1],,,1,,,1,,
{8}3,2/4,1/5,6/8,7,1/8,4>2[8:1]/5p1[8:1],,
{1}4q5[2:1]/5<4[2:1],
{16}3,4,3,4,1,8,1,8,2/7,,4/5,,,1b/8b,,,
{8}2h[8:3],,,3h[8:3],,,4,,
{8}7h[8:3],,,6h[8:3],,,5,,
{8}3,4,5,6,,2/7,,1/8,
{4}1/8-3[8:1],5p4[4:1],,,
{8}1h[4:1]/6,,2,4h[4:1]/8,,3,2/5,,
{8}3/8h[4:1],,7,1/5h[4:1],,6,4/7,,
{8}1h[4:1]/6,,2,3/8h[4:1],,7,3/6,,
{16}3-1[8:1]/8-4[8:1],,,,3/8,,,,5/6,,,3/4,,,2/7,,
{8}3h[4:1],5,4,1h[4:1],3,2,7/8,2/4,
{8}6h[4:1],4,5,8h[4:1],6,7,1/2,5/7,
{8}4h[4:1],2,3,5h[4:1],7,6,1/8,4/5,
{8}1-5[8:1]/6-8[8:1],,1/6,,3/4,,4/7,3/6,
{8}2h[4:1]/5,4,3,1h[4:1]/4,3,2,7/8,5/6,
{8}4/7h[4:1],5,6,5/8h[4:1],6,7,1/2,3/4,
{16}2,1,2,1,3,8,3,8,4,7,4,7,5,6,5,6,
{16}8,7,8,7,1,6,1,6,2-4[8:1]/5-1[8:1],,,,2b/5b,,,,
{16}7h[4:1],,1,2,3,,6h[4:1],,8,1,2,,5,,3/4,,
{16}2h[4:1],,8,7,6,,3h[4:1],,1,8,7,,4,,5/6,,
{16}7h[4:1],,8,1,2,,6h[4:1],,7,8,1,,5,,3/4,,
{16}2h[4:1],,1,8,7,,3h[4:1],,2,1,8,,4/5,,2/7,,
{16}6h[4:1]/8,,5,4,3,,1/7h[4:1],,6,5,4,,2/8,,4/5,,
{16}1/3h[4:1],,4,5,6,,2h[4:1]/8,,3,4,5,,1/7,,4/5,,
{16}7,8,7,8,6,1,6,1,5,2,5,2,4,3,4,3,
{16}1,2,1,2,8,3,8,3,4-8[8:1]/7-5[8:1],,,,4b/7b,,,,
{16}1-5[8:1]/2-4[8:1],,,,1/2,,,,6q2[8:1],,,3,,,3,,
{16}1-5[8:1]/8-6[8:1],,,,1/8,,,,4p7[8:1],,,6,,,6,,
{16}4w8[8:1],,,,,,,,5>1[8:1]/6,,,8,,,8,,
{8}3/4<8[8:1],,,,1/2,,7/8,1/6,
{8}2-5[8:1]/5,,2/6,7-4[8:1],,3/7,2,,
{1}1>8[2:1]/8<1[2:1],
{1}4bqq1[2:1]/5bpp8[2:1],
{16}6,5,6,5,8,1,8,1,2b/7b,,,,4-8[8:1]/5-1[8:1],,3/6,,
{8}4/5,,4/5,3/6,2-6[8:1]/7,,2<7[8:1],,
{8}2-5[8:1],,2,1-4[8:1],,1,8-5[8:1],,
{4}7-4[8:1]/8,7>2[8:1],7-3[8:1],7,
{8}2-5[8:1]/6-1[8:1],,2/6,,3/7,,2/6,1/5,
{16}4-7[8:1]/8-3[8:1],,,,4/8,,,,1h[16:3],,,2h[16:3],,,3,,
{4}4-7[8:1]/6,1/4,3/5-2[8:1],5/8,
{1}4>5[2:1]/5<4[2:1],
{8}4/7-4[8:1],,3/7,2-5[8:1],,2/6,8b,,
{16}2-6[8:1]/8-3[8:1],,,,2<7[8:1]/8,,,,5,,,4,,,2/3,,
{16}1-6[8:1]/7-3[8:1],,,,1/7>2[8:1],,,,4,,,5,,,6/7,,
{8}1-3[8:1]/8-4[8:1],,1-5[8:1]/8,,1/6-8[8:1],,1/6,1,
{8},3/4,1/7,5/6,2/8,3/4,5/6,1b/8b,
{16}3-8[8:1]/7-4[8:1],,,,3/7,,,,5>1[8:1]/6,,,8,,,8,,
{8}6,5/7,4/8,1/3,2,1/8,4q8[8:1]/5<7[8:1],,
{1}4>5[2:1]/5p4[2:1],
{16}2,1,2,1,4,5,4,5,8,7,8,7,4,5,2,7,
{2}4-8[4:1],5-1[4:1],
{2}2-6[4:1],7-3[4:1],
{1}1b>8[4:7],
{1},
{1},
{1},
{1},
E
