&title=白ゆき
&wholebpm=210
&artist=n-buna
&des=ぴちネコ
&shortid=587
&genre=niconicoボーカロイド
&cabinet=SD
&version=maimai MURASAKi PLUS
&chartconverter=Neskol
&lv_2=5
&des_2=-
&lv_3=8
&des_3=-
&lv_4=11+
&des_4=はっぴー
&lv_5=13
&des_5=ぴちネコ
&des_6=
&inote_2=
(210){1},
{1},
{1},
{1},
{1},
{1},
{1},
{1},
{1},
{1},
{1}1,
{1}1,
{1}1/8,
{1},
{1}8,
{1}8,
{1}1/8,
{1}1b/8b,
{2}1,1,
{1}1,
{2}2,2,
{1}2,
{2}3,3,
{1}3,
{2}4,4,
{1}4/5,
{2}5,5,
{1}5,
{2}6,6,
{1}6,
{2}7,7,
{1}7,
{2}8,8,
{1}1/8,
{1}1h[1:1],
{1},
{1}1-5[4:3],
{1},
{1}8h[1:1],
{1},
{1}8-4[4:3],
{1},
{1}1,
{1}1,
{1}1-5[4:3],
{1},
{1}8,
{1}8,
{1}8-4[4:3],
{1},
{2}1,1,
{1}1/2,
{2}8,8,
{1}7/8,
{2}1,1,
{2}2,2,
{1}3h[1:1]/4h[1:1],
{1},
{2}5,5,
{2}6,6,
{2}7,7,
{1}1/8,
{2}1,1,
{2}8,8,
{1}2h[1:1]/7h[1:1],
{1},
{4}8b,8,8,,
{4}7,7,7,,
{4}6,6,6,,
{4}5,5,5,,
{2}4,4,
{2}3,3,
{2}1/2,1/2,
{1}1/2,
{4}1,1,1,,
{4}2,2,2,,
{4}3,3,3,,
{4}4,4,4,,
{2}5,5,
{2}6,6,
{2}7/8,7/8,
{1}7/8,
{1}1-4[4:3],
{1},
{2}8,8,
{1}8,
{1}8-5[4:3],
{1},
{2}1,1,
{1}1,
{1}2-5[4:3],
{1},
{2}8,8,
{1}8,
{1}7-4[4:3],
{1},
{2}1,1,
{1}1,
{2}2,2,
{2}3,3,
{2}4,4,
{1}4/5,
{2}6,6,
{2}7,7,
{2}8,8,
{1}1/8,
{1}1/2,
{1}2,
{1}3/4,
{1}4,
{1}5/6,
{1}6,
{1}7/8,
{1}1/8,
{1},
{1},
{1},
E
&inote_3=
(210){1},
{1},
{1},
{1},
{1},
{1},
{1},
{1},
{1},
{1},
{1}4h[2:1],
{1}5h[2:1],
{1}3h[2:1],
{1}6h[2:1],
{2}4,4,
{2}5,5,
{2}3,3,
{1}3,
{4}2,2,1,,
{4}7,7,8,,
{4}1,1,8,,
{4}8,1,1/8,,
{4}7,7,8,,
{4}2,2,1,,
{4}8,8,1,,
{4}1/8,1/8,2/7,,
{4}3,3,4,,
{4}6,6,5,,
{4}4,4,5,,
{4}5,4,4/5,,
{4}6,6,5,,
{4}3,3,4,,
{4}5,5,4,,
{4}4/5,4/5,3b/6b,,
{2}6,5/6,
{4}3,4,3/4,,
{2}6,5/6,
{4}4,5,4/5,,
{2}3,3/4,
{4}6,5,5/6,,
{2}3,3/4,
{4}5,4,3/6,,
{2}7,7/8,
{4}2,1,1/2,,
{2}7,7/8,
{4}1,8,1/8,,
{2}2,1/2,
{4}7,8,7qq4[2:3]/8pp3[2:3],,
{1},
{1},
{2}2h[2:1],1,
{2}7h[2:1],8,
{2}2h[2:1],1s5[8:7],
{1},
{2}6,5/6,
{2}3,3/4,
{1}4h[2:1]/5h[2:1],
{4}5,4,3/6,,
{2}3,3/4,
{2}6,5/6,
{4}4,5,4/5,,
{4}4,4/5,3/6,,
{2}7h[2:1],8,
{2}2h[2:1],1pp6[4:5],
{1},
{2},8,
{4}7b,7,7/8,,
{4}2,2,1/2,,
{4}7,7,7/8,,
{4}2,2,1-6[4:3]/2-5[4:3],,
{1},
{4}6,6,5,5,
{4}4,4,3,4,
{2}2/5,1,
{4}2b,2,1/2,,
{4}7,7,7/8,,
{4}2,2,1/2,,
{4}7,7,7-4[4:3]/8-3[4:3],,
{1},
{4}3h[2:1],,4,4,
{4}2,2,1,1,
{4}8,8,1/7,,
{4}2b,2,1/3,,
{4}7,7,6/8,,
{4}2,2,1,1,
{4}8,8,1/7,,
{4}7,7,6/8,,
{4}2,2,1/3,,
{4}7,7,6,6,
{4}5,5,4/6,,
{4}3,3,2/4,,
{4}6,6,5/7,,
{4}3,3,4,4,
{4}5,5,4/6,,
{4}6,6,5/7,,
{4}3,3,2/4,,
{4}5,5,6,6,
{4}7,8,1/6,,
{4}1,2,3/8,,
{4}8,7,1/6,,
{4}1,1,8,8,
{4}1/8,1/8,2/7,,
{4}8,7,1/6,,
{4}1,2,3/8,,
{4}8,8,1,1,
{4}1/8,2/7,3/6,,
{1}2h[1:1],
{1}3h[1:1],
{1}4h[1:1],
{1}5,
{1}7h[1:1],
{1}6h[1:1],
{1}5h[16:15],
{1},
{1},
{1},
E
&inote_4=
(210){1},
{1},
{1},
{1},
{1},
{1},
{1},
{1},
{1},
{1},
{2}4/5h[2:3],4,
{2}4,4h[1:2],
{2}5,5,
{2}5,5h[1:2],
{2}4,4,
{2}4,4h[8:19],
{2}5,5,
{1}5h[8:7],
{4},2/7,3,3/4,
{4}2,4/5,6,5/6,
{4}7,4/5,3,3/4,
{4}2,4/5,4h[8:3]/5h[8:3],,
{4},2/7,6,5/6,
{4}7,4/5,3,3/4,
{4}2,4/5,6,5/6,
{4}7,4/5,4h[8:3]/5h[8:3],,
{4},3/6,2,1/2,
{4}3,1/8,7,7/8,
{4}6,1/8,2,1/2,
{4}3,1/8,2h[8:3]/7h[8:3],,
{4},4/5,7,7/8,
{4}6,1/8,2,1/2,
{4}3,1/8,7,7/8,
{4}6,1/8,2/7,6h[4:5],
{4}5,5,4,4,
{4}3h[4:3],4,5,6<1[4:1],
{4},,5,5/6,
{4}4,3/4,2/5,3h[4:5],
{4}4,4,5,5,
{4}6h[4:3],5,4,3>8[4:1],
{4},,4,3/4,
{4}5,5/6,4/7,6h[1:2],
{4}5,5,4,4,
{4}3,4,5,7>2[4:1],
{4},,4,3/4,
{4}5,5/6,4/7,3h[1:2],
{4}4,4,5,5,
{4}6,5,4,2<7[4:1],
{4},,5,5/6,
{4}4,3/4,2/7,,
{8}7h[8:3],,,6h[8:3],,,5,,
{4}4,4,3/5,,
{8}2h[8:3],,,3h[8:3],,,4,,
{4}5,5,4/6,,
{8}7h[8:3],,,6h[8:3],,,5,,
{4}4,3,1/4,,
{8}2h[8:3],,,3h[8:3],,,4,,
{4}5,6,5/8,,
{4}6h[4:7],5,8,8,
{4}5,7,5,4,
{4}5/7,3,2qq7[4:3]/5,,
{1},
{4}3h[4:7],4,1,1,
{4}4,2,4,5,
{4}2/4,6,4/7,3,
{4}2/5,4/5,2b/7b,,
{4}5/7,4/5,2/4,1/8,
{4}5/7,4/5,1-6[4:1]/2-5[4:1],,
{4},4/5,1/8,2/7,
{4},5h[4:1],6h[4:1],7h[4:1],
{4}8,3/4,2/5,6h[4:1],
{4}5,3h[4:1],4,6h[4:1],
{4}8h[4:1],1h[4:1],3h[4:1],4,
{4}2/5,5/6,1/2,3/8,
{4}2/4,4/5,5/7,1/8,
{4}2/4,4/5,7-4[4:1]/8-3[4:1],,
{4},4/5,1/8,2/7,
{4},4h[4:1],3h[4:1],2h[4:1],
{4}1,5/6,4/7,3h[4:1],
{4}4,6h[4:1],5,4/7,
{4}3/4,2/5,5/6,1>4[4:1]/8<5[4:1],
{4},,2/7,7h[8:23],
{4}8,1,2,3,
{4}4,5,6>8[8:5],,
{8},,,,,8p3[8:3],,,
{4},,2,2h[8:23],
{4}1,8,7,6,
{4}5,4,3<1[8:5],,
{8},,,,,1q6[8:3],,,
{4},,4/5,4/5,
{4}3,2/4,6,5/7,
{4}3,2/4,6,5/7,
{4}2,1/3,7,6/8,
{4}2,1/3<6[4:1],,,
{4}6,5/7,3,2/4,
{4}6,5/7,3,2/4,
{4}7,6/8,2,1/3,
{4}7,6/8,4/5,3h[1:1],
{4}4,2,5,6h[1:1],
{4}5,7,4,3h[1:1],
{4}4,2,4,6h[1:1],
{4}5,7,5,3h[1:1],
{4}4,8,5,6h[1:1],
{4}5,1,4,3h[1:1],
{4}4,8,5,6h[1:1],
{4}4,1,5,3>6[1:1],
{1},
{1},
{1}6<3[1:1],
{8},,,,,,,3h[8:5],
{8},,,,4,,,4h[8:5],
{8},,,,5,,,5h[8:5],
{2},6>3[8:3],
{1},
{1},
{1},
E
&inote_5=
(210){1},
{8},,,,,,7,7<3[4:3],
{2},1h[8:3],
{4},1,2/8,3/7,
{4}4qq1[8:7]/6pp1[8:7],4/6,,,
{8},,,,,,2/8,2>6[4:3]/8h[1:1],
{1},
{8},,8,,1/7,,2/6,2pp5[8:7]/6pp1[8:7],
{1},
{8},,,,,,8,8h[8:5],
{8}4,,,,3,,,1,
{4}2,8,1/7,6,
{4}2/5pp8[4:3],5,3,,
{8}4,,,,4/5,,1,1h[8:5],
{8}5,,,,6,,8,8,
{4}7,1,2/8,3,
{2}4/7,6,
{8}4h[2:1]/5h[2:1],,,,,,,2b/7b,
{8},3,3,,1/2,1/2-5[8:1],,8,
{8},6,6,,7/8,7-4[8:1]/8,,1,
{8},3,3,,1/2,1/2-5[8:1],,8,
{8},6,6,,7/8,7-4[8:1]/8,,1,
{8},3,3,,1/2,1-5[8:1]/2,,8,
{8},6,6,,7/8,7/8-4[8:1],,1,
{8},3,3,,1/2,1-5[8:1]/2,,8,
{8},6,6,,7/8,7/8-4[8:1],,1,
{8},2,2-4[8:1],,5,5-1[8:1],,3,
{8},4,4-8[8:1],,7,7-5[8:1],,1,
{8},2,2-6[8:1],,7,7-1[8:1],,4,
{8},3,3-5[8:1],,6,6,,1/2,
{8},7,7-5[8:1],,4,4-8[8:1],,6,
{8},5,5-1[8:1],,2,2-4[8:1],,8,
{8},7,7-3[8:1],,2,2-8[8:1],,5,
{8},6,6-4[8:1],,3,3,,7h[8:3]/8,
{8},,5,,1/2h[4:1],,4,4h[8:3],
{4},5h[4:1],6h[4:1],7h[4:1],
{8}8q1[8:3],,1,,,,3,3,
{8},6,5/6,,3/4,,5,4/5pp8[8:5],
{8},,2,,,,1,1h[8:3],
{8},,8h[4:1],,7h[4:1],,6,6,
{8},,2/7,,3,1/2-4[8:1],,1/2,
{8},6,7-5[8:1]/8,,7/8,,2,2h[8:3],
{8},,4,,7h[4:1]/8,,5,5h[8:3],
{8},,4h[4:1],,3h[4:1],,2,2,
{8},1p8[8:3]/8,,,,,6,6,
{8},3,3/4,,5/6,,4,4qq1[8:5]/5,
{8},,7,,,,8,8h[8:3],
{4},1h[4:1],2h[4:1],3h[4:1],
{8}4,4,3/5,,7,6/8,,3,
{8}2/4,,6,5/7,,2,1/3,,
{8}6<1[4:1],,,3<6[4:1],,,8>7[4:3],,
{4},8,1,2,
{8}3>8[4:1],,,6>3[4:1],,,1<2[4:3],,
{4},1,8,7,
{8}6<1[4:1],,,2p5[4:1],,,8>7[4:3],,
{4},8,1,2,
{8}3>8[4:1],,,7q4[4:1],,,1<2[4:3],,
{4},1,8,7,
{8}6,,5/7,5/7,,4/8,4/8,,
{2}1-5[8:1]/2-4[8:1],7-5[8:1]/8-4[8:1],
{8}3,,2/4,2/4,,1/5,1/5,,
{2}7-5[8:1]/8-4[8:1],1-5[8:1]/2-4[8:1],
{4}3/6,2-5[8:1],8-4[8:1],1-5[8:1],
{8}7-4[8:1],,2,2,,4>5[8:5]/5<4[8:5],,4/5,
{8},,,,,,1/8,1/8,
{8},3/7,3-6[8:1]/7-2[8:1],,3b/7b,,,,
{4}1/8-4[8:1],2-5[8:1],7-3[8:1],8-4[8:1],
{8}5h[4:1],,3,3h[4:1],,1,1p5[8:1]*q5[8:1],,
{8}1b,,3/7,,1h[4:1]/5,,8,8,
{8},1/2,1/2-5[8:1],,2/7-4[8:1],,7/8,,
{8}3h[4:1],,1,1<6[8:1],,5,4,3h[4:1],
{8},1,1h[4:1],,7h[4:1],,5,4,
{8}3b,,1/2,1b/2b,,8,7,5b/6b,
{4},1/8,2-5[8:1]/7-4[8:1],2b/7b,
{4}1-5[8:1]/8,7-4[8:1],2-6[8:1],1-5[8:1],
{8}4h[4:1],,6,6h[4:1],,8,8p4[8:1]*q4[8:1],,
{8}8b,,2/6,,4/8h[4:1],,1,1,
{8},7/8,7-4[8:1]/8,,2-5[8:1]/7,,1/2,,
{8}6h[4:1],,8,8>3[8:1],,4,,6,
{4}6,7/8h[4:1],2h[4:1],4qq1[8:5],
{8}5,,6,,7,7,,1b/8b,
{8},1,8,1,8,2/7,,1/5,
{8},2/8,2/8,,7-4[8:1],,7/8,,
{4}2-5[8:1],1/2,7-4[8:1],7/8,
{8}2-5[8:1],,1/2,,8,1/8qq4[8:5],,1/8b,
{8},2,2,,3,3,,4/8,
{8},1/7,1/7,,1-5[8:1],,1/2,,
{4}8-4[8:1],7/8,1-5[8:1],1/2,
{8}8-4[8:1],,7/8,,1,1pp5[8:5]/8,,1b/8,
{8},7,7,,6,6,,5h[4:1],
{8},7,7<4[4:1],,8,8,,1h[4:1],
{8},3,3>8[4:1],,4,4,,5h[4:1],
{8},7,7<4[4:1],,8,8,,1h[4:1],
{8},3,3>8[4:1],,4,4,,4h[4:1],
{8},2,2>5[4:1],,1,1,,8h[4:1],
{8},6,6<1[4:1],,5,5,,4h[4:1],
{8},2,2>5[4:1],,1,1,,8h[4:1],
{16},,6,,6,,,,1,2,3,4,5,6,7,8,
{8}1b,,8,1,8,1-4[8:1]/7-4[8:1],,1/7,
{8},,1,8,1,2-5[8:1]/8-5[8:1],,2/8,
{8},4,5,4,3,2,1,8h[2:1],
{8}1,2,3,4h[2:1],5,6,7,8-4[8:1],
{16},,1,,1h[4:1],,,,7,6,5,,1,,1-5[8:1]/5,,
{16},,8,,8h[4:1],,,,2,3,4,,8,,4>1[16:3]/8<5[16:3],,
{12},,,,,,7,8,7,2,1,2,
{24}6,,5,,6,,3,,4,,3,,6h[8:1],,,5h[8:1],,,4h[8:1],,,3>6[8:5],,,
{8},,,,4,,,5p4[8:5],
{4},2,1,8,
{8}7>2[2:1],,7,,,,,5,
{8},4/6,4/6,,3/7,,,2h[8:3],
{8},1,1,,3/8,,,7h[8:3],
{8},8,8,,1/6,,,4h[8:3],
{8},5,5,,3/7,3-8[8:1]/7-4[8:1],,3/7,
{1},
{1},
{1},
E
