&title=未来(ソラ)の歌
&artist=Questy「ポッピンQ」
&wholebpm=153.0
&lv_1=2
&lv_2=4
&lv_3=6
&lv_4=8
&lv_5=11
&des_4=はっぴー
&des_5=ぴちネコ
&inote_1=(153.0){1},,,,,
{1}1,
{1}1,
{1}8,
{1}8,
{1}1,
{1}2,
{1}3,
{1}4,
{1}5,
{1}6,
{1}7,
{1}8,
{1}8,
{1}7,
{1}6,
{1}5,
{1}5-8[4:3],,
{1}1-4[4:3],,
{1}4,
{1}3,
{1}2,
{1}1,
{1}2-6[4:3],,
{1}7-3[4:3],,
{1}2h[1:1],,
{1}1h[1:1],,
{1}8h[1:1],,
{1}7h[1:1],,
{1}1/8,
{2}8,8,
{1}8,
{2}7,7,
{1}7,
{2}6,6,
{1}6,
{2}5,5,
{1}5,
{2}4,4,
{1}4,
{2}3,3,
{1}3,
{2}2,2,
{1}2,
{2}1,1,
{1}1,
{2}8,8,
{2}1,1b,
E
&inote_2=(153.0){1},
{2}1,1,
{2}2,2,
{2}3,3,
{2}4,4,
{2}4/5,5,
{2}5/6,6,
{2}7/8,7/8,
{4}8,8,1,1b,
{4}8,8,8,,
{4}7,7,7,,
{4}6,6,6,,
{4}5,5,5,,
{1}3h[2:1]/4h[2:1],
{1}5h[2:1]/6h[2:1],
{1}4-1[4:3]/5-8[4:3],,
{2}8,8,
{2}1,1,
{2}2,2,
{4}3,3,3,,
{2}4,4,
{2}5,5,
{2}5/6,5/6,
{4}7,7,7/8,,
{2}1,1,
{2}8,8,
{2}7,7,
{4}6,6,6,,
{2}5,5,
{2}4,4,
{2}3/4,3/4,
{4}2,2,1b/2b,,
{1}2-7[4:3],,
{1}6-3[4:3],,
{1}1-4[4:3],,
{1}5-8[4:3],,
{4}1,1,1b,,
{4}8,8,8,,
{4}7,7,7,,
{4}6,6,6,,
{4}5,4,5,,
{4}3/4,3/4,3/4,,
{4}5/6,5/6,5/6,,
{1}7-3[4:3],,
{4}1,1,1,,
{4}2,2,2,,
{4}3,3,3,,
{4}4,5,4,,
{4}5/6,5/6,5/6,,
{4}3/4,3/4,3/4,,
{1}4-1[4:3]/5-8[4:3],,
{4}8,8,8,,
{4}1,1,1b/8b,
E
&inote_3=(153.0){1},4>6[4:5],,
{1}5<2[16:19],,
{4}3,3/4,2/5,,
{4}6,5/6,4/7,,
{4}4,4/5,3/6,,
{4}1/8,1/8,1/8,2b/7b,
{4}2,1,3/8,,
{4}7,8,1/6,,
{4}2,1/2,7,7/8,
{4}1/8,2/7,3/6,,
{4}6,5,4/7,,
{4}3,4,2/5,4/3>7[8:7],{1},
{4},,6,5,
{4}3h[2:1],4,4,,
{4}6h[2:1],5,5,,
{4}7h[2:1],8,8,,
{4}2,1/2,7,7/8,
{4}2h[2:1],1,1,,
{4}3h[2:1],4,4,,
{4}6h[2:1],5,5,,
{4}3/4,2,5/6,7,
{4}6h[2:1],5,5,,
{4}3h[2:1],4,4,,
{4}2h[2:1],1,1,,
{4}7,7/8,2,1/2,
{4}7h[2:1],8,8,,
{4}6h[2:1],5,5,,
{2}3h[4:1]/4h[4:1],2/5,
{2}5h[4:1]/6h[4:1],4/7,
{1}4/3-6[8:3],
{2}7,8,
{1}8/7-2[8:3],
{2}3,4,
{1}4/3-8[8:3],
{1}5/6-1[8:3],
{4}2,1,7,8,
{4}1,8,1,,
{4}1/8,1/8,1b/8b,,
{4}7,8,1/6,,
{4}2,1,3/8,,
{4}7,7/8,2,1/2,
{4}1/8,2/7,3/6,,
{4}3,4,2/5,,
{4}6,5,4/7,,
{1}5/4-1[8:3],
{4}7,7/8,2,1/2,
{4}7/8,7/8,1/6,,
{4}1/2,1/2,3/8,,
{4}7/8,1/6,1/2,3/8,
{4}1/8,1/8,1/8,1^4[2:1]/8^5[2:1],{1},
{4}3/4,2/5,5/6,4/7,
{1}3b^8[2:1]/4b^7[2:1],
{4}2,1/2,7,7/8,
{4}1/2,3b/8b,7/8,1b/6b,
{4}1/8,2/7,3b/6b,
E
&inote_4=(153.0){1},4^1[2:1],
{1}5^8[2:1],
{1}1h[2:3],
{4}8h[2:1],,,2/7,
{4}5/4h[4:3],5,6,7,
{4}4/5h[4:3],4,3,2,
{4}6,5/7,3,2/4,
{4}4/5,4/6,4/7,4/8b,
{4}1/2h[4:1],7,4/5,1/8,
{4}4^1[4:1]/5^8[4:1],,,2/7,
{4}5/4h[2:1],2,5h[2:1],7,
{4}4h[4:1],2q7[4:1],,,
{4}2/7,4/8,1/5,4/5,
{4}1/6h[4:3],3,1,3,
{4}2/3,1/8,6/7,5/4<2[2:1],{1},
{4}5/6,3/5,1/2,3/5,
{4}7/8,1/6,5/6,3^8[4:1]/4^7[4:1],
{4},,1/6,2/5,
{4}4/3h[4:3],8,7,8,
{4}3/4,5/6,2/7,5/4q6[2:1],
{4},,,4/5,
{4}5/4h[4:1],7,3/4,2/5,
{4}1/7,2/8,1/7,2b/8b,
{4}4/7h[4:1],6,5/2h[4:1],3q6[2:1],
{4},,,5/7,
{4}5/2h[4:1],3,4/7h[4:1],6p3[2:1],
{4},,,2/4,
{4}7/8,1/2,7/8,1/2,
{4}3/4,5/6,2/7,4qq3[2:1]/5pp6[2:1],
{4},,,3/4,
{4}5/6,7/8,1/2,4/5,
{4}7h[2:1],8,2h[2:1],1,
{4}7h[2:1],8,2h[2:1],1,
{4}6h[2:1],5,3h[4:1],4,
{4}4^1[4:1]/5^8[4:1],,,3/6,
{4}4/7,5-2[4:1]/6-1[4:1],,,
{4}2/5,3-8[4:1]/4-7[4:1],,,
{4}4/5,3/6,2/7,1/8,
{8}8,8,1,1,8,,2/7,,
{12}4,
{995}5,,,,,,,,,,,,,,,,,,,,,,,,,,,,,,,,,,,,,,,,,,,,,,,,,,,,,,,,,,,,,,,,,,,,,,,,,,,,,,,,,,,
{12}4,5,
{995}4,,,,,,,,,,,,,,,,,,,,,,,,,,,,,,,,,,,,,,,,,,,,,,,,,,,,,,,,,,,,,,,,,,,,,,,,,,,,,,,,,,,
{12}5,4,,,2b/7b,,,
{4}1/2h[4:1],7,4/5,1/8,
{4}4^1[4:1]/5^8[4:1],,,2/7,
{4}5/4h[2:1],2,5h[2:1],7,
{4}4h[4:1],2q7[4:1],,,
{4}2/7,4/8,1/5,4/5,
{4}1/6h[4:3],3,1,3,
{4}5/7h[2:1],5,8b,6p3[2:1],
{4},,,2/7,
{4}3h[2:1]/4^7[4:1],,,1/8,
{4}6h[2:1]/5^2[4:1],,,1/8,
{4}2/5,4/8,1/5,4/7,
{4}1/5,4/7,2/5,1<5[4:1]/8>4[4:1],
{4},,3/6,4/5,
{4}2/3,1/8,6/7,4^2[4:1]/5^7[4:1],
{2},3h[4:1]/6h[4:1],
{4}2p6[4:1]/7q3[4:1],,,4/5,
{2}7h[4:3],2h[4:1],
{2}2q7[8:1],1b/8b,
E
&inote_5=
(153.0){1},
{16}3h[16:3],,,2h[16:3],,,1>5[16:3],,,,8,,8,,,,
{16}6h[16:3],,,7h[16:3],,,8<4[16:3],,,,1b,,1b,,,,
{16}3h[16:3],,,2h[16:3],,,1>5[16:3],,,,8,,8,,,,
{4}6/8,1/3,5w1[8:1],,
{8}3b/7b,6,5,4-8[8:1],3,2,,,
{8}2/6,3,4,5-1[8:1],6,7,,,
{8}2/8,2/8,5,,1/7,1/7,4-8[8:1],,
{4}4^1[8:1]*^7[8:1],4w8[8:1],4,2b/6b,
{2}3-8[8:1]/6-1[8:1],2^4[5000:469]/7^5[5000:469],
{8}4/5pp8[2:1],4/5,3,,2,,1,,
{4}1/2h[4:1],6,7/2h[4:1],3^6[8:1],
{4}2/3,2/3^6[8:1],2/3,4/5,
{8}2/7,3,4/8,6,1/5,,7/2^4[8:1],,
{4}6/2^8[8:1],6/2^4[8:1],2/6,2/6,
{2}4^2[5000:469]/5p1[5000:469],1p5[5000:469]/8^6[5000:469],
{16}3/6,,4,5,4,,2/7,,,,6/8,,1/3,,,,
{8}5h[4:1],,4,3,2/7,,4/5,,
{8}8/7qq4[2:1],,3,3h[8:3],,,,,
{8}6/2h[4:1],,1,8,3/7h[4:1],,8,,
{4}3/7^5[8:1],3/7^1[8:1],3/7^5[8:1],3/7,
{8}1h[4:1],,8,7,3/6,,1/8,2,
{8}4/3qq8[2:1],,7,7,,5,5,,
{8}1/7,6/8,4/5,,2/8,1/3,4-8[8:1]/5-7[8:1],,
{4}4-2[8:1]/5-1[8:1],4-8[8:1]/5-7[8:1],4-2[8:1]/5-1[8:1],4/5,
{4}7/8-3[8:1],6/8,2/1-6[8:1],1/3pp6[2:1],
{4}7,8,1,2,
{4}2/1-6[8:1],1/3,7/8-3[8:1],8/6qq3[2:1],
{4}2,1,8,7,
{8}5/6,,1/3,2,6/8,7,3/1-5[8:1],,
{8}1/8-4[8:1],,1/8,,5/7,6,2/4,3,
{2}8b<4[8:1]*>4[8:1],1bp4[8:1]/8b-5[8:1],
{16}2/7,,6,5,6,,3,4,3,,1/8,,1/8,,,,
{8}6h[2:1],,8,1,2h[2:1],,4,5,
{8}6p1[16:3],,2,2^5[8:1],,8,8,,
{4}5h[8:1]/6h[8:1],1h[8:1]/8h[8:1],3h[8:1]/4h[8:1],1h[8:1]/8h[8:1],
{8}5/6q3[16:3],,2,2^7[10000:1563],,5,5,,
{8}3h[2:1],,1,8,7h[2:1],,5,4,
{8}3q8[16:3],,7,7^4[8:1],,1,1,,
{1}1pp4[2:1]/5pp8[2:1],
{16}2,2,,7,7,,4/5,,4^1[5000:469]/5^8[5000:469],,,,,,,,
{12}1/8,
{995}1/8,,,,,,,,,,,,,,,,,,,,,,,,,,,,,,,,,,,,,,,,,,,,,,,,,,,,,,,,,,,,,,,,,,,,,,,,,,,,,,,,,,,
{12}1/8,1/8,
{995}1/8,,,,,,,,,,,,,,,,,,,,,,,,,,,,,,,,,,,,,,,,,,,,,,,,,,,,,,,,,,,,,,,,,,,,,,,,,,,,,,,,,,,
{12}1/8,1-4[5000:469]/8-5[5000:469],,,1b/8b,,,
{2}3-8[8:1]/6-1[8:1],2^4[5000:469]/7^5[5000:469],
{8}5/4qq1[2:1],4/5,6,,7,,8,,
{4}1/2h[4:1],6,7/2h[4:1],3^6[8:1],
{4}2/3,2/3^6[8:1],2/3,4/5,
{8}2/7,3,4/8,6,1/5,,7/2^4[8:1],,
{4}6/2^8[8:1],6/2^4[8:1],2/6,2/6,
{8}3/7,,5w1[8:1],4/6,5b,,,,
{16}3/6,,5,4,5,,2/7,,,,1/3,,6/8,,,,
{8}2/1q7[4:1],,3,,4,4,1/8,,
{8}7/8p2[4:1],,6,,5,5,1/8,,
{8}2/4,3,4/8,6,1/5,3,5/7,,
{8}1/5,3,4/8,6,2/4,3,4qq4[16:7]/5pp5[16:7],,
{4}4b/5b,,,1/8,
{8}2/4b,3,2b/8,,1/7b,6,5b/7,,
{1}3bqq5[2:1]/6bpp4[2:1],
{8}7-4[8:1],7,1-5[8:1],1,8-4[8:1],8,2,,
{12}6/8,
{995}6/8,,,,,,,,,,,,,,,,,,,,,,,,,,,,,,,,,,,,,,,,,,,,,,,,,,,,,,,,,,,,,,,,,,,,,,,,,,,,,,,,,,,
{12}6/8,6b/8b,,,1/3,
{995}1/3,,,,,,,,,,,,,,,,,,,,,,,,,,,,,,,,,,,,,,,,,,,,,,,,,,,,,,,,,,,,,,,,,,,,,,,,,,,,,,,,,,,
{12}1/3,1b/3b,,,
{12}4/5,
{995}4/5,,,,,,,,,,,,,,,,,,,,,,,,,,,,,,,,,,,,,,,,,,,,,,,,,,,,,,,,,,,,,,,,,,,,,,,,,,,,,,,,,,,
{12}4/5,3/6,
{995}3/6,,,,,,,,,,,,,,,,,,,,,,,,,,,,,,,,,,,,,,,,,,,,,,,,,,,,,,,,,,,,,,,,,,,,,,,,,,,,,,,,,,,
{12}3/6,2b/7b,
E
