&title=曖昧mind
&wholebpm=135
&artist=Halozy
&des=Jack
&shortid=630
&genre=maimai
&cabinet=SD
&version=maimai MURASAKi PLUS
&chartconverter=Neskol
&lv_2=5
&des_2=-
&lv_3=8+
&des_3=-
&lv_4=11+
&des_4=Techno Kitchen
&lv_5=13
&des_5=Jack
&des_6=
&inote_2=
(135){1},
{1},
{2}1,1,
{2}2,2,
{2}3,3,
{4}4,4,4/5,,
{1}5h[2:1],
{1}6h[2:1],
{4}7,7,7,7,
{4}8,8,1/8,,
{4}8,8,8,,
{4}7,7,7,,
{4}6,6,6,,
{4}5,4,5,,
{4}4,4,4,,
{4}3,3,3,,
{1}2-6[4:3],
{1},
{4}8,8,8,,
{4}1,1,1,,
{4}2,2,2,,
{4}3/4,3/4,3b/4b,,
{4}4,4,4,,
{4}5,5,5,,
{4}6,6,6,,
{4}7/8,7/8,7b/8b,,
{4}2,2,1/2,,
{4}7,7,7/8,,
{4}6,6,5,5,
{4}4,4,3/6,,
{4}7,7,7/8,,
{4}2,2,1/2,,
{4}3,3,4,4,
{4}5,5,3/6,,
{1}4-1[4:3]/5-8[4:3],
{1},
{4}8,8,8,,
{4}1,1,1/8,,
{4}2,2,2,,
{1}3h[2:1]/4h[2:1],
{4}4,4,4,,
{4}5,5,4/5,,
{4}6,6,6,,
{1}7h[2:1]/8h[2:1],
{4}1,1,1,1,
{4}8,8,8,8,
{4}7,7,7,7,
{4}6,6,5/6,,
{4}5,5,5,5,
{4}4,4,4,4,
{4}3,3,3,3,
{4}2,2,1/2,,
{1}1-4[4:3],
{1},
{1}8-5[4:3],
{1},
{2}1h[1:1],8h[2:1],
{2},2/7,
{2}2h[1:1],7h[2:1],
{2},1/8,
{4}1,1,2,2,
{4}3/4,3/4,3/4,,
{4}5,5,6,6,
{4}7,7,1b/8b,,
{4}8,8,7,7,
{4}5/6,5/6,5/6,,
{4}4,4,3,3,
{4}2,2,1b/8b,,
{1}1-4[4:3]/8-5[4:3],
{1},
{1},
{1},
E
&inote_3=
(135){1},
{8}5,,5,,4,4,4,,
{4}5/6h[4:1],5,3h[4:1]/4,4,
{4}5/6h[4:1],5,4/5,,
{4}3h[4:1]/4,4,5/6h[4:1],5,
{8}3h[4:1]/4,,4,,5,5,5,,
{4}3,3/4,6,5/6,
{4}3,3/4,6,5/6,
{4}3,2/4,6,5/7,
{4}4-1[4:1]/5-8[4:1],,,2b/7b,
{4}3,3,3/4,,
{4}6,6,5/6,,
{4}3,3,4,4,
{4}5,5,5/6,,
{4}7,7,7/8,,
{4}2,2,1/2,,
{1}1pp4[4:5]/8qq5[4:5],
{1},
{4}7h[4:1],6h[4:1],5h[4:1],4h[2:1],
{4}5,5,3/6,,
{4}2h[4:1],3h[4:1],4h[4:1],5h[2:1],
{8}4,,4,,5,5,5,,
{4}6h[4:1],7h[4:1],8h[4:1],1h[2:1],
{4}8,8,2/7,,
{4}3h[4:1],2h[4:1],1h[4:1],8h[2:1],
{8}1,,1,,8,8,8,,
{4}5/6,3/4,5/6,5/6,
{4}3/4,5/6,3h[4:1]/4h[4:1],,
{4}1/2,7/8,1h[4:1]/2h[4:1],,
{4}7/8,1/2,7/8,7b/8b,
{4}5/6,3/4,5h[4:1]/6h[4:1],,
{4}3/4,5/6,3h[4:1]/4h[4:1],,
{4}1/2,7/8,1/2,7/8,
{1}1-4[4:1]/8-5[4:1],
{1}4qq1[8:9]/5pp8[8:9],
{4},,,2b/7b,
{4}2-6[4:1],,7,7,
{4}7-3[4:1],,2,2,
{4}2-6[4:1],,7,7,
{4}7-3[4:1],,,2/4,
{4}1-5[4:1],,6,7,
{4}8-4[4:1],,3,2,
{4}1-5[4:1],,6,7,
{1}8z4[2:1],
{4}3h[4:1],4,6h[4:1],5,
{4}2h[4:1],1,7h[4:1],8,
{4}4h[4:1],3,5h[4:1],6,
{4}4h[4:1],5,2/7,2/7,
{4}6,5/6,3,3/4,
{4}6,5/7,3,2/4,
{4}4/5,3/6,2/7,1/8,
{1}2V41[2:1]/7V58[2:1],
{1}1h[2:1]/8h[2:1],
{1}2h[2:1]/7h[2:1],
{1}3h[2:1]/6h[2:1],
{1}4h[2:1]/5h[2:1],
{4}5/6,6,7,8,
{4}3/4,3,2,1,
{2}1h[4:1]/2h[4:1],7h[4:1]/8h[4:1],
{4}1h[2:1]/8h[2:1],,,2b/7b,
{4}3/4,3/4,1/2,7/8,
{4}5/6,5/6,7/8,1/2,
{1}3-8[4:1]/4-7[4:1],
{1}5-2[4:1]/6-1[4:1],
{4}1/2,3/8,4b/7b,,
{4}7/8,1/6,2b/5b,,
{4}1/2,7/8,1/2,7/8,
{1}1>4[2:1]/8<5[2:1],
{1}5bw1[4:3],
{1},
{1},
{1},
E
&inote_4=
(135){1},
{4}3V14[4:1]/5V74[4:1],,,2b/7b,
{16}4/5-1[8:1],,,,,,,,2h[16:3],,,3h[16:3],,,4,,
{16}4-8[8:1]/5,,,,,,,,7h[16:3],,,6h[16:3],,,5,,
{16}4/5-1[8:1],,,,,,,,2h[16:3],,,3h[16:3],,,4,,
{4}3V14[4:1]/5V74[4:1],,,2b/7b,
{4}1h[8:1]/8h[8:1],1h[8:1]/2h[8:1],2h[8:1]/3h[8:1],3h[8:1]/4h[8:1],
{4}4h[8:1]/5h[8:1],5h[8:1]/6h[8:1],6h[8:1]/7h[8:1],7/8,
{8}3,4,5,6,7,8,1>8[2:1],,
{4},,,2b/7b,
{8}5,4,3,,1/2,8,1/2,,
{8}4,5,6,,7/8,1,7/8,,
{2}1-5[8:1]/2-4[8:1],7-5[8:1]/8-4[8:1],
{4}2v5[4:1]/8v5[4:1],,,2/7,
{8}8,1,2,,3/4,5,3/4,,
{8}1,8,7,,5/6,4,5/6,,
{16}2/4h[16:3],,,6h[16:3],,,8h[16:3],,,2<3[16:11],,,6h[4:3],,,,
{4},,,1b/8b,
{16}3-8[8:1],,,,4-7[8:1],,,,3h[16:3],,,4h[16:3],,,5,,
{16}5/6-1[8:1],,,,5-2[8:1],,,,6h[16:3],,,5h[16:3],,,4,,
{16}3-8[8:1]/4,,,,4-7[8:1],,,,3h[16:3],,,4h[16:3],,,5,,
{4}3V14[4:1]/5V74[4:1],,,2b/7b,
{16}2-5[8:1],,,,1-6[8:1],,,,2h[16:3],,,1h[16:3],,,8,,
{16}7-4[8:1]/8,,,,8-3[8:1],,,,7h[16:3],,,8h[16:3],,,1,,
{16}1/2-5[8:1],,,,1-6[8:1],,,,2h[16:3],,,3h[16:3],,,4,,
{4}3V14[4:1]/5V74[4:1],,,2b/7b,
{8}1>4[8:1]/4<7[8:1],,,,1,2/8,3/7,4/6,
{16}5h[16:3],,,8<4[4:1]*>4[4:1],,,,,,,,,,,,,
{16}1/7h[16:3],,,6>2[16:3],,,,,,,,,1/8,,,,
{16}2h[16:3]/8,,,3<7[16:3],,,,,,,,,1/8,,,,
{8}5>2[8:1]/8<5[8:1],,,,8,1/7,2/6,3/5,
{16}4h[16:3],,,1<5[4:1]*>5[4:1],,,,,,,,,,,,,
{2}6-3[8:1]/7-2[8:1],2-7[8:1]/3-6[8:1],
{4}5pp5[4:1]*qq5[4:1],,,4b>5[1:1]/5bp4[1:1],
{1},
{4},,3/6,1b/8b,
{2}2v8[8:1]/6v4[8:1],3qq1[8:1]/7qq5[8:1],
{16}3/7,,3/7,,6,5,6,5,6-1[8:1],,,,2,,,,
{2}3v5[8:1]/7v1[8:1],2pp4[8:1]/6pp8[8:1],
{16}2/6,,2/6,,3,4,3,4,3-8[8:1],,,,7,,,,
{2}3v1[8:1]/7v5[8:1],4qq2[8:1]/8qq6[8:1],
{16}7,,7/8,,2,,1/2,,6,5,6,5,6,,2/7,,
{2}2v4[8:1]/6v8[8:1],1pp3[8:1]/5pp7[8:1],
{4}1pp5[8:3]*qq5[8:3],,,2b/7b,
{8}5,4-8[8:1]/5,,7,,3/4-8[8:1],,1,
{8},4-8[8:1]/5,,7,,3/4-8[8:1],,1,
{8},4-8[8:1]/5,,7,,3/4-8[8:1],,1,
{8},4-8[8:1]/5,,7,,1/8,2/7,,
{8}4,4/5-1[8:1],,2,,5-1[8:1]/6,,8,
{8},4/5-1[8:1],,2,,5-1[8:1]/6,,8,
{8}8,7,6,5,4,3,2,1/8,
{16}1,8,1,8,1,8,1,8,1,,,,2b/7b,,,,
{1}6<3[2:1],
{1}3>6[2:1],
{4}6<3[8:3]*q3[8:3],,,4,
{4}3>6[8:3]*p6[8:3],,,5,
{8}5-1[8:1]/6h[4:1],,,,7,8,1,,
{8}3h[4:1]/4-8[8:1],,,,2,1,8,,
{2}7>2[8:1],3p6[8:1],
{4}5pp5[4:1]*qq5[4:1],,,2b/7b,
{8}4>1[8:1]/7<4[8:1],,,,6/8,7,1/3,2,
{16}5/7h[16:3],,,8<4[4:1]*>4[4:1],,,,,,,,,,,,,
{16}2h[16:3]/8,,,3<7[16:3],,,,,,,1,,1/8,,,,
{16}1/7h[16:3],,,6>2[16:3],,,,,,,8,,1b/8b,,,,
{8}2>5[8:1]/5<8[8:1],,,,1/3,2,6/8,7,
{16}2h[16:3]/4,,,1<5[4:1]*>5[4:1],,,,,,,,,,,,,
{2}6q3[8:1]/7>2[8:1],2<7[8:1]/3p6[8:1],
{8}2/4,3,5/7,6,2/7,,4b>5[1:1]/5bp4[1:1],,
{1},
{1},
{1},
{1},
E
&inote_5=
(135){1},
{4},,1b,8b,
{4}4q5[4:1],5<1[4:1],1>4[8:1],,
{4}5p4[4:1],4>8[4:1],8<5[8:1],,
{4}4q5[4:1],5<1[4:1],1>4[8:1],,
{4}4/5,,8b,1b,
{8}8-6[8:1],8,4-2[8:1],4,7-5[8:1],7,3-1[8:1],3,
{8}6-4[8:1],6,2-8[8:1],2,5-1[8:1],5,4,4,
{16}2,1,3,8,4,7,5,6,3,4,2,5,1,6,8,7,
{32}1,2,3,4,5,6,7,8,1,2,3,4,5,6,7,8,1,2,3,4,5,6,7,8,1b,,,,,,,,
{16}4/5,,3,4,1,,6,5,8-4[8:1],,3,3,,2,,1,
{16}6,5,6,2,6,4,6,8-4[8:1],6,,1,1,,,,,
{16}4/5,,1,4,3,,8,5,6<1[8:1],,2,2,,3,,4,
{16}6,5,6,2,6,4,6,8,6w2[8:1],4,,,,,,,
{16}4/5,,6,5,8,,3,4,1-5[8:1],,6,6,,7,,8,
{16}3,4,3,7,3,5,3,1-5[8:1],3,,8,8,,,,,
{16}2h[8:1],,7,3h[8:1],,8,4h[8:1],,1,5h[8:1],,2h[24:19],6h[48:35],,,,
{24},,,,,,,,,,,,1/5,4/8,3/7,2/6,1/5,4/8,3/7,,,,,,
{16}1q5[8:1]/2q6[8:1],,,,,,,,4h[8:1]/7h[8:1],,,2h[8:1]/6h[8:1],,,4/8,,
{16}6q3[8:1]/7-4[8:1],,,,,,,,2h[8:1]/5h[8:1],,,3h[8:1]/7h[8:1],,,1/5,,
{16}3p6[8:1]/4v5[8:1],,,,,,,,4h[8:1]/7h[8:1],,,2h[8:1]/6h[8:1],,,4/8,,
{4}3/5,,8b,1b,
{16}7p3[8:1]/8p4[8:1],,,,,,,,2h[8:1]/5h[8:1],,,3h[8:1]/7h[8:1],,,1/5,,
{16}2-5[8:1]/3p6[8:1],,,,,,,,4h[8:1]/7h[8:1],,,2h[8:1]/6h[8:1],,,4/8,,
{16}5v4[8:1]/6q3[8:1],,,,,,,,2h[8:1]/5h[8:1],,,3h[8:1]/7h[8:1],,,1/5,,
{4}4/6,,1b,8b,
{16}7h[16:3],,,8,7,,5/6,,1/8,,3/4,,1/8,,5/6,,
{16}2h[16:3],,,1,2,,5/7V51[8:1],,,,4,,3,,2/8,,
{16}7h[16:3],,,8,7,,2V48[8:1]/4,,,,5,,6,,1/7,,
{16}2h[16:3],,,1,2,,5h[16:3]/7h[16:3],,,,5-1[8:1]/7,,4/6,,3/5,,
{16}2h[16:3],,,1,2,,3/4,,1/8,,5/6,,1/8,,3/4,,
{16}7h[16:3],,,8,7,,2<7[8:1]/4,,,,7,,6,,1/5-1[8:1],,
{8}2,3,4-8[8:1],5,6,7,1/8,2/7,
{16}3/6,,,1pp4[16:3]/8qq5[16:3],,,1/8,,,,,,2/7,,,,
{16}2,2,4,4,3,3,5,5,4,4,6,6,5,5,7,7,
{16}1,8,1,,3/6,,7,5,,2,4,,1bp4[8:1]/8bq5[8:1],,,,
{16}1/8,,,,3,,2/4,,6,,5/7,,8,8,,,
{16}2/4,,5/7,,4,4,5,5,4,,3/6,,2q7[8:1]/7,,,,
{16}6>3[8:1],,,,2,,,,1,1,8,8,1,,2/7,,
{24}3<6[8:1]/6,,,,,,7,8,1,2,,,8w4[8:1],,,,,,8,,,,,,
{16}2<7[8:1]/6>3[8:1],,,,2/6,,,,2/6,,3h[8:1]/7h[8:1],,,3/7,,,
{8}2-6[8:1],7-3[8:1],2,7,1,1/8,2/7p2[8:1],,
{16}3<6[8:1],,,,7,,,,8,8,1,1,8,,3/6,,
{16}1/8,2/7,3/6,4/5,3/6,,2,1,,7,8,,3b/6b,,,,
{8}4/5,4-7[8:1]/5,,3/4-2[8:1],,4-6[8:1]/5,,3/4-8[8:1],
{8},4/5-2[8:1],,5-7[8:1]/6,,4/5-3[8:1],,5-1[8:1]/6,
{8},4-7[8:1]/5,,3/4-2[8:1],,4-8[8:1]/5,,3/4>1[8:1],
{8},4/5<8[8:1],,4/5,,3/4,8b,,
{8}4/5,4/5-2[8:1],,5-7[8:1]/6,,4/5-3[8:1],,5-1[8:1]/6,
{8},4-7[8:1]/5,,3/4-2[8:1],,4-8[8:1]/5,,3/4>1[8:1],
{8},4/5<8[8:1],,4w8[8:1]/5,,4,,2/6,
{32}4,,8,,3,,7,,2,,6,,1,,5,,1,2,3,4,5,6,7,8,1b,,,,,,,,
{1}6h[1:1],
{4}3h[1:1],4,5,6,
{8}7h[8:3],,,5h[8:5],,,,,
{8}4h[8:3],,,2h[8:5],,,,,
{8}1<6[4:1],1,6>3[4:1],6,3>8[4:1],3,8<5[4:1],8,
{8}5>2[4:1],5,2<7[4:1],2,7<5[16:3],7,4,4,
{16}2,4,3,,7,5,6,,1,4,3,,8,5,6,,
{16}4,5,4pp4[4:1]*qq4[4:1],,,,,,,,,,4b/8b,,,,
{16}2h[16:3],,,1,2,,3/4,,6/7,,1/2,,4/5,,7/8,,
{16}2h[16:3],,,4,2,,5/7V51[8:1],,,,4,,3,,2/8,,
{16}7h[16:3],,,5,7,,2V48[8:1]/4,,,,5,,6,,1/7,,
{16}8h[16:3],,,1,8,,2h[16:3]/4h[16:3],,,,2/4-8[8:1],,3/5,,4/6,,
{16}7h[16:3],,,8,7,,5/6,,2/3,,7/8,,4/5,,1/2,,
{16}7h[16:3],,,5,7,,2<7[8:1]/4,,,,7,,6,,1/5-1[8:1],,
{8}2,3,4-8[8:1],5,6,7,1/8,2/7,
{16}3/6,,,1pp4[16:3]/8qq5[16:3],,,1/8,,,,,,2-6[8:1]/7-3[8:1],,,,
{1}2b/7b,
{1},
{1},
{1},
E
