&title=日本の米は世界一
&wholebpm=138
&artist=打首獄門同好会
&des=Jack
&shortid=636
&genre=POPSアニメ
&cabinet=SD
&version=maimai MURASAKi PLUS
&chartconverter=Neskol
&lv_2=4
&des_2=-
&lv_3=7
&des_3=-
&lv_4=10+
&des_4=サファ太
&lv_5=13
&des_5=Jack
&des_6=
&inote_2=
(138){1},
{1},
{1},
{4}8,8,8,,
{4}7,7,7,,
{4}6,6,6,,
{2}5,4/5,
{4}4,4,4,,
{4}3,3,3,,
{4}2,2,2,,
{1}1,
{4}8,8,8,,
{4}1,1,1,,
{4}2,2,2,,
{2}3,3/4,
{4}4,4,4,,
{4}5,5,5,,
{4}6,6,6,,
{2}7,7/8,
{1}1-4[4:3],
{1},
{1}8-5[4:3],
{1},
{1}4-1[4:3],
{1},
{1}5-8[4:3],
{1},
{2}1/8,1/8,
{1}1/8,
{4}8b,8,8,,
{4}7,7,7,,
{4}6,6,6,,
{4}5,4,5,,
{4}4,4,4,,
{4}3,3,3,,
{4}2,2,2,,
{4}1,1,1,,
{4}8b,8,1,1,
{4}2,2,1/2,,
{4}3,3,4,4,
{4}5,5,4/5,,
{4}6,6,7,7,
{4}8,8,1/8,,
{1}1h[1:1]/8h[1:1],
{1},
{4}2b,2,1,1,
{4}7/8,7/8,7/8,,
{4}7,7,6,6,
{4}4/5,4/5,4/5,,
{4}4,4,3,3,
{4}1/2,1/2,1/2,,
{4}8,8,8,,
{1}8h[1:2],
{1}1h[1:1],
{1},
{1},
{4}1b,1,1,,
{4}2,2,2,,
{4}3,3,3,,
{2}4/5,4/5,
{4}5,5,5,,
{4}6,6,6,,
{4}7,7,7,,
{2}1/8,1/8,
{1}2/7,
{1},
{1},
{1},
E
&inote_3=
(138){1},
{1},
{1},
{4}2,2,1/2,,
{4}7,7,7/8,,
{4}1,1,1/8,,
{4}8,8b,1,1b,
{4}7,7,7/8,,
{4}2,2,1/2,,
{4}8,8,1/8,,
{1}1-4[8:3]/8-5[8:3],
{4}3,3,4,4b/5b,
{4}6,6,5,4b/5b,
{4}3,3,4,4b/5b,
{4}6,6b,7,7b,
{4}7,7,8,1b/8b,
{4}2,2,1,1b/8b,
{4}7,7,8,1b/8b,
{4}2,1b/2b,7,7b/8b,
{4}2,2,1b/2b,1b/2b,
{4}7,7,7b/8b,7b/8b,
{4}1,1,1b/8b,1b/8b,
{4}2,3,4,4b/5b,
{4}6,6,5b/6b,5b/6b,
{4}3,3,3b/4b,3b/4b,
{4}6h[4:1],5,3h[4:1],4,
{4}7h[4:1],6,2h[4:1],3,
{2}7h[4:1]/8h[4:1],1h[4:1]/2h[4:1],
{1}1h[4:1]/8h[4:1],
{4}1b/8b,8,7/8,,
{4}1/8,1,1/2,,
{4}2,1/2,7,7/8,
{4}1/8,1/8,2/7,,
{4}7h[4:1],8,7/8,,
{1}1-6[8:3]/2-5[8:3],
{4}6h[4:1],5,3h[4:1],4,
{1}5b-8[8:3],
{4}1/8,1,1/2,,
{4}1/8,8,7/8,,
{4}7,7/8,2,1/2,
{4}1/8,1/8,2/7,,
{4}2h[4:1],1,1/2,,
{1}7-4[8:3]/8-3[8:3],
{4}3,3b/4b,6,5b/6b,
{4}4/5,4b/5b,3/6,,
{4}3/4,3/4,2/5,,
{4}5/6,5/6,4/7,,
{4}3,3/4,6,5/6,
{4}4,4/5,3/6,,
{4}6,6,5/6,,
{1}3-8[8:3]/4-7[8:3],
{4}7,7,8,8,
{4}1,1,2,2,
{4}1/2,1/2,7/8,7/8,
{1}1/8,
{1},
{4}1b,8,2/7,,
{4}7,8,1/6,,
{4}2,1,3/8,,
{4}7,7b/8b,2,1b/2b,
{4}8,1,2/7,,
{4}2,1,3/8,,
{4}7,8,1/6,,
{4}2,1b/2b,7,7b/8b,
{1}1b/8b,
{1},
{1},
{1},
E
&inote_4=
(138){1},
{1},
{4},,,1b,
{8}6h[4:1],,5,,4,4,3,,
{8}2h[4:1],,1,,8,8,7,,
{8}6h[4:1],,5,,4,4,4/5,,
{4}5/6,2b/8b,3/4,1b/7b,
{8}7h[4:1],,8,,1,1,2,,
{8}3h[4:1],,4,,5,5,6,,
{8}7h[4:1],,8,,1,1,1s5[4:3]/8,,
{1},
{8}6,6,5,,3/4,,2b/5b,,
{8}3,3,4,,5/6,,4b/7b,,
{8}7,7,8,,1/2,,3b/8b,,
{4}3/4,2b/7b,5/6,2b/7b,
{8}3,3,4,,5/6,,4b/7b,,
{8}6,6,5,,3/4,,2b/5b,,
{8}2,2,1,,7/8,,1b/6b,,
{4}5/6,2b/7b,3/4,2b/7b,
{8}6,5,4,7h[4:1],,1b,,1b,
{8}3,4,5,2h[4:1],,8b,,8b,
{8}6,5,4,7h[4:1],,1b,,1b,
{8}8,7,6,,4/5,,1b/8b,,
{8}6,5,6,7h[4:1],,1b,,1b,
{8}3,4,3,2h[4:1],,8b,,8b,
{8}5/7,5/7,5/7,,2/4,2/4,2/4,,
{8}6/8,6/8,6/8,,1/3,1/3,1/3,,
{8}1/6,1/6,1/6,,3/8,3/8,3/8,,
{8}1/8,1/8,1-4[8:1]/8-5[8:1],,,,3/6,,
{8}5/6,7,1/8,,5/6,7,1/8,,
{8}3/4,2,1/8,,3/4,2,1/8,,
{4}5h[4:1]/6,4h[4:1],3>6[8:3],,
{4},,3/4,2/5,
{8}6,6,5/7,,3,3,2/4,,
{8}7,7,6/8,,2,2,1/3,,
{4}6h[4:1],5,3h[4:1],4,
{8}5,5,4,4,8b,,3/6,,
{8}5/6,7,5/6,7,5/6,7,1/8,,
{8}3/4,2,3/4,2,3/4,2,1/8,,
{4}2/4h[4:1],5h[4:1],6<4[8:3]*q4[8:3],,
{4},,7/8,1/6,
{8}2/4,3,5/7,,5/7,6,2/4,,
{8}1/3,2,6/8,,6/8,7,1/3,,
{8}1/2,1/2,3b/8b,,7/8,7/8,1b/6b,,
{8}4/5,4/5,2b/7b,,1-4[8:1]/8-5[8:1],,,,
{8}5/6,7,5/6,8,5/6,8,1/8,,
{8}3/4,2,3/4,1,3/4,1,1/8,,
{4}6h[4:1]/8,5h[4:1],4>6[8:3]*p6[8:3],,
{4},,1/2,3/8,
{8}5/7,6,2/4,,2/4,3,5/7,,
{8}6/8,7,1/3,,1/3,2,6/8,,
{8}5h[4:1]/6,6,1,,3/4h[4:1],3,8,,
{8}2/7,,5/6,5/6,4/7,4/7,3/8,,
{8}2/7,,3/4,3/4,2/5,2/5,1/6,,
{1}1pp4[4:3]/8qq5[4:3],
{2},2h[4:1]/7h[4:1],
{8}1b/8b,,2,,3,4,2/5,,
{8}1/8h[4:1],,7,,6,5,4/7,,
{8}1h[4:1]/8,,2,,3,4,2/5,,
{4}3/4,1b/7b,5/6,2b/8b,
{8}4h[4:1]/5,,3,,2,1,3/8,,
{8}4/5h[4:1],,6,,7,8,1/6,,
{8}4h[4:1]/5,,3,,2,1,3/8,,
{4}5/6,2b/8b,3/4,1bp5[8:1]*q5[8:1]/7b,
{1},
{1},
{1},
E
&inote_5=
(138){1},
{8}3b,4b,3b,2b,,1b,1b,,
{8}8b,8b,,7b,7b,,1b/8b,,
{16}3h[8:1],,4,3,,,2/4,,6h[8:1],,5,6,,,5/7,,
{16}3h[8:1],,4,3,,,1/4,,6h[8:1],,5,6,,,5/8,,
{16}3h[8:1],,4,3,,,4/8,,6h[8:1],,5,6,,,1/5,,
{8}2-6[8:1]/8-4[8:1],2/8,2b/8b,,1-5[8:1]/7-3[8:1],1/7,1b/7b,,
{16}6h[8:1],,5,6,,,5/7,,3h[8:1],,4,3,,,2/4,,
{16}6h[8:1],,5,6,,,5/8,,3h[8:1],,4,3,,,1/4,,
{16}6h[8:1],,5,6,,,1/5,,3h[8:1],,4,3,,,4/8,,
{1},
{8}1/2,3/4,5/6,7/8,1-5[8:1],2/8,1b,,
{8}7/8,5/6,3/4,1/2,8-4[8:1],1/7,8b,,
{8}1/2,3/4,5/6,7/8,1-5[8:1],2/8,1b,,
{8}7-3[8:1],6/8,7b,,2-6[8:1],1/3,2b,,
{8}7/8,3/4,7/8,2/5,7-3[8:1]/8-4[8:1],1/6,7b/8b,,
{8}1/2,5/6,1/2,4/7,1-5[8:1]/2-6[8:1],3/8,1b/2b,,
{8}7/8,3/4,7/8,2/5,7-3[8:1]/8-4[8:1],1/6,7b/8b,,
{8}1-5[8:1]/2-6[8:1],3/8,1b/2b,,7-3[8:1]/8-4[8:1],1/6,7b/8b,,
{8}1,2/8,3,2/4-8[8:1],,3-1[8:1]/4b,,3b/8,
{8}8,1/7,6,5-1[8:1]/7,,5b/6-8[8:1],,1/6b,
{8}1,2/8,3,2/4-8[8:1],,3-1[8:1]/4b,,3b/8,
{8}8,1/7,6,5/7,4>1[8:1]/8<5[8:1],,4b/8b,,
{8}8,1/7,6,5-1[8:1]/7,,5b/6-2[8:1],,1/6b,
{8}1,2/8,3,2/4-8[8:1],,3-7[8:1]/4b,,3b/8,
{8}8h[4:1],,1,1/8,2/7,2/7,3/6,3/6,
{8}4/5,5/6,6/7,7/8,1/8,1/2,2/3,3/4,
{8}4-8[8:1]/5-1[8:1],3/6,4/5,,4-8[8:1]/5-1[8:1],2/7,4/5,,
{8}4/5,1/7,4/5,2/8,1-5[8:1]/7-3[8:1],,1/7,,
{8}2b/6b,4b/8b,1-5[8:1],,1/4-8[8:1],,4/5-7[8:1],,
{4}5/8b-4[8:1],7-5[8:1]/8,4-2[8:1]/7,4/5-1[8:1],
{4}2b-4[8:1]/5,1-5[8:1]/2,1/4b-8[8:1],4/5-7[8:1],
{4}5/8b-4[8:1],7-5[8:1]/8,4bw8[8:1]/7,4b,
{8}2h[4:1],4,1h[4:1],3,8h[4:1],6,7h[8:1],5,
{16}1b/2b,,,6b/7b,,,3b>6[4:1]/4bp5[4:1],,,,,,,,,,
{8}6h[4:1],8,4h[4:1],1,5h[4:1],8,3h[8:1],1,
{16}3b/4b,,5b/6b,,7b/8b,,1b/2b,,3b/4b,,5,4,6,3,7,2,
{8}8b-5[8:1],4,8-3[8:1],4,8-5[8:1],4,8>3[8:1],4,
{8}8b<5[8:1],4,8>3[8:1],4,8-4[8:1],4,8,3,
{8}1b-4[8:1],5,1-6[8:1],5,1b-4[8:1],5,1<6[8:1],5,
{8}1b>4[8:1],5,1<6[8:1],5,1b-5[8:1],5,1b,6,
{8}7h[8:1],8,2h[8:1],1,6h[8:1],8,3h[8:1],1,
{16}7b/8b,,,2b/3b,,,5bq4[4:1]/6b<3[4:1],,,,,,,,,,
{8}1-5[8:1]/8-4[8:1],2/7,1b/8b,,1-5[8:1]/8-4[8:1],3/6,1b/8b,,
{16}1-5[8:1]/8-4[8:1],,4/5,,1b/8b,,,,4b,5b,4b,5b,4b,5b,4b,5b,
{8}2b-5[16:1],1,7-4[16:1],8,2>5[16:1],1,7<4[16:1],8,
{8}2b-6[16:1],1,7-3[16:1],8,2>4[16:1],1,7<5[16:1],8,
{8}3b-8[16:1],4,6-1[16:1],5,3b>8[16:1],4,6<1[16:1],5,
{8}4b-8[8:1],7,5-1[8:1],2,3b>6[8:1],7,,,
{8}1h[8:1]/8b,3,1b/8h[8:1],6,1h[8:1]/8b,3,1b/8h[8:1],5,
{16}1b/8b,,,4b/5b,,,1bpp4[4:1]/8bqq5[4:1],,,,,,,,,,
{8}4b/5b,2/3,4b/5b,6/7,4b/5b,1/2,4b/5b,7/8,
{8}3b/4b,4b/5b,5b/6h[4:1],,7b,4b/5b,2h[4:1]/3b,,
{8}1b,4b/5b,7b/8h[4:1],,1b,3b/6b,1b/8b,4b/5b,
{1}2b/7b,
{1},
{16}1b/8h[8:1],,2-6[8:1],8h[16:3],,,2,,8h[8:1],,2-6[8:1],8h[16:3],,,2,,
{16}7h[8:1],,2-5[8:1],7h[16:3],,,2,,7h[8:1],,2-5[8:1],7h[16:3],,,2,,
{16}6h[8:1],,1-5[8:1],6h[16:3],,,1,,6h[8:1],,1-5[8:1],6h[16:3],,,1,,
{8}8-4[8:1],2/6,8b,,1-5[8:1]/7-3[8:1],3/5,1b/7b,,
{16}1h[8:1]/8,,7-3[8:1],1h[16:3],,,7,,1h[8:1],,7-3[8:1],1h[16:3],,,7,,
{16}2h[8:1],,7-4[8:1],2h[16:3],,,7,,2h[8:1],,7-4[8:1],2h[16:3],,,7,,
{16}3h[8:1],,8-4[8:1],3h[16:3],,,8,,3h[8:1],,8-4[8:1],3h[16:3],,,8,,
{8}1-5[8:1],3/7,1b,,2-6[8:1]/8-4[8:1],4/6,2b/8b,,
{1}1b,
{1},
{1},
{1},
E
