&title=幸せになれる隠しコマンドがあるらしい
&wholebpm=142
&artist=うたたP
&des=玉子豆腐
&shortid=432
&genre=niconicoボーカロイド
&cabinet=SD
&version=maimai MURASAKi PLUS
&chartconverter=Neskol
&lv_2=6
&des_2=-
&lv_3=9
&des_3=-
&lv_4=12+
&des_4=小鳥遊さん
&lv_5=14
&des_5=玉子豆腐
&des_6=
&inote_2=
(142){1},
{1},
{1},
{1}2/3,
{1}2/3,
{1}1/8,
{1}6/7,
{1}2/3,
{1}2/3,
{1}1/8,
{1}6/7,
{1}2/3,
{1}2/3,
{1}1/8,
{1}1h[1:1]/8h[1:1],
{1},
{4}1,1,1,,
{4}2,2,2,,
{4}3,3,3,,
{4}4,4,4,,
{4}5,5,5,,
{4}6,6,6,,
{4}7,7,7,,
{2}1/8,1/8,
{4}8,8,7,,
{4}7,7,6,,
{4}6,6,5,,
{4}5,5,4,,
{4}4,4,3,,
{4}3,3,2,,
{4}2,2,1,,
{1}1b/8b,
{1},
{4}1,1,1/2,,
{4}8,8,7/8,,
{4}1,1,1/2,,
{1}1h[2:1]/8h[2:1],
{4}7,7,7/8,,
{4}2,2,1/2,,
{4}7,7,7/8,,
{4}1/8,1/8,2b/7b,,
{1}1-5[4:3],
{1},
{1}8-4[4:3],
{1},
{2}1,1,
{2}1,1/8,
{2}8,8,
{2}8,1/8,
{2}1/2,1/2,
{2}3/4,3/4,
{2}5/6,5/6,
{1}7b/8b,
{4},,8,8,
{4}8,8,7,7,
{4}7/8,,6,6,
{4}6,6,5,5,
{4}4/5,,4,4,
{4}4,4,3,3,
{4}3/4,,2,2,
{4}2,2,1,1,
{4}1b/8b,,7/8,7/8,
{4}1/6,,1/2,1/2,
{4}3/8,,7/8,7/8,
{4}1/6,,1,1,
{4}2,2,3/4,3/4,
{4}2/5,,5/6,5/6,
{4}4/7,,3/4,3/4,
{4}2/5,,5/6,5/6,
{4}4b/7b,,3,3,
{4}2,2,1,1,
{4}8,8,7,7,
{4}6,6,5,5,
{4}4/5,,5,5,
{4}6,6,7,7,
{4}8,8,1,1,
{4}2,2,3,3,
{4}4b/5b,,2/3,2/3,
{4},,2/3,2/3,
{4},,1/8,1/8,
{4},,6/7,6/7,
{4},,2/3,2/3,
{4},,2/3,2/3,
{4},,1/8,1/8,
{4},,6/7,6/7,
{2},4b/5b,
{1},
{1},
{1},
E
&inote_3=
(142){1},
{1},
{1},
{4}2,4/5,1/8,2,
{4}2,4/5,2,2,
{4}1/8,1/8,4/5,4/5,
{4}7,2,7,2,
{4}2,4/5,1/8,2,
{4}2,4/5,2,2,
{4}1/8,1/8,4/5,4/5,
{4}7,2,7,2,
{4}2,4/5,1/8,2,
{4}2,4/5,2,2,
{4}1/8,1/8,4/5,4/5,
{1}1h[1:1]/8h[1:1],
{1},
{4}2,4/5,1/8,3,
{4}3,4/5,2,2,
{4}1/8,1/8,4/5,4/5,
{4}6,3,6,3,
{4}3,4/5,1/8,2,
{4}2,4/5,3,3,
{4}1/8,1/8,4/5,4/5,
{1}6p4[2:1],
{4}3,4/5,4/6,3/5,
{4}2/8,1/7,7/8,1/2,
{4}1/8,1/8,4/5,3/5,
{4}1/7,7/8,1/2,3/5,
{4}2,4/5,1/8,2,
{4}3/5,2/8,1/7,1/2,
{4}1/8,1/8,4/5,1b/8b,
{1},
{1},
{4}3,4,3/4,2/5,
{4}6,5/6,4/7,,
{4}6,5,5/6,4/7,
{4}3,3/4,2/5,,
{4}2,1,1/2,3/8,
{4}7,7/8,1/6,,
{4}1,8,1/8,2/7,
{2}1h[4:1]/8h[4:1],1b/8b,
{4}2h[4:1],1,7h[4:1],8,
{4}1h[4:1],2h[4:1],3h[4:1],4,
{4}6h[4:1],5,3h[4:1],4,
{1}4-1[8:3]/5-8[8:3],
{4}8,8,7,7,
{1}5-2[8:3]/6,
{4}1,1,2,2,
{1}3/4-7[8:3],
{2}7h[4:1]/8h[4:1],1h[4:1]/2h[4:1],
{2}5h[4:1]/6h[4:1],3h[4:1]/4h[4:1],
{4}4/5,4/5,3/6,3-1[4:1]/6-8[4:1],
{1},
{4},,3h[8:1]/4h[8:1],3h[8:1]/4h[8:1],
{8}5h[8:1]/6h[8:1],,5h[8:1]/6h[8:1],,3,3,3/4,,
{8}6,6,5/6,,5/6,,4/5,,
{8}3/4,,2/3,,2,2,1/2,,
{8}7,7,7/8,,1h[8:1]/2h[8:1],,7h[8:1]/8h[8:1],,
{4}1h[8:1]/2h[8:1],7h[8:1]/8h[8:1],8b,1b,
{8}1,1,8,8,3,,2/4,,
{4}6,5/7,2,1/3,
{2}4b/8b,1h[2:1]/8h[2:1],
{2},1h[2:1]/2h[2:1],
{2},7h[2:1]/8h[2:1],
{2},1-4[8:3]/8-5[8:3],
{4},,3h[2:1],4,
{4}4,,6h[2:1],5,
{4}5,,7h[2:1],8,
{2}8,1h[4:1]/8h[4:1],
{4}1b/8b,,6,5,
{4}5/6,4/7,3,3/4,
{4}2/5,2/5,3,4,
{4}3/4,2/5,6,5/6,
{4}4/7,3/8,7,8,
{4}7/8,1/6,2,1,
{4}1/2,3/8,8,1,
{4}1/8,2/7,4h[4:1]/5h[4:1],,
{4}3b/6b,,2/3,4/5,
{4}1/8,2/3,2/3,4/5,
{4}2/3,2/3,1/8,1/8,
{4}4/5,4/5,6/7,2/3,
{4}6/7,2/3,2h[8:1]/3h[8:1],4h[8:1]/5h[8:1],
{4}1h[8:1]/8h[8:1],2h[8:1]/3h[8:1],2h[8:1]/3h[8:1],4h[8:1]/5h[8:1],
{4}2h[8:1]/3h[8:1],2h[8:1]/3h[8:1],1h[8:1]/8h[8:1],1h[8:1]/8h[8:1],
{4}4h[8:1]/5h[8:1],4h[8:1]/5h[8:1],6h[8:1]/7h[8:1],2h[8:1]/3h[8:1],
{4}6h[8:1]/7h[8:1],2h[8:1]/3h[8:1],6b/7b-2[8:3],,
{1},
{1},
{1},
E
&inote_4=
(142){1},
{1},
{1},
{4}3,4,1,3,
{4}3,4,3,3,
{4}1,1,4,4,
{4}6,3,6,3,
{4}3/7h[4:15],4,1,3,
{4}3,4,3,3,
{4}1,1,4,4,
{4}6,3,6,3,
{4}2/3,4/5,1/8,2/3,
{4}2/3,4/5,2/3,2/3,
{4}1/8,1/8,4/5,4/5,
{1}1h[4:3]/8h[4:3],
{4}1/8,2/7,3/6,4/5,
{4}2/3,4/5,1/8,2/3,
{4}2/3,4/5,2/3,2/3,
{4}1/8,1/8,4/5,4/5,
{4}6/7,2/3,6/7,2/3,
{4}2h[8:1]/3h[8:1],4h[8:1]/5h[8:1],1h[8:1]/8h[8:1],2h[8:1]/3h[8:1],
{4}2h[8:1]/3h[8:1],4h[8:1]/5h[8:1],2h[8:1]/3h[8:1],2h[8:1]/3h[8:1],
{4}1h[8:1]/8h[8:1],1h[8:1]/8h[8:1],4h[8:1]/5h[8:1],4h[8:1]/5h[8:1],
{1}6/7>6[2:1],
{4}3h[2:1],4,7h[2:1],2,
{4}4h[2:1],3,6h[2:1],8,
{4}2h[2:1],3,5h[2:1],6,
{4}4h[4:1],1,4/8,2/6,
{4}1h[2:1],4,8h[2:1],2,
{4}5h[2:1],4,2h[2:1],3,
{4}1h[2:1],8,5h[2:1],4,
{1}1b,
{4}7/8,1/6,2/5,3/4,
{16}8-5[8:1],,1,,2,,3,,4h[16:3],,,3h[16:3],,,2,,
{16}1-4[8:1],,8,,7,,6,,5h[16:3],,,6h[16:3],,,7,,
{16}8-5[8:1],,1,,2,,3,,4h[16:3],,,3h[16:3],,,2,,
{8}1-4[8:1],8,7,6,5-2[8:1]*-8[8:1],,,,
{16}4>1[8:1],,5,,6,,7,,8h[16:3],,,7h[16:3],,,6,,
{16}5<8[8:1],,4,,3,,2,,1h[16:3],,,2h[16:3],,,3,,
{16}4>1[8:1],,5,,6,,7,,8h[16:3],,,7h[16:3],,,6,,
{4}4/5,,1b,8b,
{16}1,1,,2/8,,3/7,,4/6h[16:3],,,5,,4/7,,,,
{16}8,8,,1/7,,2/6,,3h[16:3]/5,,,4,,2/5,,,,
{16}4,4,,3/5,,2/6,,1/7h[16:3],,,8,,1/6,,,,
{16}5,5,,4/6,,3/7,,2/8w4[8:1],,,,,,,,,
{4}5,5,5,5,
{4}5,5V38[4:1]*V72[4:1],,,
{4}4,4,4,4,
{4}4,4V27[4:1]*V61[4:1],,,
{2}1-5[8:1],8-4[8:1],
{2}2-5[8:1],7-4[8:1],
{4}1,2,3,4,
{4}4b/5b,,1/2,3/8,
{4}4/7,5/6,4h[4:7]/8,7,
{8}6,,5,,3,3,5,5,
{8}3,3,5h[1:2],,4,,3,,
{8}2,,1,,8,8,2,2,
{8}1,1,1h[1:2],,5,,6,,
{8}7,,8,,2,2,8,8,
{8}2,2,8h[4:7],,2,,6,,
{4}3,5,4h[2:1],,
{4},2b/6b,4h[2:1]/8h[2:1],,
{8},,,3/7,2h[2:1]/6h[2:1],,,,
{8},,1/5,2/6,3h[2:1]/7h[2:1],,,,
{8},4/8,3/7,2/6,1h[4:1]/5h[4:1],,,,
{16}3/6,,3/6,,4,5,4,5,4,,,,3/4,,,,
{8}5,,5/6,,3,3,2/4,,
{8}6,6,5/7,,2,2,1,1,
{8}8,8,7,7,1/8,1/8,2/7,2/7,
{16}1,8,1,8,1,8,1,8,2-5[8:1],,1,,8,,7,,
{16}6h[16:3],,,7h[16:3],,,8,,7-4[8:1],,8,,1,,2,,
{16}3h[16:3],,,2h[16:3],,,1,,2-5[8:1],,1,,8,,7,,
{16}6h[16:3],,,7h[16:3],,,8,,7-4[8:1],,8,,1,,2,,
{8}3>8[8:1]*<6[8:1],,,,6<1[8:1],5,4,3,
{16}2h[16:3],,,3h[16:3],,,4,,3>8[8:1],,4,,5,,6,,
{16}7h[16:3],,,6h[16:3],,,5,,6<1[8:1],,5,,4,,3,,
{16}2h[16:3],,,3h[16:3],,,4,,4/5,,,,,,,,
{4}1b,8b,2/8-5[8:1],4-1[8:1],
{4}6-3[8:1],7-2[8:1],8-5[8:1],7-2[8:1],
{4}6-3[8:1],4-1[8:1],5-8[8:1],1-4[8:1],
{4}8-5[8:1],3-6[8:1],7-2[8:1],3-6[8:1],
{4}7-2[8:1],6-3[8:1],8-5[8:1],4-1[8:1],
{4}6-3[8:1],7-2[8:1],8-5[8:1],7-2[8:1],
{4}6-3[8:1],4-1[8:1],5-8[8:1],1-4[8:1],
{4}8-5[8:1],3-6[8:1],7-2[8:1],3-6[8:1],
{4}7-2[8:1],3,2h[2:1],,
{1}1b,
{1},
{1},
{1},
E
&inote_5=
(142){1},
{4}4,4,5,5,
{4}6,6,7,7h[2:7],
{4}2,4,1,2,
{4}2,4,3,3,
{4}8,8,5,5,
{4}6,3,7,2,
{4}2/3,4/5,1/8,2/3,
{4}2/3,4/5,2/3,2/3,
{4}1/8,1/8,4/5,4/5,
{4}6/7,2/3,2/7,3/6-3[8:1],
{4}1-4[8:1],5-8[8:1],6-3[8:1],7-2[8:1],
{4}8-5[8:1],7-2[8:1],6-3[8:1],5-8[8:1],
{4}4-1[8:1],8-5[8:1],1-4[8:1],5,
{1}1h[2:1]/8h[2:1],
{24}5/6h[4:1],,,2,3,4,5h[4:1],,,1,8,7,6,,,5/6,,,4/7-2[8:1],,,3/8,,,
{4}1-4[8:1],5-8[8:1],6-3[8:1],7-2[8:1],
{4}8-5[8:1],7-2[8:1],6-3[8:1],5-8[8:1],
{4}4-1[8:1],8-5[8:1],1-4[8:1],3-6[8:1],
{4}7-2[8:1],3-6[8:1],7-2[8:1],6-3[8:1],
{4}1-4[8:1]/6,1/5-8[8:1],5/6-3[8:1],6/7-2[8:1],
{4}7/8-5[8:1],7-2[8:1]/8,6-3[8:1]/7,5-8[8:1]/6,
{4}4-1[8:1]/5,4/8-5[8:1],1-4[8:1]/8,1/3-6[8:1],
{4}3/7p6[4:1],6>8[4:1],8,6-3[8:1],
{4}1-4[8:1],6h[4:1],4bv3[8:1],4-7[8:1]/5-8[8:1],
{4}4-1[8:1]*p8[8:1],4-2[8:1],4/5-7[8:1]*qq3[8:1],5-8[8:1],
{4}4-1[8:1],8-6[8:1],4v5[8:1],4-1[8:1]*p8[8:1],
{4}4V68[8:1],4-8[8:1]*qq2[8:1],4v6[8:1],7-2[8:1],
{4}1-4[8:1],5-8[8:1],7-2[8:1],5v6[8:1],
{4}4-7[8:1]/5-2[8:1],5-1[8:1]*v8[8:1],5-7[8:1]*qq3[8:1],5-8[8:1],
{4}4-1[8:1],8-5[8:1],1-4[8:1]/8-3[8:1],1/8,
{1}2b/6b,
{24}3h[4:1]/4,,,7,6,5,4h[4:1],,,8,1,2,3,,,3/4,,,2/5,,,1/6,,,
{24}7/8,,,7,,,6/8,,,2,,,1/3h[4:1],,,7,6,5,4,,,2/5,,,
{24}6/8,,,1,,,1/3,,,7,,,6h[4:1]/8,,,2,3,4,5,,,4/7,,,
{24}1/3,,,8,,,6/8,,,2,,,1/3h[4:1],,,7,6,5,4,,,2/5,,,
{16}7/8,,6,,1/2,,3,,7/8,,5,5h[16:3],,,4b,,
{24}7/8,,,1,,,1/3,,,7,,,6h[4:1]/8,,,2,3,4,5,,,4/7,,,
{24}1/3,,,8,,,6/8,,,2,,,1/3h[4:1],,,7,6,5,4,,,2/5,,,
{24}6/8,,,1,,,1/3,,,7,,,6h[4:1]/8,,,2,3,4,5,,,4/7,,,
{16}5/6h[8:3],,7,,8,,1,,1-3[16:1],1-4[16:1],1-5[16:1],1-6[16:1],,,,,
{16}3,3,,2/5,,7/8,,1/6,,3<6[8:1],4,2h[8:1],,3,,1,
{16}1,8,,2/7,,4/5,,3/6,,2,4,3,5,4,6,5,
{16}7,8,,1/6,,3/4,,2/5,,7>2[8:1],8,6h[8:1],,7,,5,
{16}5,4,,2/7,,4/5,,1/8,,1/2,3/8,4/7,,7/8,1/6,2/5,
{4}3,3,4,4,
{4}5,5>1[4:1],1<7[8:1]*q2[3:1],,
{4}6,6,5,5,
{4}4,4<8[4:1],8>2[8:1]*p7[3:1],,
{4}3,3/4,6,5/6,
{4}3,2/4,6,5/7,
{4}4,3/5,2/6,1>4[8:1]/7<4[8:1],
{24},,,,,,,,,,,,4h[4:1]/5,,,8,7,6,5h[4:1],,,1,2,3,
{8}4,4/5,3-8[8:1]/6,7-2[8:1],3-6[8:1],7-4[8:1],3-8[8:1],7-2[8:1],
{8}3<1[16:3],7,3,,6-8[8:1],1,6-1[8:1],2,
{8}6-2[8:1],3,6-1[8:1]*-3[8:1],4,6-4[8:1],,6/7-1[8:1]*-3[8:1],,
{8}7-4[8:1],,7,,8-3[8:1]*-5[8:1],8-4[8:1],,,
{8}2,3/4,2>4[8:1]/5<1[8:1],6,2v5[8:1]/5v2[8:1],,2>4[8:1]/5<1[8:1],,
{4}2/5,3-7[8:1]/7-3[8:1],3<6[8:1]/7>2[8:1],,
{8}2/7,3/6,4z8[8:1]/5-8[8:1],3/6,4-7[8:1]/5-2[8:1],,4/5,,
{8}3-6[8:1]/7-2[8:1],,3/7,,1-4[32:3]/4-1[32:3],5-8[32:3]/8-5[32:3],,,
{4},4b/8b,1h[4:3]/5h[4:3],,
{8},,,2/6,3h[8:5]/7h[8:5],,,,
{8},,2/6,1/5,4h[2:1]/8h[2:1],,,,
{8},1/5,2/6,3/7,4h[2:1]/8h[2:1],,,,
{32},,,,4/8,,,,8,7,6,5,8,1,2,3,8b,,,,5,,,,1,,,,6,,,,
{8}2,7,3,4/8,1b/5b,5,1,6,
{8}2,7,3,4/8,1b/5b,5,1,2/6,
{8}3b/7b,8,4,1/5,2b/6b,3/7,4/8,1/5,
{16}1-3[16:1],1-4[16:1],1-5[16:1],1-6[16:1],,,,,4,,3,,2/4,,6,,
{24}5/7h[4:1],,,3,2,1,8,,,1/6,,,2/4,,,5,,,5/7,,,3,,,
{24}2h[4:1]/4,,,6,7,8,1,,,3/8,,,5/7,,,4,,,2/4,,,6,,,
{24}5/7h[4:1],,,3,2,1,8,,,1/6,,,3/4,,,1,,,5/6,,,8,,,
{16}3/4,,1,1h[16:3],,,8b,,3/4,,5,,5/7,,3,,
{24}2h[4:1]/4,,,6,7,8,1,,,3/8,,,5/7,,,4,,,2/4,,,6,,,
{24}5/7h[4:1],,,3,2,1,8,,,1/6,,,2/4,,,5,,,5/7,,,3,,,
{24}2h[4:1]/4,,,6,7,8,1,,,3/8,,,1/2h[8:3],,,4,,,6,,,8,,,
{16}8-2[16:1],8-3[16:1],8-4[16:1],8-5[16:1],,,,,3v4[8:1],,,,5-8[8:1],,,,
{4}2p3[4:1],3q2[4:1],8-5[8:1],4,
{4}1v3[8:1]/4v2[8:1],1/4,3V58[8:1],1-4[8:1]*-6[8:1],
{4}1w5[8:1],,2v5[8:1]/6v1[8:1],2-7[8:1]/6-3[8:1],
{4}2v5[8:1]/6v1[8:1],2/6,3v4[8:1],5-8[8:1],
{4}2p3[4:1],3q2[4:1],8-5[8:1],4,
{4}1v3[8:1]/4v2[8:1],1/4,3V58[8:1],1-4[8:1]*-6[8:1],
{4}1w5[8:1],,2v5[8:1]/6v1[8:1],2-7[8:1]/6-3[8:1],
{4}2v5[8:1]/6v1[8:1],2/6,7b-2[16:3],,
{1}1h[16:1],
{1},
{1},
{1},
E
