&title=夢花火
&wholebpm=186
&artist=豚乙女
&des=某S氏
&shortid=614
&genre=maimai
&cabinet=SD
&version=maimai MURASAKi PLUS
&chartconverter=Neskol
&lv_2=6
&des_2=-
&lv_3=8
&des_3=-
&lv_4=11
&des_4=はっぴー
&lv_5=13+
&des_5=某S氏
&des_6=
&inote_2=
(186){1},
{2}1,1,
{4}1,1,1,,
{2}8,8,
{4}8,8,8,,
{2}1/2,1/2,
{4}2,2,2,,
{2}7/8,7/8,
{4}7,7,7b,,
{2}1,1,
{2}2,2,
{2}3,3,
{4}4,4,4,,
{2}5,5,
{2}6,6,
{2}7,7,
{4}8,8,8,,
{4}1,1,2,,
{4}8,8,7,,
{2}1/8,1/8,
{4}1,8,1,,
{4}8,8,7,,
{4}1,1,2,,
{2}1/8,1/8,
{4}8,1,8,,
{2}7,7,
{4}6,6,6,,
{2}5,5,
{4}4,5,4,,
{2}3,3,
{4}2,2,2,,
{2}1,1,
{4}8,1,8b,,
{1}1-4[4:3],
{1},
{1}5-8[4:3],
{1},
{1}1>4[4:3],
{1},
{1}5<8[4:3],
{1},
{1}1h[1:1]/8h[1:1],
{1},
{4}1,1,1b,,
{4}1,1,1,,
{4}2,2,2,,
{2}3/4,3/4,
{4}4,5,4,,
{4}5,5,5,,
{4}6,6,6,,
{2}7/8,7/8,
{4}8,1,8b,,
{4}8,8,8,,
{4}7,7,7,,
{2}5/6,5/6,
{4}5,4,5,,
{4}4,4,4,,
{4}3,3,3,,
{2}1/2,1/2,
{1}1h[2:1]/8h[2:1],
{2}1/2,7/8,
{4}1,1,1,,
{2}7/8,1/2,
{4}8,8,8,,
{2}2/8,1/7,
{4}1/2,1/2,1/2,,
{2}1/7,2/8,
{4}7/8,7/8,7b/8b,,
{2}1,1,
{4}2,2,2,,
{2}3,3,
{4}4,5,4,,
{2}5,5,
{4}6,6,6,,
{4}7,7,7,,
{4}8,8,8,,
{1}1b/8b,
{4}1,1,1,,
{1}1-4[4:3],
{1},
{2}5/6,5/6,
{2}7/8,7/8,
{2}1/2,1/2,
{2}3/4,3/4,
{4}5,5,5,,
{4}4,4,4,,
{2}4/6,3/5,
{4}4/5,4/5,4b/5b,,
{2}3/4,3/4,
{2}1/2,1/2,
{2}7/8,7/8,
{2}5/6,5/6,
{4}4,4,4,,
{4}5,5,5,,
{2}3/5,4/6,
{1}3h[2:1]/6h[2:1],
{2}3/4,3/4,
{4}2,2,2,,
{2}5/6,5/6,
{4}7,7,7,,
{2}7/8,7/8,
{4}1,8,1,,
{2}1/2,1/2,
{4}8,1,8b,,
{1},
{1},
{1},
E
&inote_3=
(186){1},
{2}3/4,2/5,
{4}3/4,2/5,1/6,,
{2}5/6,4/7,
{4}5/6,4/7,3/8,,
{2}4/5,3/6,
{4}4/5,3/6,2/7,,
{2}1/8,2/7,
{4}1/8,2/7,3b/6b,,
{4}3,4,3,4,
{4}3,2,1/8,,
{4}6,5,6,5,
{4}6,7,1/8,,
{4}2,1,2,1,
{4}2,3,4/5,,
{4}7,8,7,7<4[2:1]/8>3[2:1],
{1},
{4}3/4,3/4,2/5,,
{4}5/6,5/6,4/7,,
{4}3/4,3/4,5/6,5/6,
{4}4/5,4/5,3/6,,
{4}1/2,1/2,3/8,,
{4}7/8,7/8,1/6,,
{4}1/2,1/2,7/8,7/8,
{4}1/8,2/7,3/6,,
{4}3h[4:1],4,2/5,,
{4}6h[4:1],5,4/7,,
{4}3h[4:1],4,6h[4:1],5,
{4}4/5,4/5,3/6,,
{4}7h[4:1],8,1/6,,
{4}2h[4:1],1,3/8,,
{4}7h[4:1],8,2h[4:1],1,
{4}1/8,2/7,3b/6b,,
{2}4h[2:1],3,
{2}5h[2:1],6,
{2}3h[2:1],2h[2:1],
{2}1,3/8,
{2}8h[2:1],7,
{2}1h[2:1],2,
{2}7h[2:1],6h[2:1],
{2}5h[2:1],4,
{1}3h[2:1]/6h[2:1],
{1}4>1[8:5]/5<8[8:5],
{4},,1b/8b,1b/8b,
{1}1>4[2:1],
{1}5<8[2:1],
{4}1,2,3,4,
{1}5p4[16:9],
{4}3,3/4,6,5/6,
{4}4/5,3/6,2/7,,
{4}7,7/8,2,1/2,
{4}1b,1b,1b,,
{1}8<5[2:1],
{1}4>1[2:1],
{4}8,7,6,5,
{1}4q5[16:9],
{4}6,5/6,3,3/4,
{4}4/5,3/6,2/7,,
{4}2,1/2,7,7/8,
{1}1>4[2:1]/8<5[2:1],
{2}3/4,2/5,
{4}3/4,2/5,1/6,,
{2}5/6,4/7,
{4}5/6,4/7,3/8,,
{2}4/5,3/6,
{4}4/5,3/6,2/7,,
{2}1/8,2/7,
{4}1/8,2/7,3b/6b,,
{4}3,4,3,4,
{1}3>8[8:3],
{4}6,5,6,5,
{1}6<1[8:3],
{4}2,1,2,1,
{1}2>5[8:3],
{4}8,7,6,5,
{4}4,3,2,1,
{1}1>4[8:5]/8<5[8:5],
{4},,3b/6b,3b/6b,
{4}3/4,3/4,5/6,5/6,
{4}4/5,3/6,2/7,,
{1}2>5[2:1],
{1}6<1[2:1],
{4}2,3,4,5,
{1}6p5[16:9],
{4}3,3/4,6,5/6,
{4}4/5,3/6,2/7,,
{4}7,7/8,2,1/2,
{4}1b,1b,1b,,
{1}7<4[2:1],
{1}3>8[2:1],
{4}7,6,5,4,
{1}3q4[16:9],
{4}6,5/6,3,3/4,
{4}4/5,3/6,2/7,,
{4}2,1/2,7,7/8,
{1}1>4[2:1]/8<5[2:1],
{2}5/6,3/8,
{4}5/6,4/7,1/2,,
{2}3/4,1/6,
{4}3/4,2/5,7/8,,
{2}1/8,3/6,
{4}1/8,2/7,4/5,,
{2}4/5,2/7,
{4}4/5,3/6,1b/8b,,
{1},
{1},
{1},
E
&inote_4=
(186){1},
{8}2/7,,,6,5/7,,,3,
{4}2/4,7/8,1/6,4/5,
{8}2/7,,,3,2/4,,,6,
{4}5/7,1/2,3/8,4/5,
{8}2/7,,,6,5/7,,,3,
{4}2/4,7/8,1/6,4/5,
{8}2/7,,,3,2/4,,,6,
{4}5/7,1/2,3/8,4/5,
{4}6h[4:1],8,3h[4:1],1,
{2}4/6-8[8:1],3-1[8:1]/5,
{4}3h[4:1],1,6h[4:1],8,
{2}3-1[8:1]/5,4/6-8[8:1],
{4}5/6h[4:1],8,3h[4:1]/4,1,
{2}4/5-8[8:1],4-1[8:1]/5,
{4}3h[4:1]/4,1,5/6h[4:1],8,
{4}4/5,1/6,3/8,1/6,
{4}5/6,5/6-1[8:1],5,,
{4}3/4,3-8[8:1]/4,4,,
{4}5/6,5/7,4/6,4/5,
{4}3/5,3/4,2/4,,
{4}3/4,3-8[8:1]/4,4,,
{4}5/6,5/6-1[8:1],5,,
{4}3/4,2/4,3/5,4/5,
{1}3V14[2:1]/6V85[2:1],
{4}6,5/7,3,2/4,
{1}3p6[8:3]/7>2[8:3],
{4}3,2/4,6,5/7,
{1}4qq1[8:5]/5pp8[8:5],
{4}7,6/8,2,1/3,
{1}5v3[8:3]/6v4[8:3],
{4}2,1/3,7,6/8,
{1}3>7[8:3]/4v7[8:3],
{8}6,6,5,6,3,3,4,3,
{8}6,6,5,7,3,3,4,2,
{8}6,6,5,6,3,3,4,3,
{8}6,6,5,6,4/7,,4/5,,
{8}2,2,1,2,7,7,8,7,
{8}2,2,1,3,7,7,8,6,
{4}4qq1[8:5]/5,5,5,5,
{4}4/5pp8[8:5],4,4,4,
{4}4/5,3/6,2-5[8:1]/7-4[8:1],,
{1}2h[4:5]/7h[1:1],
{4},,3b/7b,2b/6b,
{2}4>2[8:1]/8<6[8:1],4>2[8:1]/8<6[8:1],
{2}4>2[8:1]/8<6[8:1],4>2[8:1]/8<6[8:1],
{8}4h[4:1]/8,,3,3,,1h[4:1]/5,,2q4[2:1],
{4},,,1/7,
{2}3>8[8:1]/4,5/6<1[8:1],
{2}3>8[8:1]/4,5/6<1[8:1],
{4}3/4,1/3,5/6,6/8,
{2}3-8[8:1]/4-7[8:1],1b/6b,
{2}1>3[8:1]/5<7[8:1],1>3[8:1]/5<7[8:1],
{2}1>3[8:1]/5<7[8:1],1>3[8:1]/5<7[8:1],
{8}1/5h[4:1],,6,6,,4/8h[4:1],,7p5[2:1],
{4},,,2/8,
{2}5/6<1[8:1],3/4<7[8:1],
{2}1/2>5[8:1],7/8>3[8:1],
{4}5/6,6/8,3/4,1/3,
{1}1pp4[2:1]/8qq5[2:1],
{8}2/7,,,3,2/4,,,6,
{4}5/7,1/2,3/8,4/5,
{8}2/7,,,6,5/7,,,3,
{8}2/4,,5/6,,4/7,8b,8b,,
{8}2/7,,,3,2/4,,,6,
{4}5/7,1/2,3/8,4/5,
{8}2/7,,,6,5/7,,,3,
{4}2/4,7/8,1/6,4/5,
{4}3/6h[2:1],5,3h[2:1],4,
{4}7h[2:1],6,2h[2:1],3,
{4}6h[2:1],5,3h[2:1],4,
{4}7h[2:1],8,2h[2:1],1,
{4}6h[2:1],8,4h[2:1],8,
{4}5h[2:1],8,4h[2:1],8,
{4}5h[2:1],1,3h[2:1],1,
{4}4h[2:1],1,3h[4:1],1,
{1}2h[1:1]/7h[4:5],
{4},,2b/6b,3b/7b,
{4}2-4[8:1],8-6[8:1],1-5[8:1],8-4[8:1],
{4}1-3[8:1],7-5[8:1],8b,,
{2}3>8[8:1]/7<4[8:1],3>8[8:1]/7<4[8:1],
{2}3>8[8:1]/7<4[8:1],3>8[8:1]/7<4[8:1],
{8}3/7h[4:1],,6,6,,2/6h[4:1],,7q1[2:1],
{4},,,4/6,
{2}3>8[8:1]/4,5/6<1[8:1],
{2}3>8[8:1]/4,5/6<1[8:1],
{4}1/2,2/4,7/8,5/7,
{2}5-2[8:1]/6-1[8:1],3b/8b,
{2}2>5[8:1]/6<1[8:1],2>5[8:1]/6<1[8:1],
{2}2>5[8:1]/6<1[8:1],2>5[8:1]/6<1[8:1],
{8}2h[4:1]/6,,3,3,,3h[4:1]/7,,2p8[2:1],
{4},,,3/5,
{2}2/6-1[8:1],3-8[8:1]/7,
{2}2/5-1[8:1],4-8[8:1]/7,
{4}7/8,5/7,1/2,2/4,
{1}4qq1[2:1]/5pp8[2:1],
{8}3/6,,,7,6/8,,,2,
{4}1/3,5/6,4/7,1/8,
{8}3/6,,,2,1/3,,,7,
{8}6/8,,3/4,,2/5,1b,1b,,
{8}3/6,,,7,6/8,,,2,
{4}1/3,5/6,4/7,1/8,
{8}3/6,,,1/8,1/8,,,4/5,
{2}4-1[8:1]/5-8[8:1],2b/7b,
{1},
{1},
{1},
E
&inote_5=
(186){1},
{8}4/7,,,3/4,2/5,,,3/7,
{4}3>8[8:1]/7<4[8:1],3p5[8:1],,1/2,
{8}3/8,,,7/8,1/6,,,3/7,
{8}3>8[8:1]/7<4[8:1],,7p1[8:1],,,8b,8b,,
{8}1/6,,,1/2,3/8,,,2/6,
{4}2>5[8:1]/6<1[8:1],6q4[8:1],,5/6,
{8}4/7,,,3/4,2/5,,,3/7,
{4}3>8[8:1]/7<4[8:1],7p1[8:1],,4b/5b,
{16}1/2,,,,7/8,,,2,1/2,,8,,7,,6,,
{8}1,2,3,4,5/6,,4/7,,
{16}3/4,,,,5/6,,,3,3/4,,2,,3,,4,,
{8}4/5,4/5,3/6,3/6,2/7,1b,8b,1b,
{16}7/8,,,,1/2,,,7,7/8,,1,,2,,3,,
{8}8,7,6,5,3/4,,2/5,,
{16}5/6,,,,3/4,,,6,5/6,,7,,6,,5,,
{16}4,,5,,3,,6,,4,5,4,5,4,5,4,5,
{4}4-1[8:1],8w4[8:1],8,,
{4}5-8[8:1],1w5[8:1],1,,
{4}3v6[8:1],3,2<7[8:1],2,
{4}6v3[8:1],6<1[8:1],6,,
{4}1-7[8:1]/2-4[8:1],1-5[8:1]/2-6[8:1],1/2,,
{4}7-5[8:1]/8-2[8:1],7-3[8:1]/8-4[8:1],7/8,,
{4}1-6[8:1]/2-5[8:1],1/2,7-4[8:1]/8-3[8:1],7/8,
{16}2-5[8:1]/6-1[8:1],,,,2/6,,,,3b/7b,,4,5,4,5,4,5,
{16}2h[16:3],,,3h[16:3],,,4,,7,,6,,5,,4,,
{8}3,4,3,4,3-7[8:1],,5b,,
{16}8h[16:3],,,7h[16:3],,,6,,1,,2,,3,,4,,
{8}5/6,5/6,4/7,4/7,3>8[8:1]/8<5[8:1],,3b/8b,,
{16}7h[16:3],,,6h[16:3],,,5,,2,,3,,4,,5,,
{8}6,5,6,5,6-2[8:1],,4b,,
{8}4,8,3,7,2,6,1>4[8:1],5,
{4}1b<6[8:1],1bw5[8:1],1b,2/8,
{8}8-4[8:1],8,2,2,1-5[8:1],1,7,7,
{8}8p4[8:1],8,2,2,1q5[8:1],1,7,7,
{8}8<5[8:1],8,2,2,1>4[8:1],1,7,7,
{8}1/8,7,1/8,2,1/8,7b,7b,7b,
{8}3-8[8:1],3,5,5,6-1[8:1],6,4,4,
{8}3>8[8:1],3,5,5,6<1[8:1],6,4,4,
{8}3/4,5,3/4,2,3/4,6,3/4,1,
{8}5/6,4,5/6,7,5/6,3,5/6,8,
{16}4/5,,4/5,,3/6,,3/6,,1,8,1,8,1,8,1,8,
{1}2/7,
{4},,8b,8b,
{16}1>4[16:3],,,4<7[16:3],,,7>3[4:1],,,,4,,4,,,,
{16}8<5[16:3],,,5>2[16:3],,,2<6[4:1],,,,5,,5,,,,
{8}2>5[8:1],,2,7>2[8:1],,7,,4h[4:1],
{8},3,2,1<5[8:1]*>5[8:1],,,,,
{8}8<5[8:1],,2,3>8[8:1],,5,6,7<4[8:1],
{8},8,1,2<7[8:1],,4,5,6,
{8}3h[4:1]/8h[4:1],,,1h[4:1]/6h[4:1],,,5,4,
{4}4b-2[8:1]/5b-1[8:1],4b-8[8:1]/5b-7[8:1],4b/5b,1/2,
{16}8<5[16:3],,,5>2[16:3],,,2<6[4:1],,,,5,,5,,,,
{16}1>4[16:3],,,4<7[16:3],,,7>3[4:1],,,,4,,4,,,,
{8}7<4[8:1],,7,2<7[8:1],,2,,5h[4:1],
{8},6,7,8<4[8:1]*>4[8:1],,,,,
{8}1>4[8:1],,7,6<1[8:1],,4,3,2>5[8:1],
{8},1,8,7>2[8:1],,5,4,3,
{8}1h[4:1]/6h[4:1],,,3h[4:1]/8h[4:1],,,4,5,
{1}4>5[2:1]/5p4[2:1],
{8}3/8,,,7,1/6,,,2,
{8}3/8,4,2/5,6,4/7,,8,,
{8}1/6,,,2,3/8,,,7,
{8}1/6,5,4/7,3,2/5,1b,1b,,
{8}4/7,,,3/4,2/5,,,5/6,
{8}4/7,3,1/8,7,2/6,,3/4,,
{8}2/5,,,5/6,4/7,,,3/4,
{8}2/5,6,1/8,2,3b/7b,,4/5,,
{16}2,,6,5,6,,1/8,,3/4,,1/8,,5/6,,1/8,,
{16}3,4,3,4,3,,7b/8b,,6,5,6,5,6,,1b/2b,,
{16}7,,3,4,3,,1/8,,5/6,,1/8,,3/4,,1/8,,
{16}7,8,7,8,7,,1b/8b,,2,1,2,1,2,,1b/8b,,
{16}2,,6,5,6,,1/8,,3/4,,1/8,,5/6,,1/8,,
{16}1,2,3,4,5,,8b,,8,7,6,5,4,,1b,,
{16}1/5,2/6,3/7,4/8,1/5,,1b,,1/5,4/8,3/7,2/6,1/5,,1b,,
{16}1/5,2/6,3/7,4/8,1/5,,1b,,1/5,4/8,3/7,2/6,1/5,,1b,,
{1}2/7,
{4},,8b,8b,
{2}1q6[8:1]/2>5[8:1],7q4[8:1]/8>3[8:1],
{2}5q2[8:1]/6<1[8:1],3b/4b,
{16}4>1[16:3],,,1<6[16:3],,,6>2[4:1],,,,1,,1,,,,
{16}5<8[16:3],,,8>3[16:3],,,3<7[4:1],,,,8,,8,,,,
{8}3>8[8:1],,3,6>3[8:1],,6,,1h[4:1],
{8},2,3,4>8[8:1]*<8[8:1],,,,,
{8}5<8[8:1],,3,2>5[8:1],,8,7,6<1[8:1],
{8},5,4,3<6[8:1],,1,8,7,
{8}1h[4:1]/6h[4:1],,,3h[4:1]/8h[4:1],,,4,5,
{4}4b-8[8:1]/5b-7[8:1],4b-2[8:1]/5b-1[8:1],4b/5b,7/8,
{4}1b>5[4:1],5b<1[4:1],1b>5[4:1],5b<1[4:1],
{4}1b>5[4:1],5b<1[4:1],1b,5b,
{4}4b>1[8:1]/8b<5[8:1],4b/8b,4b<7[8:1]/8b>3[8:1],4b/8b,
{32}8,7,6,5,4,3,2,1,8,7,6,5,4,3,2,1,8,7,6,5,4,3,2,1,4b/8b,,,,,,,,
{8}4>1[8:1],,5,7<4[8:1],,1,2,3>8[8:1],
{8},4,5,6>3[8:1],,8,1,2,
{8}3h[4:1]/8h[4:1],,,1h[4:1]/6h[4:1],,,5,4,
{32}8,,7,,6,,5,,4,,3,,2,,1,,8,7,6,5,4,3,2,1,8,7,6,5,4,3,2,1,
{8}3/8,,,7/8,1/6,,,3/7,
{4}3>8[8:1]/7<4[8:1],7p1[8:1],,5/6,
{8}4/7,,,3/4,2/5,,,2/6,
{8}2>5[8:1]/6<1[8:1],,2q8[8:1],,,1b,1b,,
{8}3/8,,,1/2,3/8,,,7/8,
{8}1/6,2/5,3-7[8:1]/4-8[8:1],2/5,3/4,,5/6,,
{8}4/7,,,3/4,2/5,,,1/2,
{8}3/8,4/7,5-1[8:1]/6-2[8:1],4/7,5b/6b,,,,
{1},
{1},
{1},
E
