&title=前前前世
&wholebpm=190
&artist=RADWIMPS
&des=Jack
&shortid=853
&genre=POPSアニメ
&cabinet=SD
&version=maimai MURASAKi PLUS
&chartconverter=Neskol
&lv_2=4
&des_2=-
&lv_3=7
&des_3=-
&lv_4=9
&des_4=はっぴー
&lv_5=12+
&des_5=Jack
&des_6=
&inote_2=
(190){1},
{1}1,
{1},
{1}1/8,
{1},
{1}8,
{1},
{1}1/8,
{1},
{2}1,1,
{2}2,2,
{2}3,3,
{1}4/5,
{2}5,5,
{2}6,6,
{2}7,7,
{1}1b/8b,
{2}1,1,
{2}2,2,
{2}3,3,
{2}4,4,
{2}5,5,
{2}6,6,
{1}7h[1:1],
{1},
{2}8,8,
{2}7,7,
{2}6,6,
{2}5,5,
{2}4,4,
{2}3,3,
{1}2h[1:1],
{1},
{2}1,1,
{2}8,8,
{1}1h[1:1]/8h[1:1],
{1},
{4}7,7,7,,
{4}8,8,8,,
{1}8-4[4:3],
{1},
{4}2,2,2,,
{4}1,1,1,,
{1}1-5[4:3],
{1},
{2}6,6,
{1}5/6,
{2}3,3,
{1}3/4,
{2}4,5,
{1}4/5,
{2}5,5,
{2}6,6,
{2}7,7,
{2}8,1b/8b,
{4}1,1,1,,
{4}2,2,2,,
{4}3,3,3,,
{1}4h[2:1]/5h[2:1],
{4}5,5,5,,
{4}6,6,6,,
{4}7,7,7,,
{1}1b/8b,
{4}8,8,8,,
{4}7,7,7,,
{4}6,6,6,,
{1}4h[2:1]/5h[2:1],
{4}4,4,4,,
{4}3,3,3,,
{1}2-6[4:3],
{1},
{4}5,5,5,,
{4}6,6,6,,
{1}7-3[4:3],
{1},
{2}1,1,
{2}2,1/2,
{2}3,3,
{4}4,4,4,,
{2}5,5,
{2}6,5/6,
{1}7h[2:1],
{2}8,8,
{2}1,1,
{1}2-6[4:3],
{1},
{1},
{1},
E
&inote_3=
(190){1},
{2}1/2,7/8,
{4}1,2,3,,
{2}7/8,1/2,
{4}8,7,6,,
{2}5/6,3/4,
{4}5,6,7,,
{2}2/4,5s1[4:3]/7,
{1},
{4}2b,1,2,,
{4}7,8,7,,
{4}1,8,1,,
{4}1/8,2/7,3/6,,
{4}6,5,6,,
{4}3,4,3,,
{4}5,4,5,,
{4}3/6,2/7,1b/8b,,
{4}7,7,6,,
{4}5,5,4,,
{1}3-8[4:3],
{1},
{4}2,2,3,,
{4}4,4,5,,
{1}6q3[4:3],
{1},
{4}3,3,2,,
{4}1,1,8,,
{1}7-4[4:3],
{1},
{4}6,6,7,,
{4}8,8,1,,
{1}2q7[4:3],
{1},
{4}8,8,1/7,,
{4}1,1,2/8,,
{1}1>4[1:1]/8<5[1:1],
{1},
{4}3,3,2/4,,
{4}6,6,5/7,,
{1}3-8[4:3]/4-7[4:3],
{1},
{4}6,6,5/7,,
{4}3,3,2/4,,
{1}5-2[4:3]/6-1[4:3],
{1},
{2}2h[2:1],1,
{2}7h[2:1],8,
{2}2h[2:1],3,
{2}4,3/5,
{2}6h[2:1],5,
{2}3h[2:1],4,
{2}5/6,4/7,
{2}3/4,2/5,
{2}3/6,2/7,
{4}1/8,1/8,2/7,,
{4}2b,2,1/3,,
{4}7,7,6/8,,
{4}1,1,8,8,
{1}2/7,
{4}6,6,5/7,,
{4}3,3,2/4,,
{1}5>2[4:3]/6<1[4:3],
{1},
{4}7/8,7/8,1/6,,
{4}1/2,1/2,3/8,,
{4}7/8,1/6,2/5,3/4,
{1}2/5,
{4}3/4,3/4,2/5,,
{4}5/6,5/6,4/7,,
{1}3>8[4:3]/4<7[4:3],
{1},
{4}1,2,3,,
{4}8,7,6,,
{1}4-1[4:3]/5-8[4:3],
{8},,,,1/8,1/8,,,
{2}7/8,1/2,
{4}8,7,6,,
{2}3/4,5/6,
{4}4,3,2,,
{2}1/2,7/8,
{4}1,2,3,,
{2}2/4,5/7,
{4}4/5,3/6,2/7,,
{2}7/8,1/2,
{4}2/7,,1/8,1>4[1:1]/8<5[1:1],
{1},
{1},
{1},
{1},
E
&inote_4=
(190){1},
{8}5,5,4,,3,,2/4,,
{4}5,6>3[4:1],,,
{8}4,4,5,,6,,5,,
{4}4/6,3<6[4:1],,,
{8}5,5,4,,3,,2/4,,
{4}5,6>3[4:1],,,
{4}3,4,6,5,
{6}5/6,5h[6:1]/6h[6:1],,3/4,3h[6:1]/4h[6:1],,
{4}5/7,5/7,2/4,2/4,
{4}5/7,2/4,7/8,1/6,
{4}2/4,2/4,5/7,5/7,
{4}2/4,5/7,1/2,3/8,
{4}5/7,5/7,2/4,2/4,
{4}5/7,2/4,7/8,1/6,
{4}2/4,3/4,5/7,5>2[2:1]/6<1[2:1],
{1},
{4}3h[1:2]/4,4,5,5,
{4}4,4,5,5,
{1}4<3[1:1],
{4},,3/4,2/5,
{4}5/6h[1:2],5,4,4,
{4}5,5,4,4,
{1}5>6[1:1],
{4},,5/6,4/7,
{4}3h[1:2]/4,4,5,5,
{4}4,5,6,5,
{1}4<3[1:1],
{4},,3/4,2/5,
{4}5/6h[1:2],5,4,4,
{4}5,4,3,4,
{1}5>6[1:1],
{4},,5/6,4/7,
{4}5,6,4/7,5/6,
{4}4,3,2/5,3/4,
{4}1,2,3/8,1/2,
{4}7/8,1/6,4/5,2b/7b,
{4}6h[2:1],5,3h[2:1],4,
{4}7h[2:1],6,2h[4:1],3<6[4:1],
{4},,1/8,1-5[4:1]/8-4[4:1],
{4},,6,5/7,
{4}3h[2:1],4,6h[2:1],5,
{4}2h[2:1],3,7h[4:1],6>3[4:1],
{4},,1/8,1-5[4:1]/8-4[4:1],
{2},4/5,
{4}3h[2:1]/4<7[4:1],,,4/5,
{4}5>2[4:1]/6h[2:1],,,4/5,
{4}1h[2:1]/2>5[4:1],,,4/5,
{4}7<4[4:1]/8h[2:1],,,4/5,
{4}3h[2:1]/4<7[4:1],,,4/5,
{4}5>2[4:1]/6h[2:1],,,4/5,
{4}3,3/4,6,5/6,
{4}3,2/4,6,5/7,
{4}1/8,2/7,3/6,4>1[4:1]/5<8[4:1],
{2},2b/7b,
{8}2/5,,4/7,,2h[4:1]/5,,1,1,
{8},7/8,,1/6,,4/5,4/5,,
{4}7/8,2/5,1/2,3-8[4:1]/4-7[4:1],
{4},,4/5,2/7,
{4}3,2/4,6,5/7p2[4:1],
{4},,1/8,3/6,
{8}4h[4:1],,5,5,,2/7,,7/8,
{8},5-2[4:1]/6-1[4:1],,,,,,,
{8}4/7,,2/5,,4/7h[4:1],,8,8,
{8},1-6[4:1]/2-5[4:1],,,,,4/7,,
{8}2/5h[4:1],,4,4,,7/8,,2/5,
{8},1/2,,4/7,,4/5,4/5,,
{4}3h[4:1],4,6h[4:1],5,
{4}2h[4:1],1,7h[4:1],8>6[1:1],
{1},
{4},,2/7,4>1[4:1]/5<8[4:1],
{4},,6,5/7,
{4}3,2/4,5/6,3/4,
{1}1b-5[2:1]/2b-5[2:1],
{8}4/5,,,,2b/7b,2b/7b,,,
{4}1/2,1/3,7/8,6/8,
{4}2/4,5/7,1/2,3/8,
{4}7/8,6/8,1/2,1/3,
{4}5/7,2/4,7/8,1/6,
{4}1/2,1/3,7/8,6/8,
{4}2/4,5/7,1/2,3/8,
{4}5/7,5/6,2/4,3>8[2:1]/4<7[2:1],
{1},
{4}1/2,4/7,7/8,2/5,
{8}1/8,,3/6,,4/5,,2b/7b,2b/7b,
{1},
{1},
{1},
E
&inote_5=
(190){1},
{8}1-6[8:1],8,7,,5-2[8:1]/6,,8,8h[8:3],
{8},6,6>3[8:1],,8,7,2/6,,
{8}8-3[8:1],1,2,,3/4-7[8:1],,1,1h[8:3],
{8},3,3<6[8:1],,1,2,3/7,,
{8}1-4[8:1],8,7,,4/5-8[8:1],,1,1h[8:3],
{8},6,6>3[8:1],,8,1,2/7,,
{16}4,5,4,5,4,,4/5,,3/6,,2/7,,1/8,,,,
{6}1b/5,5/7b,3b/5,4/6b,2b/4,4/8b,
{8}1/7,2/6,3-8[8:1]/5,,7-4[8:1],,2-6[8:1],,
{4}5-2[8:1],8>3[8:1],4-1[8:1]*-7[8:1],,
{8}2/8,3/7,4/6-1[8:1],,2-5[8:1],,7-3[8:1],,
{4}4-7[8:1],1<6[8:1],5-2[8:1]*-8[8:1],,
{8}1/7,2/6,3-8[8:1]/5,,7-4[8:1],,2-6[8:1],,
{4}5-2[8:1],8>3[8:1],4-1[8:1]*-7[8:1],,
{8}8,1/7,2/6,3/5,4>1[4:1],,1<5[8:3]*p4[8:3],,
{16},,,,,,,,,,4,5,4,5,4,5,
{4}3h[4:5],4,4,4,
{16}4,,,,4,,,,3/4,,,4/5,,,5/6,,
{4}6h[2:3],5,5,5,
{4}5,5,5>2[8:1],7,
{8}5,6,7,2,3,7,6,2,
{8}1,8,7,4,5,2pp1[4:3]/6pp5[4:3],,,
{1},
{8}1/3,,6/8,,5,4,1/3,,
{4}6h[4:5],5,5,5,
{16}5,,,,5,,,,5/6,,,4/5,,,3/4,,
{4}3h[2:3],4,4,4,
{4}4,4,4<7[8:1],2,
{8}4,3,7,6,5,2,3,7,
{8}8,1,2,3,3-8[8:1],,6,6,
{4}5/7,2/4,6/8,1/3,
{8}4,5,6h[4:1]/8p3[8:1],,,,1/2,,
{8}7/8,7/8,6,5,4,3,1/2,1/2,
{8}3,4,5,6,6-1[8:1],,3,3,
{8}2/4,,5/7,,1/2,,7/8,7/8>3[8:1],
{8},5<8[8:1],,2>5[8:1],,7,7b,,
{8}6,5,4/7,3,4,2/5,1,8,
{8}2/7,6,5,4/7,3,4,2/5,1,
{4}1-4[8:1],5-2[8:1],3-8[8:1],6-1[8:1],
{4}4-7[8:1],8-5[8:1],4-1[8:1],8,
{8}3,4,2/5,6,5,4/7,8,1,
{8}2/7,3,4,2/5,6,5,4/7,8,
{4}8-5[8:1],3-7[8:1],6-2[8:1],4-1[8:1],
{8}8,8h[4:1],,1,2/7,3/6,4/5,,
{8}1h[4:1],,2h[4:1],,3h[4:1],,4,2/5,
{8},5/6,4/7,,1-6[8:1]/2-5[8:1],,,,
{8}4/7,,2/5,2/5,,3/6,3/6,,
{4}7-4[8:1]/8-3[8:1],,2/5,4/7,
{8}8h[4:1],,7h[4:1],,6h[4:1],,5,4/7,
{8},3/4,2/5,,4-1[8:1]/5-8[8:1],,,,
{4}2-6[8:1],1-5[8:1],8-4[8:1],7-3[8:1],
{4}6-2[8:1],5-1[8:1],4-8[8:1],3-7[8:1],
{8}1-5[8:1],1,8-4[8:1],8,1-5[8:1],1,8,8,
{32}1,2,3,4,5,6,7,8,1,2,3,4,5,6,7,8,1b,,,,,,,,,,,,,,,,
{8}3-8[8:1]/7-4[8:1],,3/7,,2b/6b,,4/8,7,
{8}6,3,2,1-5[8:1]/5,,8,8,8,
{8}4,3,2,5,6,7,1/8,2/7-3[8:1],
{8},4-7[8:1],,8-4[8:1],,3,2,1>4[8:1],
{8},7,6,5,4,3,6,5<8[8:1],
{8},1,2,3,7,6,1-4[8:1]/5-8[8:1],,
{8},,3/7,3p6[8:1]/7,,5<4[8:3],,,
{8},,,2b/7b,,4/8,4/8,4/8,
{8}2-5[8:1]/6-1[8:1],,2/6,,3b/7b,,2/6,2-6[8:1]/6,
{8},5-2[8:1],,1-5[8:1],,6,7,8,
{8}5>2[8:1],,1,1<6[8:1],,3,,5<7[8:1],
{8},1>3[8:1],,8h[4:1],,1,2,3<6[8:1],
{8},8,7,1,2,6,7,8-4[8:1],
{8},1,2,8,7,3,2,1-5[8:1],
{8},8,7-3[8:1],,5<4[8:3],,1,1,
{12},,,3/6,,,2,4,3,7,5,6,
{8}3>8[4:1],,8<5[4:1],,5>2[4:1],,8,8h[8:3],
{4},2>5[4:1],5<8[4:1],8>3[4:1],
{1}3qq5[8:5],
{16}4/5,,4/5,,,,1,8,2/7,,2b/7b,,,,,,
{8}8-3[8:1],1,2,,3/4-7[8:1],,1,1h[8:3],
{8},3,3<6[8:1],,1,2,3/8,,
{16}6,5,6,,2-5[8:1],,2,,7-4[8:1],,7,,1-5[8:1],,1,,
{8}8-4[8:1],8,3,3,8,1,2/7,,
{8}1-6[8:1],8,7,,5-2[8:1]/6,,8,8h[8:3],
{8},6,6>3[8:1],,8,7,1/6,,
{16}3,4,3,4,3,,7,,8,,1,,2,,3,,
{12}5,4,5,2,4,3,7,5,6,4,5,4,
{4}6-1[8:1],2,3-8[8:1],7,
{8}5-1[8:1],,4-8[8:1],,5,,1bp4[2:3],1b<5[8:11],
{1},
{1},
{1},
{1},
E
