&title=ラブチーノ
&wholebpm=126
&artist=Junky
&des=rioN
&shortid=618
&genre=niconicoボーカロイド
&cabinet=SD
&version=maimai MURASAKi PLUS
&chartconverter=Neskol
&lv_2=4
&des_2=-
&lv_3=7
&des_3=-
&lv_4=9+
&des_4=某S氏
&lv_5=11+
&des_5=rioN
&des_6=
&inote_2=
(126){1},
{1},
{2}1,1,
{2}2,2,
{2}3,3,
{1}4h[2:1],
{2}5,5,
{2}6,6,
{2}7,7,
{2}8,8b,
{2}1,1,
{2}2,1/2,
{2}8,8,
{2}7,7/8,
{1}1h[2:1],
{1}2h[2:1],
{2}3,3,
{4}4,4,4/5,,
{1}5h[2:1],
{1}6h[2:1],
{2}7,7,
{4}8,8,1/8,,
{2}8,1,
{1}2h[2:1],
{2}1,8,
{1}7h[2:1],
{2}6,5,
{2}3/4,3/4,
{2}3,4,
{2}5/6,5b/6b,
{4}7,7,7,,
{4}8,8,8,,
{2}1/2,1/2,
{4}3,3,3,,
{4}4,4,4,,
{4}5,5,5,,
{1}4-1[4:3],
{1},
{2}8,8,
{4}7,7,7,,
{2}6,6,
{4}5,5,4/5,,
{2}4,4,
{4}3,3,3,,
{2}2,2,
{4}1,1,1/8,,
{1}1-5[4:3],
{1},
{1}8-4[4:3],
{1},
{1}3h[2:1],
{1}2b,
{4}1,1,2,2,
{4}3,3,3/4,,
{4}5,5,6,6,
{4}7,7,7/8,,
{4}1,8,1,,
{4}1/8,1/8,1/8,,
{2}7,7,
{4}8,8,8b,,
{1}7h[2:1]/8h[2:1],
{1}1h[2:1]/2h[2:1],
{4}8,8,8,,
{4}7,7,7/8,,
{4}6,6,6,,
{4}5,5,4/5,,
{1}4h[2:1],
{1}5h[2:1],
{1}4-1[4:3]/5-8[4:3],
{1},
{1},
{1},
E
&inote_3=
(126){1},
{1},
{4}3,3,2,2,
{1}1-5[4:1],
{4}6,6,7,7,
{1}8-4[4:1],
{4}3/4,2,3/4,,
{4}5/6,7,5/6,,
{4}1/8,1/8,2/7,3bp5[2:1]/6b,
{1},
{4}5,6,7h[4:1],,
{4}4,3,2h[4:1],,
{4}6,7,8h[4:1],,
{4}3,2,1h[4:1],,
{2}8h[2:1],7h[2:1],
{1}6>3[16:5],
{1}2v5[16:5],
{4}6,5,4/7,,
{2}1h[2:1],2h[2:1],
{1}3<6[16:5],
{1}7v4[16:5],
{4}3,4,2/5,,
{4}2h[2:1],8,1,,
{4}7h[2:1],1,8,,
{4}3h[2:1],1,2,,
{4}1/8,1/8,2/7,,
{4}4,5,3/6,,
{4}8,1,2/7,2v4[16:7]/7v5[16:7],
{1},
{1}4h[8:3]/5h[8:3],
{4}3,2/4,6,5/7,
{1}3>8[4:1]/4<7[4:1],
{4}7,6/8,2,1/3,
{1}7-3[4:1]/8-4[4:1],
{4}3,2/4,2h[4:1]/4h[4:1],,
{4}6,5/7,5h[4:1]/7h[4:1],,
{4}1/8,1/8,2/7,3b/6bq4[2:1],
{1},
{4}3,4,2/5,,
{4}6,5,4/7,,
{4}2,1,3/8,,
{4}7,8,1/6,,
{4}1/2,1/2,3h[4:1]/8h[4:1],,
{4}7/8,7/8,1h[4:1]/6h[4:1],,
{4}3/4,3/4,2h[4:1]/5h[4:1],,
{4}5/6,5/6,4h[4:1]/7h[4:1],,
{1}3qq8[1:1]/4pp7[1:1],
{1},
{1}1qq6[1:1]/2pp5[1:1],
{1},
{4}6h[4:1],5,3h[4:1],4,
{1}3b/6b,
{4}6,5/7,3,2/4,
{1}5-2[4:1]/6-1[4:1],
{4}2,1/3,7,6/8,
{1}1-6[4:1]/2-5[4:1],
{4}6,5/7,4h[4:1]/8h[4:1],,
{4}3,2/4,1h[4:1]/5h[4:1],,
{4}1/8,1/8,2/7,3bV14[2:1]/6bV85[2:1],
{1},
{2},4h[4:3],
{4}5h[4:1],,2/7,2/7,
{4}4,3,1h[4:1]/2h[4:1],,
{4}5,6,7h[4:1]/8h[4:1],,
{4}3,2,1h[4:1]/8h[4:1],,
{4}6,7,1h[4:1]/8h[4:1],,
{1}1>4[8:3],
{1}5<8[8:3],
{1}1pp4[4:3]/8qq5[4:3],
{1},
{1},
{1},
E
&inote_4=
(126){1},
{4}2>5[4:1]/6<1[4:1],,,2/6,
{8}3,,5,,6,6,4/7,,
{8}6,,4,,3,3,2/5,,
{8}2,,4,,6,6,5/7,,
{8}7,,5,,3,3,2/4,,
{4}1h[4:3],8,7,6,
{4}5h[4:3],4,3,2,
{1}1w5[2:1],
{4}8,1,1/8,2b/7b,
{8}1,,2/8,,3,4,3/5,,
{8}8,,1/7,,6,5,4/6,,
{4}2-5[8:1],7,7-4[8:1],2,
{4}2>5[8:1],7,7<4[8:1],2b,
{4}3,2/4,4,3/5,
{4}5,4/6,6,5/7,
{4}7h[2:1],8,2h[2:1],1,
{4}6h[2:1],8,3h[4:1],1,
{4}6,5/7,5,4/6,
{4}4,3/5,3,2/4,
{4}2h[2:1],1,7h[2:1],8,
{4}3h[2:1],1,6h[4:1],8b,
{8}5h[2:1]/7,,,4,4,,3/6,,
{8}2/4h[2:1],,,5,5,,3/6,,
{8}5/7h[2:1],,,8,8,,1/6,,
{8}2h[2:1]/4,,,1,1,,3/8,,
{8}3/4<7[4:1],,,1,1,,2/8,,
{8}5>2[4:1]/6,,,8,8,,1/7,,
{1}2pp3[2:1]/6pp7[2:1],
{16}1h[16:3],,,8,,,1/8,,,,1/8,,2b/7b,,,,
{16}7h[16:3],,,8,,,1/6,,,,4,,3/5,,,,
{16}2h[16:3],,,1,,,3/8,,,,5,,4/6,,,,
{16}7h[16:3],,,8,,,1/6,,,,4,,3/5,,,,
{16}2h[16:3],,,1,,,3/8,,,,5,,4/6,,,,
{16}3/4,,,3/4,,,2/5,,,,8,,1/7,,,,
{16}5/6,,,5/6,,,4/7,,,,1,,2/8,,,,
{1}4qq1[4:3]/8qq5[4:3],
{4},,1h[4:1],8b,
{8}7h[4:1],,8,,3,4,3,4,
{8}3h[4:1],,4,,6,5,6,5,
{8}6h[4:1],,5,,2,1,2,1,
{4}2h[4:1],1h[4:1],8h[4:1],7,
{8}5h[4:1],,6,,4,4,6,6,
{8}4h[4:1],,3,,5,5,3,3,
{4}5,2/6,4,3/7,
{4}1/2,3/8,4/7,5b/6b,
{1}6pp1[2:1],
{1}3qq8[2:1],
{1}7qq4[2:1],
{1}2pp5[2:1],
{1}4qq1[2:1]/5pp8[2:1],
{16}8h[16:3],,,1,,,1/8,,,,1/8,,2b/7b,,,,
{16}2h[16:3]/4,,,1,,,2/8,,,,8,,1/7,,,,
{16}5/7h[16:3],,,8,,,1/7,,,,1,,2/8,,,,
{16}1/3h[16:3],,,4,,,3/5,,,,5,,4/6,,,,
{16}6h[16:3]/8,,,5,,,4/6,,,,4,,3/5,,,,
{16}3h[16:3]/4,,,2h[16:3],,,1,,,,7/8,,1/6,,,,
{16}5/6h[16:3],,,7h[16:3],,,8,,,,1/2,,3/8,,,,
{1}1pp4[4:3]/5pp8[4:3],
{4},,4/5,3b/6b<3[2:1],
{4},,,4q5[2:1],
{4},,,2b/7b,
{8}5/6,,4/7,,3,4,3,4,
{4}3/4,2/5,5/6,4/7,
{8}7/8,,1/6,,2,1,2,1,
{4}1/2,3/8,7/8,1/6,
{1}1h[4:3]/8h[4:3],
{1}2h[4:3]/7h[4:3],
{1}3qq5[4:3]/6pp4[4:3],
{1},
{1},
{1},
E
&inote_5=
(126){1},
{4}3qq5[8:3]/6pp4[8:3],,,3/6,
{16}1/7,,8<5[8:1]*>3[8:1],1,,,,,,,2,,1,,8,,
{16}7h[8:1],,6>3[8:1],7,,,,,,,5,,6,,7,,
{16}2/8,,1<6[8:1]*>4[8:1],8,,,,,,,7,,8,,1,,
{16}2h[8:1],,3<6[8:1],2,,,,,,,,,1/8,,1/8,,
{8}2h[8:3],,,3,4,1,2,8,
{8}7-2[8:1],,,3-6[8:1],,,8,,
{4}8<4[4:1],4>8[4:1],8<4[4:1],4pp4[4:1]*qq4[4:1],
{16},,,,,,,,2/7,,8,1,,,3b/6b,,
{8}2>5[8:1]/7,,,,4h[16:1]/5h[16:1],5h[16:1]/6h[16:1],4h[16:1]/5h[16:1],3/4,
{4}1<6[8:1]/2,4,5p1[8:1]/6,7,
{8}7<4[8:1]/8,,2,,4/5,3/4,4/5,5/6,
{4}7/8>3[8:1],5,3/4q8[8:1],2,
{4}1p5[4:1]*q5[4:1],,,2/7h[4:1],
{4}6qq3[8:3],,,2h[4:1]/7,
{4}3pp6[8:3],,,6/8,
{4}1/3pp4[8:3]*V14[8:3],,,2/7,
{1}3h[4:3]/4>5[2:1],
{1}5<4[2:1]/6h[4:3],
{4}3/4<7[8:1],2,1,7pp2[2:1]/8,
{4},,,1/2,
{16}3h[16:3],,,5h[16:3],,,4,,4>2[8:1],,,,7,,,,
{16}6h[16:3],,,4h[16:3],,,5,,5<7[8:1],,,,2,,,,
{16}2h[16:3],,,4h[16:3],,,3,,3>1[8:1],,,,8,,,,
{16}7h[16:3],,,5h[16:3],,,6,,6<8[8:1],,,,1,,,,
{16}2h[16:3],,,4h[16:3],,,3,,3>8[8:1],,,,6,,,,
{16}7h[16:3],,,5h[16:3],,,6,,6<1[8:1],,,,3,,,,
{4}4>5[8:3],,,3/6,
{16}2/4,,,5/7,,,3b/6b,,,,8,,7,,6,,
{16}3/5,,4>1[8:1]*<7[8:1],5,,,,,,,7,,8,,1,,
{16}2h[8:1],,3<6[8:1],2,,,,,,,1,,2,,3,,
{16}4/6,,5>2[8:1]*<8[8:1],4,,,,,,,2,,1,,8,,
{16}7h[8:1],,6>3[8:1],7,,,,,,,8,,7,,6,,
{16}1h[16:3],,,4h[16:3],,,5>2[8:1],,,,6,,7,,8,,
{16}8h[16:3],,,5h[16:3],,,4>1[4:1],,,,1<6[4:1],,,,6>3[4:1],,
{8},3>8[4:1],,8,,5,4/5,,
{4}3bqq5[8:3]/6bpp4[8:3],,,3/6,
{8}2/7,,3/4,2/5,,8,1,2,
{16}3h[16:3],,,4h[16:3],,,5h[4:1],,,,1,,8,,7,,
{16}6h[16:3],,,5h[16:3],,,4h[4:1],,,,8,,1,,2,,
{16}3h[16:3],,,4h[16:3],,,5h[4:1],,,,1,,8,,7,,
{16}4h[8:1]/5h[8:1],,,,2/7,,,,2,4,3,5,4,6,5,7,
{4}4bpp4[4:1]*qq4[4:1],,,2/6,
{8}7,7,7/8,7/8,2,2,1/2,1/2,
{8}8-4[8:1],8,2-6[8:1],2,7-3[8:1],7,1b,1b,
{8}8h[8:3],,,6,6h[8:3],,,5,
{8}5h[8:3],,,3,3h[4:1],,4h[4:1],2,
{8}1h[8:3],,,3,3h[8:3],,,4,
{8}4h[8:3],,,6,6h[4:1],,5h[4:1],7,
{8}8p4[8:1],,,2,1q5[8:1],,7,,
{8}1b/8b,,,,,7,1,3,
{16}4/6,,5v8[8:1]*V31[8:1],4,,,,,,,3,,4,,5,,
{16}7h[8:1],,6<2[8:1],7,,,,,,,2,,8,,6,,
{16}3/5,,4<7[8:1]*v1[8:1],5,,,,,,,6,,5,,4,,
{16}2h[8:1],,3>7[8:1],2,,,,,,,7,,1,,3,,
{16}4/6,,5>2[8:1]*<8[8:1],4,,,,,,,6,,7,,8,,
{16}1h[16:3],,,4h[16:3],,,5<8[4:1],,,,8>3[4:1],,,,3<6[4:1],,
{8},6<1[4:1],,1,,4,4/5,,
{16}1/8,,,2/4,,,5/7,,3/6,,1,8,,,3qq5[8:7]/6pp4[8:7],,
{1},
{4},4-1[8:1]/5-8[8:1],,2b/7b,
{16}4/5,,,,2/7,,,,7,5,6,4,5,3,4,2,
{4}5bpp5[4:1]*qq5[4:1],,,3/7,
{8}1>4[8:1]/8<5[8:1],,,,3,3/4,6,5/6,
{8}4/5,4-8[8:1]/5-1[8:1],,,,,2/7,,
{1}2qq4[2:1]/5pp3[2:1],
{1}4qq6[2:1]/7pp5[2:1],
{1}3qq5[2:1]/6pp4[2:1],
{1}3/6,
{1},
{1},
{1},
E
