&title=バッド・ダンス・ホール
&wholebpm=152
&artist=ぱなまん/カラスヤサボウ
&des=LabiLabi
&shortid=622
&genre=niconicoボーカロイド
&cabinet=SD
&version=maimai MURASAKi PLUS
&chartconverter=Neskol
&lv_2=5
&des_2=-
&lv_3=7
&des_3=-
&lv_4=11+
&des_4=小鳥遊さん
&lv_5=13
&des_5=LabiLabi
&des_6=
&inote_2=
(152){1},
{1},
{1},
{1},
{1},
{2}5,5,
{2}6,6,
{2}7,7,
{2}8,8b,
{2}1,1,
{4}2,2,2,,
{2}3,3,
{1}4h[2:1],
{2}5,5,
{4}6,6,6,,
{2}7,7,
{1}8h[2:1],
{2}1,1,
{2}8,8,
{2}7,7,
{4}6,6,5/6,,
{2}4,4,
{2}3,3,
{2}2,2,
{4}1,1,1b/8b,,
{1}1-4[4:3],
{1},
{1}8-5[4:3],
{1},
{1}4-1[4:3],
{1},
{1}5-8[4:3],
{1},
{2}1,1,
{4}2,2,2,,
{2}3,3,
{4}4,4,4/5,,
{2}5,5,
{2}6,6,
{4}7,7,7,,
{4}1/8,1/8,1/8,,
{2}8,8,
{4}7,7,7,,
{2}6,6,
{4}5,5,4/5,,
{2}3/4,3/4,
{2}5/6,5/6,
{2}7/8,7/8,
{4}1/2,1/2,1/2,,
{2}8b,8,
{2}7,7,
{2}6,6,
{4}5,5,4/5,,
{4}4,4,4,,
{4}3,3,3,,
{4}2,2,1,1,
{4}7/8,7/8,7/8,,
{2}6,7,
{2}8,1,
{1}2-6[4:3],
{1},
{4}5,5,5,,
{4}6,6,6,,
{4}7,7,8,8,
{4}1/2,1/2,1/2,,
{2}3/4,3/4,
{2}5/6,5/6,
{1}7-3[4:3],
{1},
{2}4,4,
{2}3,3,
{2}2,2,
{2}1,1,
{2}8,8,
{4}7,7,7/8,,
{2}6,6,
{4}5,5,4/5,,
{1}4-1[4:3],
{1},
{1}5-8[4:3],
{1},
{1}2h[1:1]/7h[1:1],
{1},
{1},
{1},
E
&inote_3=
(152){1},
{1},
{1},
{1},
{1},
{4}4,4,3,,
{4}3,3,2,,
{4}2,2,1,,
{4}1,1b,,,
{4}7,7,8,,
{4}2,2,1,,
{4}8,8,1,1,
{4}8,1,2/7,,
{4}3,3,4,,
{4}6,6,5,,
{4}4,4,5,5,
{4}4,5,3/6,,
{2}3h[4:1]/4h[4:1],2/5,
{2}3h[4:1]/4h[4:1],2/5,
{1}2-5[8:3],
{1}1-6[8:3],
{2}5h[4:1]/6h[4:1],4/7,
{2}5h[4:1]/6h[4:1],4/7,
{4}5,4,4-1[8:3]/5-8[8:3],,
{2},1/8,
{1}8-3[8:3],
{1}7-3[8:3],
{4}6,6,5,5,
{4}4/5,4/5,3/6,,
{1}4-7[8:3],
{1}3-7[8:3],
{4}2,2,1,1,
{4}1/8,2/7,,,
{4}7h[4:1],8,2h[4:1],1,
{1}1-6[8:3]/2-5[8:3],
{4}3h[4:1],4,6h[4:1],5,
{1}5-2[8:3]/6-1[8:3],
{4}2,2,1/2,,
{4}3,3,3/4,3-8[8:3]/4-8[8:3],
{1},
{4}7/8,7/8,1/6,,
{4}2h[4:1],1,7h[4:1],8,
{1}7-4[8:3]/8-3[8:3],
{4}6h[4:1],5,3h[4:1],4,
{4}3/4,3/4,2/5,,
{4}6h[2:1],5,5,,
{4}3h[2:1],4,4,,
{4}6,5/6,3,3/4,
{4}5,4,4/5,3/6,
{2}2b/7b,1,
{4}2,1,3/8,,
{2}7,8,
{4}7,8,1/6,,
{4}2b,1/2,7,7/8,
{1}7-4[8:3]/8-3[8:3],
{4}6,5/6,3,3/4,
{1}3-8[8:3]/4-7[8:3],
{4}7,8,1/6,,
{4}6,5,4/7,5-1[8:3]/6-1[8:3],
{1},
{4}1/2,3/8,4/7,,
{4}7b,7/8,2,1/2,
{1}1-6[8:3]/2-5[8:3],
{4}3,3/4,6,5/6,
{4}5/6,5/6,4b/7b,,
{4}3h[2:1],4,4,,
{4}6h[2:1],5,5,,
{4}3,3/4,6,5/6,
{4}3/4,5/6,4/5,3/6,
{4}2b/7b,,1,1,
{4}8,8,7,,
{4}7,7,8,8,
{4}1,1,2,,
{2}7h[4:1]/8h[4:1],1/6,
{2}1h[4:1]/2h[4:1],3/8,
{2}3h[4:1]/4h[4:1],2/5,
{2}5h[4:1]/6h[4:1],4/7,
{1}7qq4[8:7]/8pp3[8:7],
{2},4/5,
{1}4>1[8:3]/5<8[8:3],
{4}2,8,1,7,
{1}1pp4[4:3]/8qq5[4:3],
{1},
{1},
{1},
E
&inote_4=
(152){1},
{1},
{1},
{1},
{1},
{4}3,2/4,6,5/7,
{4}2,1/3,7,6/8,
{4}3,2/4,6,5/7,
{4}1/8,2b/7b,,4/5,
{8}6h[4:1],,5,,3,3,2/4,,
{4}2h[4:1],1,7h[4:1],8,
{8}3h[4:1],,4,,6,6,5/7,,
{4}4-1[8:1]/5-8[8:1],,2/7,4/5,
{8}2h[4:1],,1,,7,7,6/8,,
{4}6h[4:1],5,3h[4:1],4,
{8}7h[4:1],,8,,2,2,1/3,,
{4}1-4[8:1]/8-5[8:1],,3/6,1/8,
{2}4h[4:1]/5h[4:1],2h[4:1]/7h[4:1],
{2}1-6[8:1]/2h[4:1],7h[4:1]/8-3[8:1],
{2}1h[4:1]/8h[4:1],3h[4:1]/6h[4:1],
{8}1,2/8,3/7,,8,1/7,2/6,,
{2}4h[4:1]/5h[4:1],2h[4:1]/7h[4:1],
{16}3/4,,,,5/6,,,,3/6,,,1/8,,,4h[8:3]/5h[8:3],,
{8},,,,,4-1[8:1]/5-8[8:1],,,
{8},,2b/7b,,,4/5,4/5,,
{16}2h[16:3],,,3h[16:3],,,4,,,,7,,7,,,,
{16}7h[16:3],,,6h[16:3],,,5,,,,2,,2,,,,
{4}6h[4:1],7,3h[4:1],2,
{16}6h[4:1],,,,7,,,,1/2,,,4/5,,,7/8,,
{16},,,,3/4,,,3h[16:3]/4h[16:3],,,,,5/6,,,5h[16:3]/6h[16:3],
{16},,,,1/8,,,1h[16:3]/8h[16:3],,,,,2/7,,,,
{8}1/2,,7/8,,1,1,8,8,
{4}2-5[8:1]/7-4[8:1],,,3/6,
{16}7h[16:3],,,6h[16:3],,,5,,,,1/2,,3/8,,,,
{16}2h[16:3],,,3h[16:3],,,4,,,,7/8,,1/6,,,,
{16}8h[16:3],,,7h[16:3],,,6,,,,1/2,,3/8,,,,
{16}1h[16:3],,,2h[16:3],,,3,,,,7/8,,1/6,,,,
{2}7-4[8:1]/8-3[8:1],1-6[8:1]/2-5[8:1],
{2}1-3[8:1]/8-6[8:1],4qq1[8:3]/5pp8[8:3],
{16},,,,2b/7b,,,,7h[16:3],,,6h[16:3],,,5,,
{16}2h[16:3],,,3h[16:3],,,4,,,,1/8,,2/7,,,,
{16}6h[16:3],,,7h[16:3],,,8,,,,1/2,,3/8,,,,
{16}3h[16:3],,,2h[16:3],,,1,,,,7/8,,1/6,,,,
{16}5h[16:3],,,6h[16:3],,,7,,,,1/2,,3/8,,,,
{16}4h[16:3],,,3h[16:3],,,2,,,,7b/8b,,7b/8b,,,,
{4}7/8>3[8:1],7,1<6[8:1]/2,2,
{4}7/8>3[8:1],7,1<6[8:1]/2,2,
{8}1/5,,2/6,,3/7,3/7,4/8,,
{1}1qq6[2:1]/5qq2[2:1],
{8}3b/7b,,2h[2:1],,3,3,3,,
{8}2/6,,7h[2:1],,6,6,6,,
{8}3/7,,2h[2:1],,3,3,3,,
{2}3h[4:1]/6h[4:1],4-8[8:1],
{16}6h[16:3],,,7h[16:3],,,8-4[8:1],,,,1,,1,,,,
{16}3h[16:3],,,2h[16:3],,,1-5[8:1],,,,8,,8,,,,
{16}5h[16:3],,,6h[16:3],,,7-3[8:1],,,,8,,8,,,,
{16}4h[16:3],,,3h[16:3],,,2-6[8:1],,,,1,,1,,,,
{2}3-8[8:1]/4-7[8:1],5-2[8:1]/6-1[8:1],
{2}4-2[8:1]/5-7[8:1],4qq1[8:3]/5pp8[8:3],
{16},,,,2b/7b,,,,1h[16:3],,,2h[16:3],,,3,,
{16}8h[16:3],,,7h[16:3],,,6,,,,4/5,,3/6,,,,
{16}1/7h[16:3],,,6h[16:3],,,5-1[8:1],,,,4,,4,,,,
{16}2h[16:3]/8,,,3h[16:3],,,4-8[8:1],,,,5,,5,,,,
{16}2/8h[16:3],,,7h[16:3],,,6-2[8:1],,,,8,,8,,,,
{16}1h[16:3]/7,,,2h[16:3],,,3-7[8:1],,,,1b,,1b,,,,
{4}1<6[8:1]/2,3,7/8>3[8:1],6,
{4}1<6[8:1]/2,3,7/8>3[8:1],6,
{8}4/8,,3/7,,2/6,2/6,1/5,,
{1}4pp7[2:1]/8pp3[2:1],
{8}2b/6b,,1/7h[2:1],,6,6,5,,
{8}3/7,,2h[2:1]/8,,3,3,4,,
{8}2/6,,1/7h[2:1],,8,8,1,,
{8}3/7,,2h[2:1]/8,,1h[4:1],,,4/5,
{8}4h[16:3]/5h[16:3],,,2/7,2h[16:3]/7h[16:3],,,1/2-6[8:1],
{8}1/2,,,7-3[8:1]/8,7/8,,,4/5,
{8}4h[16:3]/5h[16:3],,,2/7,2h[16:3]/7h[16:3],,,1/2-5[8:1],
{8}1/2,,,7-4[8:1]/8,7/8,,,,
{1}5w1[2:1],
{1}4w8[2:1],
{4}4/5,3/6,2/7,1/8,
{16}3h[8:1]/6h[8:1],,,4/5,,4/5,,4-1[8:1]/5-8[8:1],,,,,,,,,
{16},1/3,,,1/3,,,6/8,,,6/8,,,4,5,4,
{1}5,
{1},
{1},
{1},
E
&inote_5=
(152){1},
{16}8,,,,7,,,,6h[16:3],,,5h[16:3],,,4h[8:3],,
{16},,3,,3,,,,2h[16:3],,,3h[16:3],,,4h[8:3],,
{16},,5,,5,,,,7h[16:3],,,6h[16:3],,,5h[8:3],,
{16},,6,,6,,,,4h[16:3],,,3h[16:3],,,2,,
{4}4-8[8:1]/8,7,2-6[8:1]/6,5,
{4}4/8-4[8:1],3,2/6-2[8:1],1,
{16}4-8[8:1]/8,,,,7,,,,7,7,,4/6,,3/5,,2/4,
{4}2/4,1bpp4[4:1]/8bqq5[4:1],,,
{16}3,,4,,2/5,,6,,4/8,4/8,,3/7,,2/6,,1/5,
{16},,1,,2,,4/5-8[8:1],,3/6,,,4-1[8:1],,,5,,
{8},6,5/7,8,1/3,2,3/5,4h[8:3],
{16},,5,,6,,7,,7-4[8:1]/8-4[8:1],7/8,,,,,,,
{16}6,,5,,4/7,,3,,1/5,1/5,,2/6,,3/7,,4/8,
{16},,8,,7,,4v1[8:1]/5,,3/6,,,5v8[8:1],,,4,,
{8},3,2/4,1,6/8,7,4/6,5h[8:5],
{8},4,3,2,1,8,5b/7b,2h[16:5],
{8}8-4[8:1],,,2h[16:5],7-3[8:1],,,2,
{8}5/7,3,2/4,1h[16:5],7-4[8:1],,,2h[2:1],
{16}8,,8,,7,,7,,4/5,,,3/6,,,2h[4:1]/7h[4:1],,
{8},,4/8,4/8,3-6[8:1]/6,,,7h[16:5],
{8}1-5[8:1],,,7h[16:5],2-6[8:1],,,7,
{16}2/4,,6,,5/7,,3,,1/8,,,4qq1[16:7]/5pp8[16:7],,,,,
{8},,,,,3/6,2/7,1/8,
{16}3,4,5,6,2b/7b,,,,,,3/8,,,,3/8,,
{16}7h[16:3],,,3h[16:7],,,4h[4:1],,,,,,2/5,,,,
{16}2h[16:3],,,6h[16:7],,,5h[4:1],,,,,,4/7,,,,
{8}5,5h[4:1],7,7h[4:1],1,1h[4:1],3,3h[4:1],
{16}5,,5h[4:1],,7,,7,,6/8,,,1/3,,,2/7,,
{16}4/6,,4/6,,3-7[8:1],3,,5,,,5,,6-2[8:1],6,,3,
{16},,3,,4-8[8:1],4,,7,,,6,,7,,1/8,,
{16}4h[16:3],,,6h[16:3],,,8,,1/2,,3/4,,5/6,,7/8,,
{16}6,5,4,3,2b/7b,,,,5-2[8:1]/6-1[8:1],,,,5/6,,,,
{16}8,,,8-3[8:1],,,4-1[8:1],,,,8,,7,,6,,
{16}1,,,1-6[8:1],,,5-8[8:1],,,,3,,2,,1,,
{16}6,,,6-1[8:1],,,2-7[8:1],,,,4,,5,,6,,
{16}2,,,2-5[8:1],,,6-3[8:1],,,,8,,1,,2,,
{16}1/7,,,5/7,,,2/7,,4/6,,,4/8,,,2/4,,
{16}1/3,,,3/7,,,3/5,,1/6,,2,,3/6-1[8:1],,4,,
{16}5-2[8:1]/6,,,,5b,,6,,2/7,,,3/5,,,4/6,,
{16}3/5h[16:3],,,2h[16:3],,,8h[4:1],,,,2,,1/6,,,,
{16}3,,,3<7[8:1],,,8p4[8:1],,,,2,,1,,8,,
{16}6,,,6>2[8:1],,,1q5[8:1],,,,7,,8,,1,,
{16}2,,,2>6[8:1],,,7q3[8:1],,,,1,,8,,7,,
{16}5,,,5s1[16:3],,,,,,,3b,,7b,,,,
{4}2/7-3[8:1],7/8-4[8:1],1-5[8:1]/8,1/2-6[8:1],
{4}1-5[8:1]/2,1/8-4[8:1],7-3[8:1]/8,1/7,
{8}4,3/5,6,5/7,2,1/4,7,5/6,
{16}3/7,2/6,1/5,4/8,,1/5,,2/6,,3/5,,1/8,1-5[8:1]/8-4[8:1],,2/7,,
{16}1b/8b,,,,3/8,,7,,1/5,1/5,,2/6,,3/7,,4/8,
{16},,4,,3,,1/8v5[8:1],,2/7,,,1v4[8:1],,,8,,
{8},7,6/8,5,2/4,3,2/8,1h[2:1],
{8},8,7,6,3-8[8:1]/4-7[8:1],,3b/4b,,
{16}2-6[16:1],,,5<8[8:1],,,1-4[8:1],,,,6,,7,,8,,
{16}6-2[16:1],,,1>4[8:1],,,5-8[8:1],,,,3,,2,,1,,
{16}1-6[16:1],,,7>2[8:1],,,3-6[8:1],,,,8,,7,,6,,
{16}5-2[16:1],,,3<6[8:1],,,7-2[8:1],,,,4,,3,,2,,
{16}7>3[8:1],,,4h[16:3],,,,,2<6[8:1],,,5h[16:3],,,,,
{16}8<4[8:1],,,2h[16:3],,,,,8,,7,,3-8[8:1]/6,,5,,
{16}3/4-7[8:1],,,,4b,,3,,2/7,,,5/6,,,2/4,,
{16}3h[16:3]/5,,,7h[16:3],,,1h[4:1],,,,7,,3/8,,,,
{16}3-8[16:1],,,6p1[8:1],,,2>5[8:1],,,,6,,7,,8,,
{16}6-1[16:1],,,3q8[8:1],,,7<4[8:1],,,,1,,2,,3,,
{16}2-5[16:1],,,7q4[8:1],,,3>8[8:1],,,,7,,6,,5,,
{16}7-4[16:1],,,2p5[8:1],,,6<1[8:1],,,,2b,,2b,,,,
{4}1/8-3[8:1],2-5[8:1]/8,2/7-4[8:1],1-6[8:1]/7,
{4}1/8-5[8:1],4-1[8:1]/8,4/6-2[8:1],2/6,
{8}5,4/6,3,2/4,7,5/8,2,3/4,
{16}2/6,3/7,4/8,1/5,,4/8,,3/7,,4/6,,1/8,1>7[2:3]/8,,2/7,,
{4}1b/8b,8,1,2,
{4}3,4,5,6/8,
{8}3,3/4,6,5/6,2,1/2,7,7/8,
{8}5,3/4,2,1/8,4/5,3/6,2/7,1v4[8:1]/7v4[8:1],
{8}1/7,,,4>1[8:1]*<7[8:1],4,,,1-5[8:1]/7-3[8:1],
{8}1/7,,,4/5,4/5,1b/7b,1b/7b,2v5[8:1]/8v5[8:1],
{8}2/8,,,5>2[8:1]*<8[8:1],5,,,1-5[8:1]/7-3[8:1],
{8}1/7,,,3-7[8:1]/5-1[8:1],3/5,,,,
{4}3/5,4/6,1/3,6/8,
{8}1-5[8:1],1,2-6[8:1],2,3-7[8:1],3,4-8[8:1],4,
{8}5-1[8:1],5,6-2[8:1],6,7-3[8:1],7,8,8,
{16}1/7,1/7,,3/4,,5/6,,1/8,,2/6,2/6,,1/8,,2/7,,
{16}3,2/4,,6,5/7,,2,1/3,,7,6/8,,1qq7[16:3]/5qq3[16:3],2/6,3/7,4/8,
{1},
{1},
{1},
E
