&title=デスパレイト
&wholebpm=145
&artist=owl*tree
&des=Jack
&shortid=666
&genre=maimai
&cabinet=SD
&version=maimai MURASAKi PLUS
&chartconverter=Neskol
&lv_2=5
&des_2=-
&lv_3=8+
&des_3=-
&lv_4=11+
&des_4=ぴちネコ
&lv_5=13+
&des_5=Jack
&des_6=
&inote_2=
(145){1},
{1},
{1},
{1},
{1},
{1},
{2}5,5,
{2}6,6,
{2}7,7,
{1}8h[2:1],
{2}1,1,
{4}2,2,2,,
{2}3,3,
{4}4,4,4/5,,
{2}5,5,
{4}6,6,6,,
{2}7,7,
{4}8,8,1b/8b,,
{1}8h[2:1],
{4}8,7,8,,
{1}1h[2:1],
{4}1,2,1b,,
{2}8,1/8,
{4}7,7,7/8,,
{4}6,6,5,5,
{4}4,5,4,,
{2}4,4/5,
{4}3,3,3/4,,
{4}2,2,1,1,
{4}8,1,8b,,
{4}8,8,1,1,
{4}2,2,1/8,,
{4}1,1,8,8,
{4}7,7,1/8,,
{4}1,1,2,2,
{4}3,3,4/5,,
{4}5,5,6,6,
{4}7/8,7/8,7b/8b,,
{4}1,1,8,8,
{4}2/7,2/7,2/7,,
{1}1-4[4:3]/8-5[4:3],
{1},
{2}8,8,
{2}7,7,
{4}6,6,6,,
{4}5,5,5,,
{4}4,4,3,3,
{1}3h[2:1]/4h[2:1],
{1}2-5[4:3],
{1},
{1}7-4[4:3],
{1},
{1}1-5[4:3],
{1},
{1}8-4[4:3],
{1},
{1}1b,
{2}1/2,1/8,
{2}7/8,1/8,
{2}2/8,1/7,
{4}8,1,8,,
{4}8,8,7,7,
{4}6,6,4/5,,
{4}3,3,2,2,
{4}1,1,2b/8b,,
{4}1,1,8,8,
{4}2/7,2/7,2/7,,
{1}1-4[4:3],
{1},
{1}8-5[4:3],
{1},
{4}3,3,2,2,
{1}1-5[4:3],
{1},
{1},
{1},
E
&inote_3=
(145){1},
{1},
{1},
{1},
{1},
{2},1h[4:1]/8h[4:1],
{1}1pp6[4:5],
{1},
{1}8qq3[4:5],
{1},
{4}3,4,5,6,
{4}7,7/8,7/8,,
{4}7,6,5,4,
{4}3,3/4,5/6,,
{4}6,5,4,3,
{4}2,1/2,1/2,,
{1}7<4[2:1]/8>3[2:1],
{4},3/4,3/4,2b/5b,
{4}3h[4:1],4,6h[4:1],5,
{4}3h[4:1],4,4/5,,
{4}6h[4:1],5,3h[4:1],4,
{4}6h[4:1],5,4b/5b,3b/6b,
{4}6,5,4,3,
{4}2,1/2,3/8,,
{4}2,3,4,5,
{4}5/6,3/4,3/6,,
{4}3,4,5,6,
{4}7,7/8,1/6,,
{1}1<6[2:1]/2>5[2:1],
{4},4/5,4/5,3b/6b,
{4}5/6h[4:1],2,3h[4:1]/4,7,
{4}5/6h[4:1],2,1/3,,
{4}3h[4:1]/4,7,5/6h[4:1],2,
{4}3h[4:1]/4,7,6/8,,
{4}7/8,7/8,1/6,,
{4}1/2,1/2,3/8,,
{4}2,1/2,7,7<4[2:1]/8p3[2:1],
{1},
{4}3h[4:1],4,6h[4:1],5,
{4}3/4,5/6,2b/7b,,
{1}1-6[2:1]/2-5[2:1],
{4}7,7,8,8,
{1}1-6[2:1]/2-5[2:1],
{4}7,8,1/6,,
{1}7-4[2:1]/8-3[2:1],
{4}2,2,1,1,
{1}7-4[2:1]/8-3[2:1],
{4}2,1,3/8,,
{2}2h[2:1],3h[2:1],
{2}4,4/5,
{2}5h[2:1],6h[2:1],
{2}7,1/8,
{2}1h[2:1],8h[2:1],
{2}7h[2:1],6h[2:1],
{4}5,4,3,2,
{4}1h[4:1],8h[4:1],1h[4:1],8h[4:1],
{1},
{2}1b/8b,1b/8b,
{1}1b-4[8:3]/8b-5[8:3],
{4}3h[4:1]/4,8,5/6h[4:1],1,
{4}3h[4:1]/4,8,1/7,,
{4}2,1/3,4/8,,
{4}7,6/8,1/5,,
{4}7/8,7/8,1/2,1q6[2:1]/2>5[2:1],
{1},
{4}7h[4:1],5,2h[4:1],4,
{4}5/7,2/4,1b/8b,,
{4}2h[4:1],1,7h[4:1],8z4[4:3],
{1},
{4}6h[4:1],5,3h[4:1],4,
{4}6h[4:1],5,4/7,4/7,
{8}7/8,,1/2,,1/8,,1/8,1pp4[1:1]/8qq5[1:1],
{1},
{1},
{1},
{1},
E
&inote_4=
(145){1},
{1},
{1},
{1},
{1},
{8},,,,1h[8:1],8h[8:1],1,1,
{8}1-5[32:3]/8,,,,6,7,8,1h[4:1],
{8},8,7,6,5-1[32:3],,,,
{8}1/8-4[32:3],,,,3,2,1,8h[4:1],
{8},1,2,3,4-8[32:3],,,,
{4}7/8,5/7,3/4,1/3,
{8}7,8,1/6,,2,1,3/8,,
{4}5/6,6/8,1/2,2/4,
{8}5/6,5/6,5q3[32:9]/6<2[32:9],,,,,,
{4}4/7,3/5,3/8,1/7,
{8}6,5,4/7,,3,4,2/5,2/5,
{8},1/8,1p5[32:3]/8<6[32:3],,,,4/5,4>2[32:3]/5p1[32:3],
{8},,,1/8,1-4[8:1]/8-5[8:1],,,,
{8}2/7,2/7,,5/6h[2:3],,7,,4,
{8},8,,3,,1,,2h[8:13],
{8},1,,3,,8,,4,
{8},7,,5,5-1[8:1],,,,
{4}3/8h[4:1],7,1h[4:1]/6,2,
{8}3/5,2,1/3,,4/6,7,6/8,,
{4}4h[4:1]/8,3,1/5h[4:1],6,
{8}3/4,3/4,3>7[32:9]/4p6[32:9],,,,,,
{4}1/5h[4:1],6,4h[4:1]/8,3,
{8}6/8,5,4/6,,1/3,4,3/5,3/5,
{8},1/2,1<7[32:3]/2p6[32:3],,,,5/6,5>3[32:3]/6p2[32:3],
{4},,,8bw4[8:1],
{8},,2/6,3/7,4/8,,1/7,1/7-4[8:1],
{8},3>7[4:1],,7,,5,5,,
{8}4/6,,3/7,2/6,1/5,,2/8,2-5[8:1]/8,
{8},6<2[4:1],,2,,4,4,,
{8}6,5,4,3-8[8:1],,6-1[8:1],,4-8[8:1],
{8},5,6,7p3[16:3]*q3[16:3],,,,,
{8}1/5,,2,1,8,7-4[8:1],,2>6[16:3],
{8},8,8,,1/8,,5/6,,
{4}3-8[8:1]/4,6-1[8:1],2-5[8:1],7-4[8:1],
{16}1-5[8:1],,,,8,,,,2b/3,,,6/7b,,,4bqq1[8:5]/5bpp8[8:5],,
{1},
{16}1>4[8:3]/8<5[8:3],,,,,,,,,,,,,,1,8,
{6}1h[6:1],2h[6:1],3h[6:1],8h[6:1],7h[6:1],6h[6:1],
{2}2>5[16:3],6<1[16:3],
{8}3,3,2/4,,6,6,5/7,,
{16}4,5,4,5,3,6,3,6,2,7,2,7,1,8,1,8,
{16}1-5[8:1],,,,,,,,7,8,7,,2,1,2,,
{1}1p8[2:1]/8<1[2:1],
{2}6<8[8:1],5q1[16:3],
{1}4>5[2:1],
{2}3>1[8:1],4p8[16:3],
{1}5<4[2:1],
{2}4h[4:1]/5h[4:1],3h[4:1]/6h[4:1],
{2}2h[4:1]/7h[4:1],1h[4:1]/8h[4:1],
{4}4h[8:1]/5h[8:1],5h[8:1]/7h[8:1],6h[8:1]/8h[8:1],1h[8:1]/7h[8:1],
{4}2h[8:1]/8h[8:1],1h[8:1]/3h[8:1],2h[8:1]/4h[8:1],4>5[2:1]/5<4[2:1],
{1},
{2}2b-4[8:1]/5b-1[8:1],4b-8[8:1]/7b-5[8:1],
{1}1bpp4[2:1]/5bpp8[2:1],
{8}3/7,,2/6,3/7,4/8,,1/7,1/7-4[8:1],
{8},3>7[4:1],,7,,5,5,,
{8}3,4,5,6-1[8:1],,3-8[8:1],,5-1[8:1],
{8},4,3,2p6[16:3]*q6[16:3],,,,,
{8}4/8,,7,8,1,2-5[8:1],,7<3[16:3],
{8},1,1,,2/8,,4/5,,
{4}1/7-4[8:1],2-5[8:1],6-1[8:1],3-8[8:1],
{16}5-1[8:1],,,,4,,,,6/7b,,,2b/3,,,1b-5[8:1]/8b-4[8:1],,
{2},2h[2:1]/7h[2:1],
{16},,1,8,1,8,1,8,1-5[8:1],8,1,8,,,,,
{16}6h[4:1],,,,7,,8,,1/2,,3,4,3,,1/2,,
{16}7,8,7,,5q4[8:3]/6<3[8:3],,5/6,,,,,,,,,,
{8}5,,2/7,,3/4,5/6,1/8,2b/7b,
{8},4b/5b<4[4:5],,,,,,,
{8},,,,,2z6[8:1],,,
{1},
{1},
{1},
E
&inote_5=
(145){1},
{8},,,,,,,4/5,
{8}4/5h[4:3],,,,2,3,4,4h[8:7]/5,
{8},,,,7,6,5h[4:1],,
{8}4h[4:3],,,,7,6,5,4/5h[8:5],
{16},,,,,,,,4,5,4,5,3/6,,3/6,,
{8}4h[4:3]/5h[4:1],,,,7,6,5,4h[8:3]/5h[8:7],
{8},,,,2,3,4h[2:1],,
{8}5h[4:3],,,,2,3,4,4h[8:3]/5h[8:3],
{16},,,,,,,,4,5,4,5,,3/6,3/6,,
{8}2>5[8:1],1,8,7,6>3[8:1],7,8,1,
{8}2-5[8:1],2,1-6[8:1],1,3,4,5,3/6,
{8}7<4[8:1],8,1,2,3<6[8:1],2,1,8,
{8}7,8,1qq4[8:3]/6pp3[8:3],,,,,,
{8}2<7[8:1],6,5,4,3<6[8:1],7,8,1,
{8}2/8,3/7,4-8[8:1]/6,,2/4,1-5[8:1],2/8,1b,
{8},4/8,1<6[8:1]/5>2[8:1],,1/5,,1/5,4<7[8:1]/8>3[8:1],
{8},4/8,,4/8,3<6[8:1]/7>2[8:1],2/6,3b/7b,,
{8}3/7,3/7-4[8:1],,2-5[8:1]/7,,2/6v1[8:1],,3v8[8:1]/6,
{8},3/7v2[8:1],,4v1[8:1]/7,,4/8v5[8:1],,3p6[8:1]/8,
{8},3/7<4[8:1],,2>5[8:1]/7,,2/6q2[8:1],,3p7[8:1]/6,
{8},3/5q4[16:3],,4>5[4:1]/5,,,,,
{8}7<4[8:1],8,1,2,3<6[8:1],2,1,8,
{8}7-4[8:1],7,8-3[8:1],8,6,5,4,3/6,
{8}2>5[8:1],1,8,7,6>3[8:1],7,8,1,
{8}2,1,3qq6[8:3]/8pp5[8:3],,,,,,
{8}7>2[8:1],3,4,5,6>3[8:1],2,1,8,
{8}1/7,2/6,3/5-1[8:1],,5/7,8-4[8:1],1/7,8b,
{8},1/5,4<7[8:1]/8>3[8:1],,4/8,,4/8,1p3[16:3]/5p7[16:3],
{8},1/5,,,1-5[8:1],,1bV75[8:1]/5bV31[8:1],,
{8},,7/8,5/6,3h[16:3]/4h[16:3],,3/4,7V13[8:1]/8>4[8:1],
{8},7V53[8:1]/8<4[8:1],,7/8,,1/2,3>8[8:1]/8,7,
{8}6h[4:1],,5,3/4,1h[16:3]/8h[16:3],,1/8,4q1[8:1]/5<8[8:1],
{16},,4>5[8:3]/5p4[8:3],,,,,,,,,,,,3,4,
{8}3,2/6,3/7,4-2[12:1]/8-6[12:1],,4-1[8:1]/8-5[8:1],,4-8[8:1],
{8},2,3,4qq1[8:3]/8qq5[8:3],,4/8,,,
{8},,3/6,5/8,3/6,1-5[8:1]/4-8[8:1],,1/4,
{24},,,2/6,,,4/8,,,,,,6>3[8:1],,,,,,2,1,8,7,,,
{8}4/5,1/3,6/7,2/4,1/8,5/7,2/3,6/8,
{48}1,,2,,3,,4,,5,,6,,7,,8,,1,,2,,3,,4,,5b-1[16:1],,,,,,,,,1b-5[16:1],,,,,,,,,8b<1[8:13],,,,,,
{4},1,8,7,
{16}6,,,,5,,,,4,,,,3,,8,1,
{6}8h[6:1],1h[6:1],2h[6:1],3h[6:1],4h[6:1],5h[6:1],
{16}6>3[8:1],,,,,,,,3/6,,1,8,2,7,3,6,
{16}4,5,4,5,2h[8:1],,1,2,5,4,5,4,7h[8:1],,8,7,
{48}1,,2,,3,,4/5,,,,,,8,,7,,6,,4/5,,,,,,2,,,2,,,8,,,8,,,1,,,1,,,7,,,7,,,
{48}1h[4:1],,,,,,,,,,,,8,,,1,,,8,,,1,,,8,,7,,6,,1,,2,,3,,7,,6,,5,,2,,3,,4,,
{1}5<4[8:5],
{2}2<7[2:1],3>6[8:5],
{1}4>5[4:3],
{2}7>2[2:1],6<3[8:5],
{1}5<4[4:3],
{8}5h[2:1],4,4,4,3h[2:1],4,4,4,
{8}6h[2:1],4,4,4,2h[2:1],4,4,4,
{8}7h[4:1],4,1h[4:1],4,8h[4:1],5,1h[4:1],3,
{8}8h[4:1],6,1h[4:1],2,8h[4:1],7,1,3h[8:5]/6h[8:5],
{4},,,3/6<3[8:1],
{24},,,,,,3>6[8:1]/6,,,,,,,,,,,,8-4[16:1],1/7,2/6,3/5,,,
{4}6-2[16:1]/8b,3-7[16:1]/6b,1-5[16:1]/3b,1b/6<1[8:1],
{8}3h[4:1],,4,5/6,1h[16:3]/8h[16:3],,1/8,4>1[8:1]/5p8[8:1],
{16},,4q5[8:3]/5<4[8:3],,,,,,,,,,,,6,5,
{8}6,7/8,3/4,1<5[8:1]/2V86[8:1],,1>5[8:1]/2V46[8:1],,1/2,
{8},3/7,2/6,1pp4[8:3]/5pp8[8:3],,1/5,,,
{8},,3/6,1/4,3/6,5-1[8:1]/8-4[8:1],,5/8,
{24},,,3/7,,,1/5,,,,,,3<6[8:1],,,,,,7,8,1,2,,,
{8}4/5,6/8,2/3,5/7,1/8,2/4,6/7,1/3,
{48}8,,7,,6,,5,,4,,3,,2,,1,,8,,7,,6,,5,,4b-8[16:1],,,,,,,,,8b-4[16:1],,,,,,,,,1b,,,,,,
{8},,3pp2[8:3]/7pp6[8:3],2/6,,,,,
{16},,2,2,5,5,4,4,7,7,1,1,8,,,,
{16}2p4[8:1]/7q5[8:1],,,,,,,,4/5,,3,3,2/4,,3/5,,
{16}6,6,5/7,,6<3[4:1],,4/5,,3>6[4:1],,,,,,,,
{8}4h[4:1],,5,5/7,4,2/4,3,3pp6[8:11]/7pp2[8:11],
{1},
{8},,,,,2v3[16:1]/6v7[16:1],,,
{1},
{1},
{1},
E
