&title=Star☆Glitter
&artist=セブンスシスターズ
&wholebpm=171
&demo_seek=76.7
&demo_len=32.7
&lv_1=2
&lv_2=4
&lv_3=7
&lv_4=9
&lv_5=11
&des_4=Jack
&des_5=ロシェ@ペンギン
&inote_1=(171.0){1},,,,,
{1}1,
{1}2,
{1}3,
{1}4,
{1}5,
{1}6,
{1}7,
{1}8,
{1}7h[1:1],,
{1}6h[1:1],,
{1}5h[1:1],,
{1}4h[1:1],,
{1}3h[1:1],,
{1}2h[1:1],,
{1}1h[1:1],,
{1}8,
{1}8b,
{1}1,
{1}2,
{1}3,
{1}4,
{1}5,
{1}6,
{1}7,
{1}8,
{1}8,
{1}7,
{1}6,
{1}5,
{1}4,
{1}3,
{1}2,
{1}1,
{1}1-4[4:3],,
{1}5-8[4:3],,
{1}7-3[4:3],,
{1}2-6[4:3],,
{1}7,
{1}1/8,
{2}1,1,
{1}1,
{2}2,2,
{1}2,
{2}3,3,
{1}3,
{2}4,4,
{1}4,
{2}5,5,
{1}5,
{2}6,6,
{1}6,
{2}7,7,
{1}7,
{2}8,8,
{1}8,
{1}1h[1:1],,
{1}8h[1:1],,
{1}8,
{1}1b,
{1}8,
{1}7,
{1}6,
{1}5,
{1}4,
{1}3,
{1}2,
{1}1,
{1}8-4[4:3],,
E
&inote_2=(171.0){1},,,,,
{2}4,4,
{2}3,3,
{2}2,2,
{1}1/8,
{2}8,8,
{2}7,7,
{2}6,6,
{1}4b/5b,
{1}4h[1:1],,
{1}5h[1:1],,
{1}3h[1:1]/4h[1:1],,
{1}5h[1:1]/6h[1:1],,
{2}4,4,
{1}3/4,
{2}5,5,
{1}5/6,
{2}4,4,
{2}3,3,
{1}2h[2:1],
{4}1,1,1b,,
{2}8,8,
{2}7,7,
{4}6,6,6,,
{1}5h[2:1],
{2}4,4,
{2}3,3,
{4}2,2,2,,
{1}1h[2:1],
{4}8,8,8,,
{1}7/8,
{4}1,1,1,,
{1}1/2,
{2}1,1,
{2}2,2,
{1}3h[1:1],
{2},4/5,
{1}4-1[4:3],,
{1}5-8[4:3],,
{2}4,4,
{2}3,3,
{2}2,2,
{2}1,1,
{1}1h[2:1]/8h[2:1],
{4}2/7,2/7,2b/7b,,
{4}8,8,8,,
{4}7,7,7,,
{4}6,6,6,,
{4}5,5,5,,
{1}3h[2:1]/4h[2:1],
{1}5h[2:1]/6h[2:1],
{2}4/5,4/5,
{4}4,5,4b,,
{4}4,4,4,,
{4}3,3,3,,
{4}2,2,2,,
{4}1,1,1,,
{1}7h[2:1]/8h[2:1],
{1}1h[2:1]/2h[2:1],
{2}1/8,1/8,
{2}2/7,2/7,
{1}1-5[4:3],,
{1}8-4[4:3],,
{2}5,5,
{2}4,4,
{1}4-1[4:3]/5-8[4:3],,
{2}2,2,
{2}3,3,
{2}4,4,
{2}5,5,
{2}6,6,
{2}7,7,
{1}1b/8b,
E
&inote_3=(171.0){1},
{2}3,2,
{1}1h[2:1],
{2}6,7,
{1}8h[2:1],
{4}1b,1,2,2,
{4}3,4,5,,
{4}8,8,7,7,
{4}6,5,4,,
{4}5,5,6,6,
{4}7,8,1,,
{4}4,4,3,3,
{4}2,1/8,2/7,,
{2}2h[2:1],1,
{2}7h[2:1],8,
{2}2h[2:1],3,
{2}7h[2:1],6,
{2}3h[2:1],4,
{2}6h[2:1],5,
{2}4,3/4,
{2}5,5/6,
{4}3h[2:1],4,4,,
{4}6h[2:1],5,5,,
{4}2h[2:1],3,3,,
{4}7h[2:1],6,6,,
{4}2h[2:1],1,1,,
{4}7h[2:1],8,8,,
{4}1/8,1/8,2/7,,
{1}3h[2:1]/6h[2:1],
{4}2,1,1/2,,
{4}7,8,7/8,,
{4}3,4,3/4,,
{4}6,5,5/6,,
{4}3,4,2/5,,
{4}6,5,4/7,,
{4}3,4,5,6,
{4}5,4,3,,
{4}6,5,5/6,,
{4}3,4,3/4,,
{4}7,8,7/8,,
{4}2,1,1/2,,
{4}7,8,1/6,,
{4}2,1,3/8,,
{4}7,8,1,2,
{2}1h[4:1]/8h[4:1],2/7,
{1}2-5[8:3],
{1}6-1[8:3],
{1}2pp6[8:9],,
{1}7-4[8:3],
{1}3-8[8:3],
{1}7qq3[8:9],,
{2}1/2,7/8,
{4}1/8,1/8,2/7,,
{4}3b,3/4,2/5,,
{4}6,5/6,4/7,,
{4}3,3/4,6,5/6,
{4}4/5,3/6,2/7,,
{1}1-6[16:7]/2-5[16:7],
{4}4/5,4/5,3/6,,
{1}3-8[16:7]/4-7[16:7],
{4}1/8,1/8,2/7,,
{4}7b,7/8,1/6,,
{4}2,1/2,3/8,,
{4}7,7/8,2,1/2,
{4}1/8,2/7,3/6,,
{1}5^2[16:7]/6^1[16:7],
{4}1/8,1/8,2/7,,
{1}7^4[16:7]/8^3[16:7],
{4}4/5,4/5,3/6,,
{4}6h[2:1],5,5,,
{4}3h[2:1],4,4,,
{4}7h[2:1],8,8,,
{4}2h[2:1],1,1,,
{4}7,7/8,2,1/2,
{4}1/8,2/7,2/7,,
{1}1^4[16:9]/8^5[16:9],
{2},3/6,
{4}6,5/6,3,3/4,
{4}4/5,3/6,3/6,,
{1}4^1[16:9]/5^8[16:9],
{2},2/7,
{4}2,1/2,7,7/8,
{4}1/8,2/7,3/6,,
{8}5b/4b>5[8:13],,,,,,,{1},,
E
&inote_4=(171.0){1},3^6[2:1],
{1}7p3[2:1],
{1}2^7[2:1],,
{4}7,6,5,3/4,
{4}2,3,4,5/6,
{4}7,6,5,4/7,
{4}2,3,4,2/5,
{4}6,7,8,1/2,
{4}3,2,1,7qq4[4:3]/8pp3[4:3],{1},
{4}2/5,4/7,1/8,,
{1}3h[1:1],
{1}4h[1:1],
{1}5h[1:1],
{4}6h[2:1],,5,4,
{4}3h[2:1],,4,5,
{4}6h[2:1],,5,4,
{1}3p6[2:1],
{4}1h[4:1]/8h[4:1],,2/7,3/6,
{4}4/5,6,7,6,
{4}4/5,3,2,3,
{4}5/6,7,6,5,
{4}3/4,2,3,4,
{4}5/6,7,8,1/2,
{4}3/4,2,1,8/7p2[2:1],
{4},,,2/4,
{4}5/7,1^3[8:1]/8^6[8:1],,1b/8b,
{8}3,,3/4,,2,2,1,,
{8}6,,5/6,,7,7,8,,
{8}3,,3/4,,2,2,1,,
{4}7/8,4/5,1/2,3/8,
{8}6,,5/6,,7,7,8,,
{8}3,,3/4,,2,2,1,,
{8}6,,5/6,,7,7,8,,
{4}1/2,4/5,7/8,1/6,
{2}3h[4:1]/4h[4:1],5h[4:1]/6h[4:1],
{4}3/4,5/6,7/8,1/2,
{2}3-8[8:1],7-4[8:1],
{4}3-8[8:1],,7,1/6,
{4}2,1,2,3/8,
{4}7,6,5,4q5[2:1],
{8},,,,,,5,5,
{8},4,4h[2:1],,,,5,,
{8}1h[8:3],,,2h[8:3],,,3^6[4:1],,
{4},,6,7,
{8}8h[8:3],,,7h[8:3],,,6^3[4:1],,
{4},,3,2,
{4}1/2,3/8,4h[4:1]/7h[4:1],,
{4}7/8,1/6,2h[4:1]/5h[4:1],,
{4}2,1,2,3/8,
{4}7,8,7,1/6,
{8}3/4,,5/6,,1/8,,2/7,2/7,
{8},4/5,4-1[8:1]/5-8[8:1],,,,2b/7b,,
{8}5/3-8[8:1],,6,,7,7,8,,
{8}4/6-1[8:1],,3,,2,2,1,,
{8}5/3-8[8:1],,6,,7,7,8,,
{4}5/6,7/8,1/2,3>6[2:1]/4p5[2:1],
{4},,,4^1[4:1]/5^8[4:1],
{8},,,,4/5,4/5,4/5,,
{8}1/6,,3/8,,7/8,,1/2,1/2,
{8},5/6,,3/8,3/8-4[8:1],,1b,,
{8}3^8[8:1],,5,,7,7,8,,
{8}6^1[8:1],,4,,2,2,1,,
{8}3^8[8:1],,5,,7,7,8,,
{4}3/4,1/2,7/8,5q4[2:1]/6<3[2:1],
{4},,,4^1[4:1]/5^8[4:1],
{4},,1/8,2/7,
{8}6/3h[2:1],,,4,4,,4/5,,
{8}3/6h[2:1],,,5,5,,4/5,,
{2}2h[2:1],4h[2:1],
{4}5,6,7,1/8,
{2}7h[2:1],5h[2:1],
{4}4,3,2,1/8,
{8}4/2h[2:1],,,,6h[8:3],,,8,
{8},1/3,,4/5,4/5,,
{4}4bqq1[4:7]/5bpp8[4:7],{1},,
{8}5/6,,4/7,,2,2,1,,
{8}3/4,,2/5,,7,7,8,,
{8}4/5,,3/6,,2,2,1,,
{4}7/8,5/6,3/4,1qq6[4:3]/2pp5[4:3],{1},
{4}1/8,2/7,3/6,4/5,
{1}2h[1:2]/7h[1:2],,,
E
&inote_5=(171.0){1},
{8}4,5,3,,5,4,6,,
{8}3,4,2,,6,5,7,,
{8}4,5,3/6,,2/7,,1/8,8/1pp4[16:11],
{2},7-5[16:1],
{4}1b/8b,2>6[4:1],6^1[4:1],1,
{2}4-7[8:1]*-8[8:1],5-1[8:1]*-2[8:1],
{8}3v1[8:1]/6v8[8:1],,,,2,3,4,5/6,
{8},3/7,7/3^8[4:1],,8p3[4:1],,5,,
{8}6,5,7,4,3/8,,3/6,2q4[8:3]/5<2[8:3],
{16},,,,,,,,,,,,3,5,2,6,
{8}1-5[8:1]*-7[8:1],,1b,,,4,5,2/8,
{8},1/7,,4/5,3/6,,1/8,,
{8}5b/4h[1:2],,,2,2,,1,1,
{8},8,,7,,,6,,
{8}5h[8:7],,7,7,,8,,1p8[8:3],
{4},,6,4/5,
{8}6/3h[8:7],,,1,1,,7,7-2[4:1],
{8},2-5[4:1],,5-8[4:1],,8,,1,
{8}1^4[8:3]*^6[8:3],,,,,,8,8w4[8:3],
{8},,,,,,8,7,
{8}4/6h[2:1],,4,,4,,4,5<2[2:1],
{8}3,,3,,3,,3,4,
{8}5/3h[2:1],,5,,5,,5,4>7[2:1],
{8}6,,6,,6,,6,5,
{8}6/4h[4:3],,3,3,,2,2,,
{8}3/5h[8:5],,6,6,,7,,4/5,
{8}3v4[4:1]/6v5[4:1],,,,,,4,5,
{8},2/4,,5/7,4-2[8:1]/5-7[8:1],,4/5,,
{8}1b/8b,,2,3,4/5,,7/8,6/1-3[8:1],
{8},8-4[8:1],,2,,1,1,,
{8}5,6,7,8-6[8:1],,2-4[8:1],,1,
{8},2/8,2/8,,3,4,2/5,,
{8}3/6,,7,6,4/5,,1/2,3/8-2[8:1],
{8},3-7[8:1],,6,,4/5,,1,
{8}1^4[4:1],,4^7[4:1],,7,,8,8,
{8},1/7,1/7,,3,4,2/5,,
{8}7/4-8[8:1],,6,,2/5-1[8:1],,3,3,
{8},8,7,6,4/5,,1/7,,
{2}1-6[8:1]/2-6[8:1],7-3[8:1]/8-3[8:1],
{2}5-2[8:1]/6-2[8:1],3-7[8:1]/4-7[8:1],
{8}8,7,5/6,,1,2,3,4/5-7[8:1],
{8},3-1[8:1],,4-8[8:1],,3,2,1,
{8}8h[4:3],,5-1[8:1],,,,2,1b/8b,
{8},4/5,3/6,,1/7,,2/8,,
{8}4b/3b-8[8:1],,5,5-1[8:1],,4,4qq8[2:1],,
{4},7,6,5,
{8}4/5,,3/4,2/5,,6,5,4/7s3[8:3],
{4},8,1,2,
{8}4/5,,5/7,7/5^2[8:1],,8,7,,
{8}4/5,,2/4,2/4^7[8:1],,1,2,3,
{4}4h[4:1],5h[4:1],6h[4:1],7h[4:1],
{4}1^4[4:1],4^7[4:1],7^2[4:1],2qq4[2:1],
{8}4,,,,5,6,7,1/8,
{8},4/5,2/7,,3-8[8:1]/4-7[8:1],,3b/4b,,
{8}8/7-4[8:1],,1,2-5[8:1],,1,8,7pp3[8:3],
{8},5,5,,4,,3/6,,
{8}4/3-8[8:1],,5,6-1[8:1],,5,4,3^8[8:1],
{8},5,5,,6/8,,4/5,,
{8}1q6[8:1]/2^5[8:1],,,,8,1,8,2/7,
{8},4/5,4/5,,7,8,6<3[4:1],,
{8}3,,4,,5,4,3,2/8-4[8:1],
{8},8/3-7[8:1],,3/5,5,,2b/7b,,
{8}1/2-5[8:1],,8,7-4[8:1],,8,1,2qq6[8:3],
{8},4,4,,5,,3/6,,
{8}5/6-1[8:1],,4,3-8[8:1],,4,5,6^1[8:1],
{8},4,4,,1/3,,4/5,,
{8}6/8^3[4:1],,3^6[4:1],,6,7,8,1/7,
{8},4/5,4/5,,7qq5[4:1],,5^8[4:1],,
{8}8qq4[2:1],,,4,4<8[2:1]*>8[2:1],,,,
{4},,2/7,3/6,
{8}4/5h[8:7],,6-1[8:1],6,,,2,2>6[8:3],
{8},1,1,,8,,3/6,,
{8}5/4h[8:7],,3-8[8:1],3,,,7,7<3[8:3],
{8},8,8,,1,,3/6,,
{8}4/5,,2/6,2/6,,5/1^4[8:1]*^6[8:1],,1w5[8:1],
{8},1,,2/8,2/8,,4/5,,
{4}1b/8b,2>6[4:1],6^1[4:1],1,
{2}4-7[8:1]*-8[8:1],5-1[8:1]*-2[8:1],
{8}3v1[8:1]/6v8[8:1],,,,2,3,4/5h[8:7],,
{8}7,,8,8,,1pp5[2:1],,8^5[4:1],
{8},,,,4,,3/5,2V48[8:3]/6V48[8:3],
{16},,,,,,,,,,,,3,5,2,6,
{8}1-5[8:1]*-7[8:1],,1b,,,4,5,1/7,
{8},2/8,,4/5,3/6,,1/8,,
{16}7h[16:31]/4b<4[16:27],,,,,,,,,,,,,,,{1},,
E
