&title=PERFECT HUMAN
&artist=RADIO FISH
&wholebpm=128
&demo_seek=64.1
&demo_len=24.3
&lv_1=1
&lv_2=4
&lv_3=6
&lv_4=8
&lv_5=11
&des_4=畳返し
&des_5=譜面-100号
&inote_1=(128.0){1},,,,,
{1}1,
{1}1,
{1}8,
{1}8,
{1}1,
{1}2,
{1}3,
{1}4,
{1}5,
{1}6,
{1}7,
{1}8,
{1}8-4[4:3],,
{1}1-5[4:3],,
{1}8-4[4:3],,
{1}1-5[4:3],,
{1}6h[1:1],,
{1}5h[1:1],,
{1}4h[1:1],,
{1}3h[1:1],,
{1}4/5,,
{2}5,5,
{1}5,
{2}6,6,
{1}6,
{2}7,7,
{1}7,
{2}8,8,
{1}8,
{2}1,1,
{1}1,
{2}2,2,
{1}2,
{2}3,3,
{1}3,
{2}4,4,
{1}4,
{2}5,5,
{1}5,
{2}4,4,
{1}4b,
E
&inote_2=(128.0){1},,,,,
{1}1,
{1}1,
{1}8,
{1}8,
{4}1,1,1,,
{4}2,2,2,,
{4}3,3,3,,
{4}4,4,5,5b,
{4}4,4,4,,
{4}5,5,5,,
{4}6,6,6,,
{4}7,7,8,8b,
{4}1,1,1/8,,
{4}8,8,7/8,,
{4}6,6,5/6,,
{4}5,5,4,4b,
{4}5,5,4/5,,
{4}4,4,3/4,,
{4}2,2,1/2,,
{4}1,1,1/8,,
{1}8-4[4:3],,
{1}1h[8:3]/8h[8:3],
{1}1h[8:3]/8h[8:3],
{1}1-5[4:3],,
{2}1/8,1/8,
{4}1/8,1/8,1/8,1/8,{1},,
{4}7,2,8,1,
{4}7,2,8,1,
{4}7,2,8,1,{1},
{1}3h[4:7]/6h[4:7],,
{4}7,2,8,1,{1},
{1}3h[4:7]/6h[4:7],,
{4}7,2,8,1,{1},
{4}7,2,8,1,
{4}7,2,8,1,
{4}7,2,8,1,{1},
{4}4/5,4/5,4/5,,
{4}3/6,3/6,3/6,,
{4}2/7,2/7,2/7,,
{1}1b/8b,
E
&inote_3=(128.0){1},
{2}3h[2:1],4h[2:1],
{2}5h[2:1],6,
{2}6h[2:1],5h[2:1],
{2}4h[2:1],3,
{2}6h[2:1],5h[2:1],
{2}4h[2:1],3,
{2}3h[2:1],4h[2:1],
{2}5h[2:1],6,
{4}1,1,2,2,
{4}3,4,5/6,,
{4}8,8,7,7,
{4}6,5,3/4,,
{4}4,4,3,3,
{4}2,1,7/8,,
{1}1-4[4:1]/8-5[4:1],
{1}4-1[4:1]/5-8[4:1],
{4}1,2,3,3/4,
{4}5,6,7,7/8,
{4}1,2,3,3/4,
{1}5-2[4:1]/6-1[4:1],
{4}2,3,4,5/6,
{4}6,7,8,1/2,
{4}1,8,2,7,
{1}1-4[4:1]/8-5[4:1],
{1}3h[2:1]/4h[2:1],
{1}5h[2:1]/6h[2:1],
{1}2h[2:1]/3h[2:1],
{1}6h[2:1]/7h[2:1],
{1}1h[2:1]/2h[2:1],
{1}7h[2:1]/8h[2:1],
{1}2h[2:1]/3h[2:1],
{1}6h[2:1]/7h[2:1],
{1}3/6,
{4},,1b,8b,
{4}7,2,8,1/7,
{4}7,2,8,1/7,
{4}7,2,8,1/7,
{4}2/7,,1b,8b,
{4}1/8,1/8,2/7,2/7,
{4}3/6,3/6,3h[4:1]/6h[4:1],,
{4}6,3,8,1/7,
{4}3/6,,1b,8b,
{4}4/5,4/5,3/6,3/6,
{4}2/7,2/7,2h[4:1]/7h[4:1],,
{4}6,3,8,1/7,
{4}3/6,,1b,8b,
{4}6,3,7/8,1/2,
{4}6,3,7/8,1/2,
{4}6,3,7/8,1/2,
{4}3/6,,1b,8b,
{4}7,1/8,2,1/8,
{4}6,1/8,3,1/8,
{4}1/8,2/7,3/6,4/5,
{4}1/8,,,2b/7b,
E
&inote_4=(128.0){1},
{4}2-5[4:1],,,4/6,
{4}7-4[4:1],,,3/5,
{4}3-6[4:1],,,5/7,
{2}2h[4:1]/7h[4:1],3h[4:1]/6h[4:1],
{4}5/3-8[4:1],,,1/7,
{4}4/6-1[4:1],,,2/8,
{4}4/7-2[4:1],,,1/3,
{2}3h[4:1]/6h[4:1],2h[4:1]/7h[4:1],
{8}2,,4,4,5,,7,,
{8}1,,7,,6/8,5/7,4/6,,
{8}7,,5,5,4,,2,,
{8}2/8,1,3/5,4,6,,5/7,,
{8}2,,4,4,3/5,5,4/6,,
{8}8,,2,,1/3,2/4,3/5,,
{8}7,,5,5,4,,2,,
{8}4,5,6,1/7,1/7,,2b/8b,,
{8}7,,6,,8,8,1/7,8,
{8}1,,3,,1,1,2/8,1,
{8}8,,6,,5,4/6,3/5,5,
{8}4/6,4,3/5,,2,1/3,2/8,,
{8}7,,6,,8,8,1/7,8,
{8}1,,3,,1,1,2/8,1,
{8}8,,3,,2/4,3,3,4,
{8}5,6,7,6b/8b,,,1,,
{4}3,5,7,1,
{4}7,5,3,1,
{8}2h[4:1],,,2b/8b,,,1,,
{8}7h[4:1],,,1b/7b,,,8,,
{4}6,4,2,8,
{4}2,4,6,8,
{4}6/8,4,1/3,5,
{4}8/6h[1:1],1,2,3,
{1}4,
{4},4/5,2b/7b,,
{4}4h[8:1]/7h[8:1],2h[8:1]/5h[8:1],4h[8:1]/8h[8:1],1h[8:1]/5h[8:1],
{4}4h[8:1]/7h[8:1],2h[8:1]/5h[8:1],4h[8:1]/8h[8:1],1h[8:1]/5h[8:1],
{4}4h[8:1]/7h[8:1],2h[8:1]/5h[8:1],4h[8:1]/8h[8:1],1h[8:1]/5h[8:1],
{2}4/5,8b,
{4}4h[8:1]/5h[8:1],3h[8:1]/6h[8:1],2h[8:1]/7h[8:1],3h[8:1]/6h[8:1],
{8}3/6,,2/7,2/7,2h[8:1]/7h[8:1],,3/6,,
{4}4h[8:1]/7h[8:1],2h[8:1]/5h[8:1],4h[8:1]/8h[8:1],1h[8:1]/5h[8:1],
{2}4/5,8b,
{4}4h[8:1]/5h[8:1],3h[8:1]/6h[8:1],2h[8:1]/7h[8:1],3h[8:1]/6h[8:1],
{8}3/6,,2/7,2/7,2h[8:1]/7h[8:1],,3/6,,
{4}4h[8:1]/7h[8:1],2h[8:1]/5h[8:1],4h[8:1]/8h[8:1],1h[8:1]/5h[8:1],
{2}4/5,8b,
{4}4h[8:1]/7h[8:1],2h[8:1]/5h[8:1],4h[8:1]/8h[8:1],1h[8:1]/5h[8:1],
{4}4h[8:1]/7h[8:1],2h[8:1]/5h[8:1],4h[8:1]/8h[8:1],1h[8:1]/5h[8:1],
{4}4h[8:1]/7h[8:1],2h[8:1]/5h[8:1],4h[8:1]/8h[8:1],1h[8:1]/5h[8:1],
{2}4/5,8b,
{4}3/5,1/8,4/6,1/8,
{4}3/5,1/8,4/6,1/8,
{4}3/5,1/8,4/6,1/8,
{4},
{8}4bv2[8:1]/5bv7[8:1],,,,
E
&inote_5=(128.0){1},
{16}7h[8:1],,,3,4,3,,6,5,6,,4,5h[4:1],,,,
{16}2h[8:1],,,6,5,6,,3,4,3,,5,4h[4:1],,,,
{16}7h[8:1],,,3,4,3,,6,5,6,,4,5-7[8:1],,,,
{4}4-8[8:1],5-1[8:1],4-2[8:1],,
{16}6h[8:1],,,2,1,2,,7,8,7,,1,8h[4:1],,,,
{16}3h[8:1],,,7,8,7,,2,1,2,,8,1h[4:1],,,,
{16}6h[8:1],,,2,1,2,,7,8,7,,1,8-6[8:1],,,,
{4}1-5[8:1],8-4[8:1],1-3[8:1],,
{16}7,,2,4,3,,7,5,6,,2,1,3,,7,8,
{16}6,,2,4,3,,7,5,6,,3/8,,1/5,,,,
{16}2,,7,5,6,,2,4,3,,7,8,6,,2,1,
{16}3,,7,5,6,,2,4,3,,1/6,,4/8,,,,
{16}7,,3,5,3,,6,4,6,,2,5,2,,7,4,
{16}7,,1,5,1,,8,4,8w4[8:1],,8,8,,,,,
{16}2,,6,4,6,,3,5,3,,7,4,7,,2,5,
{16}2,,8,4,8,,1,5,1-5[8:1],,1,1,,,,7,
{16}2,8,3,7,4,6,3,5,2,6,1,7,8b,,2b/6b,,
{16}7,1,6,2,5,3,6,4,7,3,8,2,1b,,3b/7b,,
{16}8,,2/6,,1,7,3,8,2,6,1,,4b/5b,,1,,
{16}4b/6b,,8,,3b/5b,,,7,2,5,4,8,1b,,,,
{16}6,5,6,3,6,5,6,8,6,5,6,3,8b,,2b/5b,,
{16}3,4,3,6,3,4,3,1,3,4,3,6,1b,,4b/7b,,
{16}6,,4,5,2,5,4,7,4,5,4,5,4,7,2,7,
{16}1,5,3,8,4,6,1b,,,,5,,7,,1,,
{8}2^7[4:1]/3p6[4:1],,,,,4,2,8,
{8}6q3[4:1]/7^2[4:1],,,,,,3,7V51[4:1]/8-4[8:1],
{8}4-2[8:1],,,,,6,6,1-5[8:1]/2V48[4:1],
{8}5-7[8:1],,,,,6,4,2,
{8}7v5[4:1]/8V24[4:1],,,,,,5,7,
{8}1V75[4:1]/2v4[4:1],,,,,,2p6[8:1]/7p3[8:1],2b/7b,
{8},,2q6[8:1]/7q3[8:1],2b/7b,,,2V48[1:1]/7V51[1:1],2b/7b,{1},,
{4},,8b,1b,
{16}7h[8:1],,4,6,2h[8:1],,5,3,8h[8:1],,4,6,1h[8:1],,5,3,
{16}7h[8:1],,4,6,2h[8:1],,5,3,8h[8:1],,4,6,1h[8:1],,5,3,
{16}7h[8:1],,4,6,2h[8:1],,5,3,8h[8:1],,4,6,1h[8:1],,5,,
{4}3/6,,8b,1b,
{16}3/6h[8:1],,4,5,3h[8:1],,5,4,6h[8:1],,4,5,3h[8:1],,5,4,
{16}6h[8:1],,4,5,3h[8:1],,5,4,6h[8:1],,4,5,3h[8:1],,5,4,
{16}7h[8:1],,4,6,2h[8:1],,5,3,8h[8:1],,4,6,1h[8:1],,5,,
{4}3/6,,8b,1b,
{16}2/7h[8:1],,4,5,2h[8:1],,5,4,7h[8:1],,4,5,2h[8:1],,5,4,
{16}7h[8:1],,4,5,2h[8:1],,5,4,7h[8:1],,4,5,2h[8:1],,5,4,
{16}7h[8:1],,4,6,2h[8:1],,5,3,8h[8:1],,4,6,1h[8:1],,5,,
{4}3/6,,8b,1b,
{16}7h[8:1],,4,6,2h[8:1],,5,3,8h[8:1],,5,7,1h[8:1],,4,2,
{16}7h[8:1],,4,6,2h[8:1],,5,3,8h[8:1],,5,7,1h[8:1],,4,2,
{16}7h[8:1],,4,6,2h[8:1],,5,3,8h[8:1],,5,7,1h[8:1],,4,,
{4}3/6,,8b,1b,
{8}4/6,1,3/5,8,5/6,1,3/4,8,
{8}4/6,1,3/5,8,5/6,1,3/4,8,
{8}4/6,1,3/5,8,5/6,1,3/4,8,
{4},,,2b/7b,
E
