&title=Just Be Friends
&artist=Dixie Flatline
&wholebpm=128
&demo_seek=81.4
&demo_len=33.1
&lv_1=1
&lv_2=4
&lv_3=7+
&lv_4=10+
&lv_5=12+
&des_4=はっぴー
&des_5=Revo@LC
&inote_1=(128.0){1},,,,
{1}5,
{1}5,
{1}6,
{1}6,
{1}7,
{1}7,
{1}8,
{1}8,
{1}1,
{1}1,
{1}2,
{1}2,
{1}3,
{1}3,
{1}4,
{1}4,
{1}5h[1:1],,
{1}4h[1:1],,
{1}3,
{1}3,
{1}2,
{1}2,
{1}1h[1:1],,
{1}8h[1:1],,
{1}7,
{1}7,
{1}6,
{1}6,
{1}7-2[2:1],,
{1}3-6[2:1],,
{1}5,
{1}4,
{1}4/5,
{1}4/5,
{1}5,
{1}6,
{1}7,
{1}8,
{1}1,
{1}2,
{1}3,
{1}4b,
{1}4,
{1}3,
{1}2,
{1}1,
{1}8,
{1}7,
{1}6,
{1}5,
{1}4-1[2:1],,
{1}8-5[2:1],,
{1}4,
{1}3,
{1}2,
{1}1,
{1}8,
{1}7,
{1}6,
{1}5,
{2}4,4,
{1}4,
{2}5,5,
{1}5,
{1}4/5,
E
&inote_2=(128.0){1},,,,
{2}1,1,
{2}2,2,
{2}3,3,
{1}4h[2:1],
{2}5,5,
{2}6,6,
{2}7,7,
{1}8h[2:1],
{1}1/8,
{4}7,7,7,,
{1}5/6,
{4}5,5,5,,
{1}4/5,
{4}3,3,3,,
{2}1/2,1/2,
{1}1h[2:1]/2h[2:1],
{4}1,1,1,,
{4}2,2,2,,
{4}3,3,3,,
{4}4,5,4,,
{4}5,5,5,,
{4}6,6,6,,
{4}7,7,7,,
{4}8,8,1,1b,
{4}8,8,8,,
{4}7,7,7,,
{4}6,6,6,,
{4}5,4,5,,
{4}4,4,4,,
{4}3,3,3,,
{4}2,2,2,,
{4}1,1,8,8b,
{1}1-4[4:3],,
{1}8-5[4:3],,
{4}2,2,1/2,,
{4}7,7,7/8,,
{2}5/6,4/5,
{1}3h[2:1]/4h[2:1],
{4}2,2,2,,
{4}1,1,1,,
{4}8,8,8,,
{4}7,8,7,,
{4}2,1,2,,
{4}7,8,7,,
{4}1,1,2,2,
{4}3,3,4/5,,
{4}7,7,7,,
{4}8,8,8,,
{4}1,1,1,,
{4}2,1,2,,
{4}7,8,7,,
{4}2,1,2,,
{4}8,8,7,7,
{4}6,6,4/5,,
{1}4-1[4:3]/5-8[4:3],,
{1}1-4[4:3]/8-5[4:3],,
{2}4,4,
{2}3,3,
{2}2,2,
{2}1,1,
{2}8,8,
{2}7,7,
{2}6,6,
{2}5,5,
{4}4,4,4,,
{4}5,5,5,,
{4}3/4,3/4,3/4,,
{4}5/6,5/6,5/6,,
{1}4b/5b,
E
&inote_3=(128.0){1},,,,
{4}5,5,4,4,
{4}2,3,4,5/6,
{4}4,4,5,5,
{4}7,6,5,3/4,
{4}2,2,1,1,
{4}2,3,4,5/6,
{4}7,7,8,8,
{4}7,6,5,3/4-8[4:1],
{4},,1,1/8,
{4}2,3,4,6/5-1[4:1],
{4},,8,1/8,
{4}7,6,5,4/3^8[4:1],
{4},,7,1/8,
{4}2,3,4,5/6^1[4:1],
{4},2^5[4:1],,6<3[2:1],
{4},,,4/5,
{4}3,3/4,6,5/6,
{4}4h[4:1],5h[4:1],6h[4:1],7,
{4}6,5/6,3,3/4,
{4}5h[4:1],4h[4:1],3h[4:1],2,
{4}3,3/4,6,5/6,
{4}3,2/4,6,5/7,
{2}3h[4:1]/4h[4:1],5h[4:1]/6h[4:1],
{4}4/5,4/5,2/7,,
{4}6,5/7,3,2/4,
{4}5h[4:1],4h[4:1],3h[4:1],1,
{4}3,2/4,6,5/7,
{4}4h[4:1],5h[4:1],6h[4:1],8,
{4}6,5/7,3,2/4,
{4}7,6/8,2,1/3,
{2}7h[4:1]/8h[4:1],1h[4:1]/2h[4:1],
{4}4/5,4/5,2b/7b,,
{4}2h[4:1],1,7h[4:1],8,
{4}2h[4:1],3h[4:1],4h[4:1],5,
{4}7h[4:1],8,2h[4:1],1,
{4}7h[4:1],6h[4:1],5h[4:1],4,
{4}2,3^6[4:1],,,
{4}8,7p3[4:1],,,
{4}1,2,3,3>6[2:1],
{4},,,1b/8b,
{4}2,1/2,3/8,4/7,
{8}6h[4:1],,8,,7,7,7,,
{8}8,8,8,,1,1,1,,
{4}2^7[4:1],,,1/8,
{4}3/4,7,4/5,8,
{4}5/6,2,4/5,1,
{8}3/4,3/4,3/4,,5/6,5/6,5/6,,
{8}7/8,7/8,7-4[4:1]/8-3[4:1],,,,,,
{4}7,7/8,1/6,2/5,
{8}3h[4:1],,1,,2,2,2,,
{8}1,1,1,,8,8,8,,
{4}7^2[4:1],,,1/8,
{4}5/6,2,4/5,1,
{4}3/4,7,4/5,8,
{8}5/6,5/6,5/6,,3/4,3/4,3/4,,
{8}1/2,1/2,1/2,,7/8,,
{4}6/5pp2[8:7],{1},
{4}1,2,3,4^7[4:1],
{4},,1/8,2^5[4:1],
{4},,4/5,4/5,
{4}2/7,1/8,2/7,1/8,
{4}3/6,1/8,3/6,1/8,
{4}3h[4:1],4,6h[4:1],5,
{4}2/7,1/8,3/6,1/8,
{4}2h[4:1],4,7h[4:1],5,
{4}2/7,1/8,3/6,1/8,
{4}2h[4:1],3,7h[4:1],6,
{4}3/6,1/8,4/5,1/8,
{4}2h[4:1],4,7h[4:1],5,
{4}1h[4:1],3,8h[4:1],6,
{4}4/5,3/6,2/7,1pp4[8:5]/8qq5[8:5],
{8},,,,,,2/7,2/7,
{1}2b/7b,
E
&inote_4=(128.0){1},,,
{4},,,4/5,
{4}5/6h[2:3],5,4,4,
{4}5,5,4,4/5,
{4}4/3h[2:3],4,5,5,
{4}4,4,5,4/5,
{4}5/6h[2:3],4,5,4,
{4}5,5,4,4/5,
{4}4/3h[2:3],5,4,5,
{4}4,4,5,4/5,
{4}2/1^6[4:1],,,4/5,
{8}1/2,,7,6,5,,3/4,,
{4}2/1^6[4:1],,,3/4,
{8}1/2,,7,6,5,,3/4,,
{4}2/1^6[4:1],,,4/5,
{8}1/2,,7,6,5,,3/4,,
{4}1/2,7,5,3/4,
{4}2/1^6[4:1],,,4/5,
{8}6,6h[8:3],5,,3,3h[8:3],4,,
{8}6,6h[8:1],5>1[4:1],,,,,,
{8}3,3h[8:3],4,,6,6h[8:3],5,,
{8}3,3h[8:1],4<8[4:1],,,,,,
{8}1,1,2/8,,6,5,4/7,,
{8}8,8,1/7,,3,4,2/5,,
{4}4h[8:1]/7h[8:1],4/7,2h[8:1]/5h[8:1],2/5,
{8}1/8,,4/5,3/6,2/7,,4/5,,
{8}3,3h[8:3],4,,6,6h[8:3],5,,
{8}3,3h[8:1],4,,2/5,,3/8,,
{8}6,6h[8:3],5,,3,3h[8:3],4,,
{8}6,6h[8:1],5,,4/7,,1/5,,
{8}8,8,1/7,,3,4,2/5,,
{8}1,1,2/8,,6,5,4/7,,
{4}2h[8:1]/5h[8:1],2/5,4h[8:1]/7h[8:1],4/7,
{4}1/8,4^1[4:1]/5^8[4:1],,,
{8}1,2,3/8,,8,7,1/6,,
{4}2^4[8:1],8,7^5[8:1],1,
{8}3,4,2/5,,6,5,4/7,,
{4}3^1[8:1],5,6^8[8:1],4,
{4}3/4,5/2^7[4:1],,,
{4}5/6,4/7^2[4:1],,,
{4}5/7,2/4,5/6,2/1<5[2:1],
{8},,,,,3/6,3/6,,
{4}7/8,3/8,1/2,1/6^3[4:1],
{8},,,2/4,2h[4:1]/4h[4:1],,,5/7,
{8}5h[4:1]/7h[4:1],,,1/8,1/8,,2/4,,
{8}5/7^2[4:1],,,,,4/5,4/5,,
{4}3h[4:1],1h[4:1],8h[4:1],6,
{2}3-8[8:1]/4-7[8:1],5-2[8:1]/6-1[8:1],
{8}8,7,1,2,7,6,2,3,
{8}6,5,3,4,,3/6,3/6,,
{4}1/2,1/6,7/8,8/3^6[4:1],
{8},,,5/7,5h[4:1]/7h[4:1],,,2/4,
{8}2h[4:1]/4h[4:1],,,1/8,1/8,,5/7,,
{8}4/2^7[4:1],,,,,4/5,4/5,,
{4}6h[4:1],8h[4:1],1h[4:1],3,
{8}2^7[4:1]/3p6[4:1],,,,,4/5,4/5,,
{2}2h[4:1]/3^6[8:1],7h[4:1]/6^3[8:1],
{4}4h[8:1]/5h[8:3],3h[8:3],6h[8:3],2h[4:5],
{1}7h[4:11],
{4},6,5,4>8[2:1],
{4},,,8>6[4:3],{1},
{4}4/5-7[8:1],3,5/4-2[8:1],6,
{2}4^1[8:1]/6-1[8:1],3-8[8:1]/5^8[8:1],
{4}4/5,6h[4:1],7p3[8:1],,
{2}3-8[8:1]/5^8[8:1],4^1[8:1]/6-1[8:1],
{4}4/5,2-7[8:1]/6-3[8:1],,1/8,
{2}4-1[8:1]/6^1[8:1],3^8[8:1]/5-8[8:1],
{4}4/5,3^8[4:1]/7^4[4:1],,,
{2}3^8[8:1]/5-8[8:1],4-1[8:1]/6^1[8:1],
{4}5/4-1[8:1],5-8[8:1],1-5[8:1],,
{2}4^1[8:1]/6^1[8:1],3^8[8:1]/5^8[8:1],
{4}7/2h[4:1],4h[4:1],5h[4:1],7pp2[2:1],
{8},,,,,,1/8,2/7,
{1}2b/7b,
E
&inote_5=(128.0){1},,,
{4},,,3b/6b,
{8}7,3h[4:1]/8-4[8:1],,8,2,6h[4:1]/1-5[8:1],,1,
{4}7^2[4:1],2^5[4:1],5^8[4:1],8,
{8}2,6h[4:1]/1-5[8:1],,1,7,3h[4:1]/8-4[8:1],,8,
{4}2^7[4:1],7^4[4:1],4^1[4:1],1,
{8}6,2h[4:1]/4-1[8:1],,4,3,7h[4:1]/5-8[8:1],,5,
{4}6^3[4:1],3^8[4:1],8^5[4:1],5,
{8}3,7h[4:1]/5-8[8:1],,5,6,2h[4:1]/4-1[8:1],,4,
{8}3^6[4:1],,6^1[4:1],,1,,3,2/7,
{8}8/1h[4:1],3,8h[4:1],6,1h[4:1],3,8,3/6,
{8},4/5,3/6,2/7,1/8,,2^5[8:1]/6^1[8:1],1/5,
{8}2/6,,4h[4:1],2,5h[4:1],7,4,6/3h[4:1],
{8},2,1,8,6/7,,3/6,2/7,
{8}1/8h[4:1],6,1h[4:1],3,8h[4:1],6,1,3/6,
{8},4/5,3/6,2/7,1/8,,3^8[8:1]/7^4[8:1],4/8,
{8}3/7,,2^5[8:1]/6^1[8:1],1/5,2/6,,3^8[8:1]/7^4[8:1],4/8,
{4}3/7,3/6,4-1[8:1]/5-8[8:1],4b/5b,
{16},7,8,,1/6,,7,8,,,1/2,,3/8,,2,1,
{8}3,4/7,5/6,2/5,3/4,4/7,5/6h[16:5],,
{16},8,7,,1/6,,8,7,,,1/2,,3/8,,2,1,
{8}3,4/7,5/6,2/5,3/4,4/7,5/6h[16:5],,
{16},1,8,1,8,,3/5,,7-4[16:1]/8-4[16:1],,,7/8,,,,,
{16}8,1,8,1,8,,4/6,,1-5[16:1]/2-5[16:1],,,1/2,,,6,,
{16}1/7,,3,3,,,4/5,,2/8,,6,6,,,4/5,,
{8}2v4[8:1],4,6<2[4:1],,4h[4:1],,,,
{16},2,1,,3/8,,6,5,,,7/8,,1/6,,5,4,
{8}6,2/5,3/4,4/7,5/6,2/5,4/3h[16:5],,
{16},1,2,,3/8,,6,5,,,7/8,,1/6,,5,4,
{8}6,2/5,3/4,4/7,5/6,2/5,4/3h[16:5],,
{16},8,1,8,2/7,,4/6,,1-5[16:1]/2-5[16:1],,,1/2,,,,,
{16}1,8,1,8,2/7,,3/5,,7-4[16:1]/8-4[16:1],,,7/8,,,3,,
{16}2/8,,6,5,,,4/5,,1/7,,3,4,,,4/5,,
{8}7v5[8:1],5,3>7[4:1],,5h[4:1],,,,
{8}7/1^4[8:1],1/7h[8:1],,,8/2^5[8:1],2/8h[8:1],,,
{4}1h[4:3]/3^6[8:1],3,6^3[8:1],6,
{8}2/8^5[8:1],8/2h[8:1],,,1/7^4[8:1],7/1h[8:1],,,
{4}8h[4:3]/6^3[8:1],6,3^6[8:1],3,
{8}7/1^4[8:1],1/7h[8:1],,,8/2^5[8:1],2/8h[8:1],,,
{4}1h[4:3]/3^6[8:1],3,6^3[8:1],6,
{8}3/4,2/4,5/6,5/7,3/4,1/4,5/6,5/8,
{983}2,,,,,,,,,,,,,,,,,,,,,,,,,,,,,,,,,,,,,,,,,
{625}1,,,,,,,,,,,,,,,,,,,,,,,,,,
{983}2,,,,,,,,,,,,,,,,,,,,,,,,,,,,,,,,,,,,,,,,,
{16}6,5,
{983}7,,,,,,,,,,,,,,,,,,,,,,,,,,,,,,,,,,,,,,,,,
{625}8,,,,,,,,,,,,,,,,,,,,,,,,,,
{983}7,,,,,,,,,,,,,,,,,,,,,,,,,,,,,,,,,,,,,,,,,
{16}3,4,1-5[8:1]/8-4[8:1],,2/7,,1b/8b,,,,
{8}4qq2[8:1]/5pp7[8:1],,4/5,,3/6,4/5,3/6,1-5[8:1]/2-6[8:1],
{8},1/2,,5q4[8:1]/6<3[8:1],5/6,,,3>6[8:1]/4p5[8:1],
{16}3/4,,,,,,5/6,5/6h[16:3],,,1,,3/4,,8/2z6[4:1],,
{16},,5,,5,,,,,,1/6,,2/8,,3/4,3/4,
{16},,3/8,,1/7,,5/6,5/6,,,7/1h[4:3],,,,8,,
{16}2,,6,,4,,5,,,,3/8,,1/7,,5/6,5/6,
{16},,1/6,,2/8,,3/4,3/4,,,8h[4:3],,1,,7,,
{8}2,6,3,4,,1/8,2/7,3/6,
{8}4qq2[8:1]/5pp7[8:1],3/6,4/5,,3/6,4/5,3qq5[4:1]/6pp4[4:1],3/6,
{8},,,3>6[8:1]/4p5[8:1],3/4,,,5q4[8:1]/6<3[8:1],
{16}5/6,,,,,,3/4,4/3h[16:3],,,8,,5/6,,1/7s3[4:1],,
{16},,4,,4,,,,,,3/8,,1/7,,5/6,4/7,
{16},,1/6,,2/8,,3/4,2/5,,,1/8h[4:3],,,,1,,
{16}7,,3,,5,,4,,,,1/6,,2/8,,3/4,2/5,
{16},,3/8,,1/7,,5/6,4/7,,,8/1h[4:3],,,,8,,
{8}2,6,4,5^2[8:1]*^8[8:1],,5,,3/7,
{4}1-4[8:1],1-6[8:1],5-2[8:1],5-8[8:1],
{8}1^4[8:1]*^6[8:1],,1w5[8:1],,1,,7/8,2/6,
{4}4/5-8[8:1],5-2[8:1],1-6[8:1],1-4[8:1],
{8}5^2[8:1]*^8[8:1],,5w1[8:1],,5,,5/6,3/7,
{8}8/1h[4:1],3,8h[4:1],6,1h[4:1],3,8,3/6,
{8},4/6,2/4,3/5,5/7,,2^5[8:1]/6^1[8:1],1/5,
{8}2/6,,3^8[8:1]/7^4[8:1],4/8,3/7,,1/5,6/2h[4:1],
{8},3,4,5,6/7,,3^8[8:1]/7^4[8:1],4/8,
{8}3/7,,2pp5[4:1]/6pp1[4:1],1/5,2/6,,,3/7,
{8},3/5,5/7,4/6,2/4,,2^5[8:1]/6^1[8:1],1/5,
{16}2/6,,,,3pp2[4:1]/7pp6[4:1],,,3/7,3/7,,,,,,3/7h[4:1],,
{8},6,5,4,2/3,,5/6,3/7,
{8}1/8,2-6[8:1],2h[8:1],,,8-4[8:1],8h[8:1],,
{8},5/6,1/5,3/4,4/8,5/6,3/4,2/6,
{8}1/8,4/5,3-8[8:1]/7-4[8:1],,3/7,,2/5,7/8,
{16}1,2,5,6,4,3,8,7,2/6,,,,4p8[8:1]/5q1[8:1],,3/6,,
{8}4b/5b,,
E
