&title=HERA
&artist=ルゼ
&wholebpm=185
&demo_seek=64.2
&demo_len=11.85
&lv_1=4
&lv_2=6
&lv_3=9
&lv_4=12+
&lv_5=14
&des_4=ロシェ@ペンギン
&des_5=Revo@LC
&inote_1=(185.0){1},,
{1}1,
{1}2,
{1}3,
{1}4,
{1}5,
{1}6,
{1}7,
{1}8,
{2}8,8,
{1}8,
{2}7,7,
{1}7,
{2}6,6,
{1}6,
{2}5,5,
{1}5,
{2}4,4,
{1}4,
{2}3,3,
{1}3,
{2}2,2,
{1}2,
{2}1,1,
{1}1b,
{1}1h[1:1],,
{1}2h[1:1],,
{1}3h[1:1],,
{1}4h[1:1],,
{1}5h[1:1],,
{1}6h[1:1],,
{1}7h[1:1],,
{1}8h[1:1],,
{1}8-4[4:3],,
{1}4-1[4:3],,
{1}1-5[4:3],,
{1}5-8[4:3],,
{2}8,8,
{2}7,7,
{2}6,6,
{1}5,
{2}4,4,
{2}3,3,
{2}2,2,
{1}1,
{4}1,1,1,,
{4}2,2,2,,
{4}3,3,3,,
{4}4,4,4,,
{4}5,5,5,,
{4}6,6,6,,
{4}7,7,7,,
{4}8,8,8,,
{1}8b,
{1}1/8,
{4}8,8,8,,
{4}7,7,7,,
{4}6,6,6,,
{4}5,5,5,,
{4}4,4,4,,
{4}3,3,3,,
{4}2,2,2,,
{4}1,1,1,,
{4}8,8,8,,
{4}7,7,7,,
{4}8,8,8,,
{4}1,1,1,,
{4}2,2,2,,
{4}1/8,1/8,1/8,,
{1}1-5[4:3],,
{2}5,5,
{1}5,
{2}6,6,
{1}6,
{2}7,7,
{1}7,
{2}8,8,
{1}8,
{2}1,1,
{1}1,
{2}2,2,
{1}2,
{2}3,3,
{1}3,
{2}4,4,
{1}4,
{1}4/5,
{2}4,3,
{2}2,1,
{2}8,7,
{2}6,5,
{2}4,4/5,
E
&inote_2=(185.0){1},,
{4}1,1,1,,
{4}2,2,2,,
{4}3,3,3,,
{4}4,4,5,5,
{4}4,4,4,,
{4}5,5,5,,
{4}6,6,6,,
{4}7,7,8,8,
{1}1-5[4:3],,
{1}8-4[4:3],,
{1}2-5[4:3],,
{1}7-4[4:3],,
{1}2-7[4:3],,
{1}3-6[4:3],,
{1}7-2[4:3],,
{1}6-3[4:3],,
{1}1h[1:1]/2h[1:1],,
{1}3h[1:1]/4h[1:1],,
{1}5h[1:1]/6h[1:1],,
{1}7h[1:1]/8h[1:1],,
{4}8,8,8,,
{4}7,7,7,,
{4}6,6,6,,
{4}5,5,5,,
{4}4,4,4,,
{4}3,3,3,,
{4}2,2,2,,
{4}1,1,1b,,
{1}1-4[4:3],,
{1}8-5[4:3],,
{1}4-1[4:3],,
{1}5-8[4:3],,
{4}1/2,2,2,,
{4}3/4,3,3,,
{4}5/6,6,6,,
{4}7/8,7,7,,
{4}7/8,8,8,,
{4}5/6,5,5,,
{4}3/4,4,4,,
{4}1/2,1,1,,
{4}1,1,2,2,
{4}3,3,4,,
{4}5,5,6,6,
{4}7,7,8,,
{4}8,8,7,7,
{4}6,6,5,,
{4}4,4,3,3,
{4}2,2,1,,
{1}1-4[4:3]/8-5[4:3],,
{4}1,1,2,2,
{4}3,3,4,4,
{4}5,5,6,6,
{4}7,7,1/8,,
{4}8,8,7,7,
{4}6,6,5,5,
{8}4,4,4,,3,3,3,,
{8}2,2,2,,1,1,1,,
{8}8,8,8,,7,7,7,,
{8}6,6,6,,5b,,,,
{8}5,5,5,,6,6,6,,
{8}7,7,7,,8,8,8,,
{8}1,1,1,,2,2,2,,
{8}3,3,3,,4b,,,,
{1}4h[4:3]/5h[4:3],
{4}5,5,4,4b,
{4}3,3,3,,
{4}6,6,6,,
{4}4,4,4,,
{4}5,5,5,,
{4}3/4,3/4,3/4,,
{4}5/6,5/6,5/6,,
{4}3/5,3/5,3/5,,
{4}4/6,4/6,4/6,,
{4}3,3,3,3,
{4}2,2,2,2,
{4}1,1,1,1,
{4}8,1,8,,
{4}7,7,7,7,
{4}6,6,6,6,
{4}5,5,5,5,
{4}4,4,4,4,
{1}3/5,
{4}2,2,2,,
{4}1/8,1/8,1/8,,
{4}7,7,7,,
{4}1/8,1/8,1/8,,
{4}1,8,1,2b/7b,
E
&inote_3=(185.0){1},
{4}5,,6,6,
{4}7,8,1,2,
{4}3/4,2/5,1/6,,
{4}2,1,8,7,
{4}6,5,4,3,
{4}2,1,8,7,
{4}5/6,4/7,3/8,,
{4}7,8,1,2,
{4}3b,4b,5b,6b,
{4}7,7/8,2,1/2,
{1}1-6[2:1],
{4}6,5/6,3,3/4,
{1}4-7[2:1],
{4}7,7/8,6,5/6,
{1}5-2[2:1],
{4}2,1/2,3,3/4,
{4}2/5,1/6,7/8,7/8,
{4}1/2,2,7/8,7,
{1}7-4[2:1]/8-3[2:1],
{4}3/4,3,5/6,6,
{1}5-2[2:1]/6-1[2:1],
{4}1/2,2,3/4,3,
{1}3-8[2:1]/4-7[2:1],
{4}7/8,7,5/6,6,
{4}5/6,4/7,3/8,1/2,
{1}2h[1:1],
{1}1h[1:1],
{1}8h[1:1],
{1}7,
{1}6h[1:1],
{1}5h[1:1],
{1}4h[1:1],
{4}3,3,2/5,1/6,
{2}8h[2:1],7,
{2}7h[2:1],6,
{2}6h[2:1],5,
{2}4/7,3/8,
{2}1h[2:1],2,
{2}2h[2:1],3,
{2}3h[2:1],4,
{2}2/5,1/6,
{1}1pp5[2:3],,
{1}6pp2[2:3],,
{1}1qq5[2:3],,
{1}4qq2[4:3]/5pp7[4:3],,
{4}8,1/7,3/5,2/6,
{4}1,2/8,4/6,3/7,
{4}7/8,1/6,1/2,3/8,
{4}1/8,2/7,3/6,,
{4}5,4/6,2/8,3/7,
{4}4,3/5,1/7,2/6,
{4}5/6,4/7,3/4,2/5,
{4}4/5,3/6,2/7,,
{4}1h[4:1],8b,1/7,2/8,
{4}6h[2:1],4,5,,
{4}2/8,1/7,2/8,1/7,
{4}3h[2:1],5,4,,
{4}3/8,1/6,3/8,1/6,
{4}6h[2:1],3,5,,
{4}1/6,3/8,1/6,3/8,
{4}3h[2:1],6,4,,
{4}1/7,3/5,1/7,3/5,
{4}1/8,2/7,3/6,,
{4}2/5,4/7,2/5,4/7,
{4}7h[2:1],4,6,,
{4}2/8,4/6,2/8,4/6,
{4}1/8,2/7,3/6,,
{4}4/7,2/5,4/7,2/5,
{4}2h[2:1],5,3,,
{4}1/7,1/7,3/5,3/5,
{4}2/8,2/8,4/6,4/6,
{4}1/7,3/5,2/8,4/6,
{4}1/7,3/5,2/7,,
{4}2/5,2/5,4/7,4/7,
{4}1/6,1/6,3/8,3/8,
{4}2/5,4/7,2/5,4/7,
{4}1/6,3/8,1/6,3/8,
{4}1/8,2/7,3/6,4/5,
{4}3/6,3/6,2/7,1b/8b,
{4}8,1/7,3/5,2/6,
{1}1pp2[2:1],
{4}1,2/8,4/6,3/7,
{1}8qq7[2:1],
{4}7/8,1/6,1/2,3/8,
{1}1pp2[2:1]/8qq7[2:1],
{4}1/8,2/7,3/6,4/5,
{1}4qq3[2:1]/5pp6[2:1],
{4}4,3/5,1/7,2/6,
{4}5,4/6,2/8,3/7,
{4}3/4,1/2,7/8,5/6,
{4}4/5,3/6,2/7,1b,
{4}8,1/7,3/5,2/6,
{4}1,2/8,4/6,3/7,
{4}5/6,7/8,1/2,3/4,
{8}5,4,5,4,6,3,6,3,
{4},6,6,3b/6b,
{4}7,8,1,2,
{4}1/2,1/2,7/8,7/8,
{4}6,5/6,3,3/4,
{8}5,4,5,4,5,,3/6,,
{8}4,5,4,5,4,,2b/7b,
E
&inote_4=(185.0){1},
{4}4/5,,3/6,3/6,
{8}2,4,3,3,5,4,5,,
{8}6,6,5/7,,3,3,2/4,,
{8}6,6,5,7,4,5,4,,
{4}3/4,4/5,5/6,2/7,
{8}7,5,6,6,4,5,4,,
{8}3,3,2/4,,6,6,5/7,,
{8}3h[16:3],,2/4,,1,1,8,8,
{4}3-8[8:1],6-1[8:1],4-8[8:1],5,
{4}6h[4:1],1b,3-1[8:1]/4-8[8:1],,
{2}3-8[8:1]/4-7[8:1],3-7[8:1]/4-6[8:1],
{8}1/8,,5/6,6/5V31[4:1],,,,8,
{8},1/8,,2/8,2-5[8:1]/8-5[8:1],,,,
{8}3,4,5,6,5-1[8:1]/6-8[8:1],,,,
{2}5-2[8:1]/6-1[8:1],5-3[8:1]/6-2[8:1],
{8}1/8,,3/4,3/4V68[4:1],,,,1,
{4}1-5[8:1],8-6[8:1],2-4[8:1],1,
{8}2,5,3h[4:1],,8,1,8<4[4:1],,
{4},1>5[4:1],,8,
{8}3/5,,1/2,1/2,,7/8,7-4[8:1]/8-3[8:1],,
{4},1/2z6[4:1],,,
{8}7,4,6h[4:1],,1,8,1>5[4:1],,
{4},8<4[4:1],,1,
{4}4/6,2/8,1-3[8:1]/5-7[8:1],,
{1}4qq1[2:1]/8qq5[2:1],
{1}6h[2:3]/2qq7[4:5],,
{1}3h[2:3]/7pp2[4:5],,
{1}5h[2:3]/1pp6[4:5],,
{1}4h[2:3]/8qq3[4:5],,
{4}5,5,5,5,
{1}5qq2[2:1]/6pp1[2:1],
{4}4,4,4,4,
{1}3qq8[2:1]/4pp7[2:1],
{4}2,2,7,7,
{1}1pp4[2:1]/8qq5[2:1],
{4}6,6,3,3,
{1}4qq1[2:1]/5pp8[2:1],
{16}6,,5/7,,,5/7,,,5/7,,,5/7,,,5/7,,
{16},2/4,,,2/4,,,2/4,,,2/4,,,4/5,,4/5,
{16},,1/3,,,1/3,,,1/3,,,1/3,,,1/3,,
{16},6/8,,,6/8,,,6/8,,,6/8,,,3/6,,,
{16},2/5,,,2/5,,,2/5,,,2/5,,,5/2pp6[16:11]*qq6[16:11],,,{1},
{8}5/6,5/6,4/7,4/7,3/8,3/8,1/2,1/2,
{1}1b/8b,
{16}3h[4:1],,,,2h[4:1],,,,1,,,2/8,,,3/7,,
{16}6h[4:1],,,,7h[4:1],,,,8,,,1/7,,,2/6,,
{16}3h[4:1],,,,2h[4:1],,,,1,,,2/8,,,3/7,,
{16}4h[16:3],,,3,,,5h[16:3],,,6,,,4/5,,4/5,,
{16}8h[4:1],,,,7h[4:1],,,,6,,,5/7,,,4/8,,
{16}1h[4:1],,,,2h[4:1],,,,3,,,2/4,,,1/5,,
{16}8h[4:1],,,,7h[4:1],,,,6,,,5/7,,,4/8,,
{16}1/3,,,2/8,,,1/7,,,6/8,,,1/8,,1/8,,
{8}3/6,,1b/8b,,4,4,5,5,
{8}2,4,3,7,5,6,4/5,,
{8}6,6,3,3,5,5,4,4,
{8}7,5,6,2,1-4[8:1]/8-5[8:1],,,,
{8}6,6,3,3,7,7,2,2,
{8}6,5,7,3,4,2,1/8,,
{8}3,4,6,5,2,3,7,6,
{8}4/5,4/5,3/6,3/6,2/7,2/7,1/8,1/8,
{8}2b/7b,,,,6,5,,4/7,
{4},2/5,3/8,1/6,
{8}4,6,3,6,4,6,2,6,
{8}4,6,1,6,1-4[8:1]/8-5[8:1],,,,
{8}2b/7b,,,,3,4,,2/5,
{4},7/8,1/6,3/8,
{8}2,2,1,1,8,8,7,7,
{4}5/6,4/7,3/8,1b/2b,
{8}1/8,1,1/8,1,1/7,1,1/7,1,
{8}1/6,1,1/6,1,1/5,1,1/5,1,
{8}1/4,1,1/7,1,1/4,1,1/7,1,
{1}5h[4:3]/1pp6[2:1],
{8}1/8,8,1/8,8,2/8,8,2/8,8,
{8}3/8,8,3/8,8,4/8,8,4/8,8,
{8}5/8,8,3/8,8,6/8,8,2/8,8,
{1}4h[4:3]/8b<1[2:1],
{1}1w5[8:3],
{8}1,2,3,4,5,,1b/8b,,
{16}3h[4:1],,,,2h[4:1],,,,1,,,2/8,,,3/7,,
{1}6h[4:3]/4pp8[2:1],
{16}6h[4:1],,,,7h[4:1],,,,8,,,1/7,,,2/6,,
{1}3h[4:3]/5qq1[2:1],
{16}8h[4:1],,,,7h[4:1],,,,6,,,5/7,,,4/8,,
{1}3h[4:3]/1pp5[2:1],
{16}1h[4:1],,,,2h[4:1],,,,3,,,2/4,,,1/5,,
{4}6v4[4:1]/8v2[4:1],,,1b/8b,
{16}2/7h[4:1],,,,6h[4:1],,,,5h[8:3],,,1,,,1,,
{16}2/4,,,2/4,,,5/7,,,5/7,,,4/5,,4/5,,
{4}1b/8b,3/5,1b/8b,4/6,
{4}1h[16:3]/8h[16:3],2h[16:3]/7h[16:3],1-4[8:1]/8-5[8:1],,
{16}7/2h[4:1],,,,3h[4:1],,,,4h[8:3],,,8,,,8,,
{16}5/7,,,5/7,,,2/4,,,2/4,,,4/5,,4/5,,
{16}1/3,,,1/3,,,3/1q7[4:1],,,,,,,,,,
{16}6/8,,,6/8,,,6/8q1[8:3],,,,,,,,,,
{4},4/5,4/5,3/6,
{4}7/2-6[8:1],8-4[8:1],1-5[8:1],7,
{8}3,3,,2/8,,3/6,4/5,,
{2}7^4[8:1]/8p3[8:1],1q6[8:1]/2^5[8:1],
{8}1,2,3,4,5-2[8:1]/6-1[8:1],,,,
{4}2b/4b,5b/7b,1bV74[4:1]/8bV25[4:1],,,
E
&inote_5=(185.0){1},
{16}5,,,,,,,,5,,,1,8,,2/7,,
{16}3,,3,4,2,,,,2,,2,4,3,,2/4,,
{16}6,,6,5,7,,,,7,,7,5,6,,5/7,,
{16}3,,3,4,2,,,,2,,2,4,3,,2/4,,
{16}6,,,5/7,5/7,,,2/4,2/4,,8,,1,,8,,
{16}3,,3,4,2,,2,4,3,,3,4,2,,2/4,,
{16}6,,6,5,7,,7,5,6,,6,5,7,,5/7,,
{16}1h[16:1],,8h[16:1],,2,,2,4,3,,3,4,2,,2/4,,
{4}8b-5[8:1]*-6[8:1],8b-2[8:1]*-3[8:1],8b-4[8:1],8b,
{4}4-2[8:1]/5-2[8:1],4/5,4-7[8:1]/5-7[8:1],4/5,
{4}4-2[8:1]/5-2[8:1],4/5-1[8:1],5/4-8[8:1],4/5,
{4}4-7[8:1]/5-7[8:1],4/5,4-2[8:1]/5-2[8:1],4/5,
{16}4/5,,2/7,,3/6,,1/8,,7/2^7[8:1],,4,5,2,,,,
{4}4-7[8:1]/5-7[8:1],4/5,4-2[8:1]/5-2[8:1],4/5,
{4}4-7[8:1]/5-7[8:1],5/4-8[8:1],4/5-1[8:1],4/5,
{4}4-7[8:1]/5-7[8:1],4/5,4-2[8:1]/5-2[8:1],4/5,
{8}3^1[8:1]/8^6[8:1],,3/8,,3/7,1/2,1/8,7/8,
{8}6,6h[4:1],7,7h[4:1],2,2h[4:1],3,3h[8:1],
{8}4v2[8:1],2v8[8:1],,,5v7[8:1],7v1[8:1],,,
{8}6,6h[4:1],7,7h[4:1],2,2h[4:1],3,3h[8:1],
{8}1v3[8:1],3v5[8:1],,,8v6[8:1],6v4[8:1],,,
{8}2,2h[4:1],3,3h[4:1],6,6h[4:1],7,7h[8:1],
{8}5v7[8:1],7v1[8:1],,,4v2[8:1],2v8[8:1],,,
{8}5b-7[8:1]*-8[8:1],,5b-2[8:1]*-3[8:1],,5b,,
{12}1b/8b,
{995}1/8,,,,,,,,,,,,,,,,,,,,,,,,,,,,,,,,,,,,,,,,,,,,,,,,,,,,,,,,,,,,,,,,,,,,,,,,,,,,,,,,,,,
{12}1/8,
{4}2h[6:1]/7h[6:1],3h[6:1]/6h[6:1],4-1[8:1]/5-8[8:1],4b/5b,
{1}6-2[8:13],,
{1}7-3[8:13],,
{1}2-6[8:13],,
{1}3-7[8:13],
{4}2^4[8:1],2,2^8[8:1],2b,
{8}6-2[8:13],4,,3,,4,,3,
{16}1,,1,,1,,1,1,,,,,,,,,
{8}7-3[8:13],1,,8,,1,,8,
{8}2h[4:1],,,1,1,8,8,,
{8}2-6[8:13],8,,1,,8,,7,
{16}7,,7,,7,,7q4[8:1],7,,,,,,,,,
{8}3-7[8:13],5,,6,,5,,6,
{8}8h[4:1],,,1,1,2,2b,,
{16},,1b/2b,,,7/8,,,1/2,,,7/8,,,1/2,,
{16},7/8,,,1/2,,,7/8,,,1/2,,,7/8,,7b/8b,
{16},,5/6,,,7/8,,,5/6,,,7/8,,,5/6,,
{16},7/8,,,5/6,,,7/8,,,5/6,,,7/8,7b/8b,,
{16},3/4,,,5/6,,,3/4,,,5/6,,,3/4,,,
{16}1/2,,,3/4,,,1/2,,1b-6[8:1]/2b-5[8:1],,,,1/2,,,,
{16}3,6,3,6,2,7,2,7,1,8,1,8,1,7,5,3,
{1}1b,
{16}8h[4:1],,,,7h[4:1],,,,6h[16:3],,,7h[16:3],,,8,,
{16}1h[4:1],,,,2h[4:1],,,,3h[16:3],,,2h[16:3],,,1,,
{16}2b/7b,,,,8-5[8:1],1,8,1,8b,,,,1-4[8:1],8,1,8,
{16}1b,,,8h[16:3],,,7h[16:3],,,6h[16:3],,,4,,5,,
{16}1h[4:1],,,,2h[4:1],,,,3h[16:3],,,2h[16:3],,,1,,
{16}8h[4:1],,,,7h[4:1],,,,6h[16:3],,,7h[16:3],,,8,,
{16}2b/7b,,,,1-4[8:1],1,1,1,1b,,,,8-5[8:1],8,8,8,
{16}8b,,,1h[16:3],,,2h[16:3],,,3h[16:3],,,5^7[8:1],,4,,
{16},,,,1,8,1,8,1,8,2,7,3,6,4,5,
{16}3,4,3,4,3,,6,5,6,5,6,,1,8,1,8,
{16}2/7,,,,8,1,8,1,8,1,7,2,6,3,5,4,
{16}7,8,7,8,7,,2,1,2,1,2,,5,4,5,4,
{16}3/6,,,,7,8,7,8,7,8,6,1,5,2,4,3,
{16}6,5,6,5,6,,3,4,3,4,3,,8,1,8,1,
{16}2/7,,,,2,1,2,1,2,1,3,8,4,7,5,6,
{16}4,5,4,5,3,6,3,6,2,7,2,7,1,8,1,8,
{8}2b^7[8:1]/7b^4[8:1],,,,,1-4[8:1]/6-1[8:1],,1/6,
{16},,,,,7/8,,5/6,,3/4,,1/2,1/2,,,,
{16}2b/7b,,,,1,8,1,8,1,8,2,7,3,6,4,5,
{16}2,1,2,1,2,,7,8,7,8,7,,4,5,4,5,
{16}3b/6b,,,,,,,2/4,2/4,,,5/7,5/7,,1/8,,
{16},3/6,,,8,8,8,,1^4[8:1],1,1,,1/8,,,,
{16}2b/7b,,,,2,1,2,1,2,1,3,8,4,7,5,6,
{16}4,6,4,6,3,7,3,7,2,8,2,8,1b,1,1,1,
{16}1,1,1,1,1,1,1,1,1,1,1,1,1,1,1,1,
{16}1,1,1,1,1,1,1,1,1,1,1,1,1,1,1,1,
{16}1,1,1,1,1,1,1,1,1,1,1,1,1,1,1,1,
{16}1,1,1,1,1p5[8:1]*q5[8:1],1,1,1,1,,,,2/7,,,,
{16}1b,1,1,1,1,1,1,1,1,1,1,1,1,1,1,1,
{16}1b,1,1,1,1,1,1,1,1b,1,1,1,1,1,1,1,
{16}1b,1,1,1,1b,1,1,1,1b,1,1,1,1b,1,1,1,
{16}1b,1,1,1,1,1,1,1,1,1,1,1,1,1,1,1,
{12}1,
{995}8,,,,,,,,,,,,,,,,,,,,,,,,,,,,,,,,,,,,,,,,,,,,,,,,,,,,,,,,,,,,,,,,,,,,,,,,,,,,,,,,,,,
{12}1,7,
{995}5,,,,,,,,,,,,,,,,,,,,,,,,,,,,,,,,,,,,,,,,,,,,,,,,,,,,,,,,,,,,,,,,,,,,,,,,,,,,,,,,,,,
{12}6,2,
{995}4,,,,,,,,,,,,,,,,,,,,,,,,,,,,,,,,,,,,,,,,,,,,,,,,,,,,,,,,,,,,,,,,,,,,,,,,,,,,,,,,,,,
{12}3,5,
{995}4,,,,,,,,,,,,,,,,,,,,,,,,,,,,,,,,,,,,,,,,,,,,,,,,,,,,,,,,,,,,,,,,,,,,,,,,,,,,,,,,,,,
{24}5,,
{8}1b/8,2b/7,3b/6,4b/5,4-1[8:1]/5b-8[8:1],,,,
{2}2h[4:1]/7h[4:1],4h[16:3]/5h[16:3],
{16}3/6,,,,8,7,6,5q4[16:5]*p6[16:5],2,3,4,5,,,,,
{4},3/8,5h[16:3]/6h[16:3],,
{16}4/7,,,,1,2,3,4q3[16:5]*p5[16:5],7,6,5,4,,,,,
{4},1/6,3h[16:3]/4h[16:3],,
{16}2/5,,,,5,6,7,8p1[16:5]*q7[16:5],3,2,1,8,,,,,
{4},2/5,7h[16:3]/8h[16:3],,
{16}1/6,,,,4,3,2,1p2[16:5]*q8[16:5],6,7,8,1,,,,,
{16},,,,7h[4:1],,,,6h[16:3],,,7h[16:3],,,8,,
{16}1h[16:3],,,8h[16:3],,,7h[16:3],,,6h[16:3],,,4,,5,,
{8}1/2,3,4,5/6,7/8,6,5,3/4,
{4}1h[16:3]/2h[16:3],4h[16:3]/5h[16:3],7h[16:3]/8h[16:3],3b/6b,
{16}1h[4:1],,,,2h[4:1],,,,3h[16:3],,,2h[16:3],,,1,,
{16}8h[16:3],,,1h[16:3],,,2h[16:3],,,3h[16:3],,,5,,4,,
{16}7h[8:1]/8h[8:1],,,4h[8:1]/5h[8:1],,,1/2,,,,3/6,,2/4,2/4,,,
{16}1h[8:1]/2h[8:1],,,4h[8:1]/5h[8:1],,,7/8,,,,3/6,,5/7,5/7,,,
{16}4,,,,4,,,8,1,,3/6,,1b/8b,,,,
{4}4-2[8:1]/5-2[8:1],5/4-8[8:1],4-7[8:1]/5-7[8:1],4/5-1[8:1],
{4}4-2[8:1]/5-2[8:1],5/4-8[8:1],4-7[8:1]/5-7[8:1],4/5,
{16}1b-3[8:1]*-4[8:1],,,,1b-6[8:1]*-7[8:1],,,,1b,,,,4,3,2,1,
{8}7b/8b,5b/6b,3b/4b,1b/2b,3b^1[8:1]/8b^6[8:1],,,,
{12}2b/6b,
{995}2b/6b,,,,,,,,,,,,,,,,,,,,,,,,,,,,,,,,,,,,,,,,,,,,,,,,,,,,,,,,,,,,,,,,,,,,,,,,,,,,,,,,,,,
{12}2b/6b,3b>7[4:1]/7b<3[4:1],
{995}3b/7b,,,,,,,,,,,,,,,,,,,,,,,,,,,,,,,,,,,,,,,,,,,,,,,,,,,,,,,,,,,,,,,,,,,,,,,,,,,,,,,,,,,
{12}3b/7b,3b-7[10000:1667]/7b-3[10000:1667],,,,,,
E
