&title=GOODMEN
&artist=EBIMAYO
&wholebpm=175
&demo_seek=93.1
&demo_len=11.2
&lv_1=3
&lv_2=6
&lv_3=8
&lv_4=11+
&lv_5=13
&des_4=ぴちネコ
&des_5=はっぴー
&inote_1=(175.0){1},,,,,
{1}5,
{1}6,
{1}7,
{1}8,
{1}1,
{1}2,
{1}3,
{1}4,
{1}5,
{1}6,
{1}7,
{1}8,
{2}1,1,
{1}1,
{2}2,2,
{1}2,
{2}3,3,
{1}3,
{2}4,4,
{1}4,
{2}5,5,
{1}5,
{2}6,6,
{1}6,
{2}7,7,
{1}7,
{2}8,8,
{1}8,
{1}1b,
{1}8h[1:1],,
{1}7h[1:1],,
{1}6h[1:1],,
{1}4/5,
{1}4/5,
{1}4h[1:1],,
{1}3h[1:1],,
{1}2h[1:1],,
{1}1/8,
{1}1/8,
{1}2-6[4:3],,
{1}7-3[4:3],,
{1}2-6[4:3],,
{1}7-3[4:3],,
{2}2,2,
{1}2,
{2}1,1,
{1}1,
{2}8,8,
{1}8,
{2}7,7,
{1}7,
{1}8-4[4:3],,
{2}4,4,
{1}4,
{2}3,3,
{1}3,
{2}2,2,
{1}2,
{2}1,1,
{1}1,
{2}8,8,
{1}8,
{2}7,7,
{1}7,
{2}6,6,
{1}6,
{2}5,5,
{1}5,
{1}4-1[4:3],,
{1}8-5[4:3],,
{2}4,4,
{2}3,3,
{2}2,2,
{2}1,1b,
E
&inote_2=(175.0){1},
{4}1,1,1,,
{4}2,2,2,,
{4}3,3,3,,
{4}4,4,4,,
{4}5,5,5,,
{4}6,6,6,,
{4}7,7,7,,
{4}8,8,1b/8b,,
{4}8,8,8,,
{4}7,7,7,,
{4}6,6,6,,
{4}5,5,5,,
{4}4,4,4,,
{4}3,3,3,,
{4}2,2,2,,
{4}1,1,1b/8b,,
{4}7,7,7/8,,
{4}2,2,1/2,,
{4}3,3,3/4,,
{4}6,6,5/6,,
{4}3,3,3/4,,
{4}2,2,1/2,,
{4}7,7,7/8,,
{4}6,6,5/6,,
{4}4,4,3,3,
{4}2,2,1/8,,
{4}8,8,7,7,
{4}6,6,4/5,,
{4}5,5,6,6,
{4}7,7,1/8,,
{4}1,1,2,2,
{4}3,3,4/5,,
{1}3b/6b,
{1}1-4[4:3],,
{1}5-8[4:3],,
{1}2-7[4:3],,
{1}6-3[4:3],,
{1}1-5[4:3],,
{1}7-4[4:3],,
{1}2-5[4:3],,
{1}8-4[4:3],,
{4}1,1,1,,
{1}1h[2:1]/2h[2:1],
{4}3,3,3,,
{1}3h[2:1]/4h[2:1],
{4}5,5,5,,
{1}5h[2:1]/6h[2:1],
{4}7,7,7,,
{1}7h[2:1]/8h[2:1],
{4}8,8,7,7,
{1}5h[2:1]/6h[2:1],
{4}4,4,3,3,
{1}1h[2:1]/2h[2:1],
{4}1,1,2,2,
{4}3,3,4,4,
{4}5,5,6,6,
{4}7,7,8,8,
{1}1b,
{4}1,8,1b,,
{4}1,1,2/8,,
{4}1,1,2/8,,
{4}8,8,1/7,,
{4}8,8,1/7,,
{4}6,6,5/7,,
{4}6,6,5/7,,
{4}4,4,3/5,,
{4}4,4,3b/5b,,
{4}4,4,5,,
{4}5,5,6,,
{4}6,6,7,,
{4}7,7,8,,
{4}8,8,1,,
{4}1,1,2,,
{4}2,2,3,,
{4}3,3,4b,,
{4}5,5,6,6,
{4}7,7,8,8,
{4}1,1,2,2,
{4}3,3,4/5,,
{4}4,4,3,3,
{4}2,2,1,1,
{4}8,8,7,7,
{4}6,6,4/5,4b/5b,
E
&inote_3=(175.0){1},,,,,
{4}5,5,5,5,
{4}4,4,4,4,
{4}5,5,4,4,
{1}6q3[2:1],
{4}3,3/4,6,5/6,
{4}3,3/4,6,5/6,
{4}3,2/4,6,5/7,
{4}3,2/4,6,5/7,
{4}2,1/8,7,1/8,
{4}2,1/8,6,1/8,
{4}3,1/8,6,1/8,
{4}2/7,1-4[4:1]/8-5[4:1],,,
{4}3,4,2/5,,
{4}6,5,4/7,,
{4}3,4,2/5,,
{4}6,5,4/7,1/8,
{4}2,1,3/8,,
{4}7,8,1/6,,
{4}2,1,3/8,,
{4}7,8,1/6,4/5,
{4}3,2,1h[4:1],8,
{4}6,5,4h[4:1],5,
{4}6,7,8h[4:1],1,
{4}3,4,5h[4:1],4,
{4}6,5/6,3,3/4,
{4}6,5/7,3,2/4,
{4}5,6,7,8,
{4}1,2,3,4>5[4:3],{1},
{2}4-2[8:1],5-7[8:1],
{2}4-2[8:1],5-7[8:1],
{2}3-1[8:1],5-7[8:1],
{2}3-1[8:1],5-7[8:1],
{2}4-2[8:1],6-8[8:1],
{2}4-2[8:1],6-8[8:1],
{2}3-1[8:1],6-8[8:1],
{4}1,2,3,4,
{2}5-7[8:1],4-8[8:1],
{2}5-7[8:1],4-8[8:1],
{2}5-1[8:1],4-2[8:1],
{2}5-1[8:1],4-2[8:1],
{4}6,6<3[8:5],,,
{2},3h[2:1],
{2}4h[2:1],5h[2:1],
{4}6h[2:1],,5,3/4,
{4}2,1/2,7,7/8,
{4}6,5/6,3/4,5/6,
{4}7,7/8,2,1/2,
{4}3,3/4,5/6,3/4,
{4}2,1/2,7,7/8,
{4}2,1/2,7/8,1/2,
{4}7,7/8,2,1/2,
{4}7,7/8,1/2,7/8,
{4}6,5/7,3,2/4,
{4}6,5/6,7/8,1/2,
{4}3,2/4,6,5/7,
{4}3,3/4,1/2,7/8,
{4}6,6<3[8:5],,,
{2},3h[2:1],
{2}4h[2:1],5h[2:1],
{4}6h[2:1],,5,4/3>6[8:5],{1},
{4}4/5,3/6,2/7,1b/8b,
{4}2,1,2,3/8,
{4}7,8,7,1/6,
{4}5,4,5,3/6,
{4}1,8,1,2/7,
{4}3,2/4,6,5/7,
{4}2,1/3,7,6/8,
{4}1/2,3/8,7/8,1/6,
{4}2/7,1-4[4:1]/8-5[4:1],,,
{4}3,2/4,1/8,2/7,
{4}6,5/7,1/8,2/7,
{4}3,2/4,1/8,2/7,
{4}6,5/7,1/8,2/7,
{4}3,4/5,1/2,3/8,
{4}6,4/5,7/8,1/6,
{4}3,4/5,1/2,3/8,
{4}6,4/5,7/8,1/6,
{4}3,4/5,6,7/8,
{4}1,2/8,7,6/8,
{4}7,4/5,2,1/3,
{4}2,4/5,7,6/8,
{4}5,4,3-1[8:1],,
{4}8,7,6-8[8:1],,
{4}1,1/2,8,7/8,
{4}4/5,3/6,2/7,1b/8b,
E
&inote_4=(175.0){1},,,,,
{4}8,8,8,8,
{4}2,2,2,2,
{4}4,4,4,4,
{2}6-1[8:1],2-5[8:1],
{8}7,8,7,,1/6,,3/4,,
{8}2,1,2,,3/8,,5/6,,
{8}7,8,6,,1/5,,3/4,,
{8}2,1,3,,4/8,,5/6,,
{4}8/6h[4:1],4,1/3h[4:1],5,
{4}8/7h[4:1],5,1/2h[4:1],4,
{8}8,8,8,8,8,8,8,8,
{8}1/8,1/8,1/8,1/8,1b-4[8:1]/8b-5[8:1],,,,
{8}6,4,6,4,6^1[8:1],4,,,
{8}3,8,3,8,3^8[8:1],8,,,
{8}7,1,7,1,7^4[8:1],1,,,
{8}2,5,2,5,2^5[8:1],5,,,
{8}6,4,5,3,4^7[8:1],2,,,
{8}3,5,4,6,5^2[8:1],7,,,
{8}7,1,8,2,1^6[8:1],3,,,
{8}2,8,1s5[4:1],,,,7b,,
{16}6h[16:3],,,7h[16:3],,,8h[16:3],,,1h[16:3],,,2,,,,
{16}3h[16:3],,,2h[16:3],,,1h[16:3],,,8h[16:3],,,7,,,,
{16}6h[16:3],,,7h[16:3],,,8h[16:3],,,1h[16:3],,,2,,,,
{16}3h[16:3],,,2h[16:3],,,1h[16:3],,,8h[16:3],,,7,,,,
{8}4/6,,4/6,5,4/6,5,4/6,,
{8}3/5,,3/5,4,3/5,4,3/5,,
{8}8,1,7,2,6,3,5,4,
{8}5-1[8:1],,,,3,5,7,1,
{1}3b>5[16:7],
{8}6h[4:1],,8,8,8,8,8,8,
{4}8h[4:1],6qq8[16:7],,,
{8}3h[4:1],,1,1,1,1,1,1,
{4}1h[4:1],3pp1[16:7],,,
{8}6h[4:1],,8,8,8,8,8,8,
{4}8h[4:1],6qq8[16:7],,,
{8}3h[4:1],,1,1,1,1,1,1,
{4}1h[4:1],3pp1[16:7],,,
{2}5^8[16:3],4q1[16:3],
{8}5h[4:1],,3h[4:1],,1,1,2/8,,
{2}4^1[16:3],5p8[16:3],
{8}4h[4:1],,6h[4:1],,8,8,1/7,,
{2}5-7[8:1],4-8[8:1],
{2}5-1[8:1],4-2[8:1],
{2}5-8[8:1],4-1[8:1],
{8}5,,2/7,2/7,2h[4:1]/7h[4:1],,,,
{8}4/5,,7/8,7,7/8,7,7/8,7,
{8}7/8,,6h[4:1],,4,4,3/5,,
{8}4/5,,1/2,2,1/2,2,1/2,2,
{8}1/2,,3h[4:1],,5,5,4/6,,
{8}1/8,,5/6,5,5/6,5,5/6,5,
{8}5/6,,7h[4:1],,1,1,2/8,,
{8}1/8,,3/4,4,3/4,4,3/4,4,
{8}3/4,,2h[4:1],,8,8,1/7,,
{2}6^3[16:3],2q7[16:3],
{8}8h[4:1],,2h[4:1],,4,4,3/5,,
{2}3^6[16:3],7p2[16:3],
{8}1h[4:1],,7h[4:1],,5,5,4/6,,
{4}7/8,2/5,1/2,4/7,
{4}5/6,3/8,3/4,1/6,
{4}8-4[8:1],1-5[8:1],7-3[8:1],2-6[8:1],
{8}8h[4:1],,,,2/7,2/7,,4/5,
{1}4bqq1[2:1]/5bpp8[2:1],
{4}1/8,1-4[8:1]/8-5[8:1],,,
{16}2/7,,,,2/7,,,,7h[16:3],,,8h[16:3],,,1,,
{16},,1/3,,1/3,,,,2h[16:3],,,1h[16:3],,,8,,
{16},,6/8,,6/8,,,,7h[16:3],,,8h[16:3],,,1,,
{16},,1/3,,1/3,,,,2h[16:3],,,1h[16:3],,,8,,
{4}8,3/4,1/3,5/6,
{4}7/8,3/4,1/2,5/6,
{8}1,1,1,1,1,1,1,1,
{8}1/8,1/8,1/8,1/8,1b-4[8:1]/8b-5[8:1],,,,
{8}7,2,7,3,7^4[8:1],4,,,
{8}2,5,2,6,2^5[8:1],7,,,
{8}6,3,6,2,6^1[8:1],1,,,
{8}3,8,3,7,3^8[8:1],6,,,
{8}6,1,5,2,4^7[8:1],3,,,
{8}3,8,4,7,5^2[8:1],6,,,
{8}7,4,8,3,1^6[8:1],2,,,
{8}2,5,1s5[4:1],,,,7b,,
{16}8h[16:3],,,1h[16:3],,,2h[16:3],,,3h[16:3],,,5,,5,,
{16}1h[16:3],,,8h[16:3],,,7h[16:3],,,6h[16:3],,,4,,4,,
{16}8h[16:3],,,1h[16:3],,,2h[16:3],,,3h[16:3],,,5,,5,,
{16}1h[16:3],,,8h[16:3],,,7h[16:3],,,6h[16:3],,,4,,,,
{8}1/7,,1/7,8,1/7,8,1/7,,
{8}2/8,,2/8,1,2/8,1,2/8,,
{8}8,1,7,2,6,3,5,4,
{4}5-1[8:1],4-8[8:1],6b<3[4:1],,,
E
&inote_5=(175.0){1},
{2}4^1[4:1],8^5[4:1],
{2}4^1[4:1],8^5[4:1],
{2}3^8[4:1],7^4[4:1],
{2}3^8[4:1],7^4[4:1],
{4}3^8[8:1],5,7^4[8:1],1,
{4}3^8[8:1],5,7^4[8:1],1,
{4}3>7[4:1],7<3[4:1],3>7[4:1],7<3[4:1],
{4}3>7[4:1],7<3[4:1],3,7b,
{16}5^8[8:1],,5,,2,,2,,3h[16:3],,,4,3,,2/5,,
{16}4^1[8:1],,4,,7,,7,,6h[16:3],,,5,6,,4/7,,
{16}5^8[8:1],,5,,2,,2,,3h[16:3],,,4,3,,2/5,,
{16}4^1[8:1],,4,,7,,7,,6h[16:3],,,5,6,,4/7,,
{8}5^8[8:1],5,3,3,4^1[8:1],4,6,6,
{8}5^8[8:1],5,3,3,4^1[8:1],4,6,6,
{8}1-5[8:1],8-4[8:1],1,8,2-6[8:1],1-5[8:1],2,1,
{8}8-4[8:1],7-3[8:1],8,7,1-3[8:1]*-5[8:1],,1b,,
{16}6,5,6,,3,4,3,,6q2[8:1],5,6,,,,,,
{16}3,4,3,,6,5,6,,3p7[8:1],4,3,,,,,,
{16}6,5,6,,3,4,3,,6^1[8:1],5,6,,,,,,
{16}3,4,2,,6,5,7,,4/5,,,,1b/8b,,,,
{16}3,4,3,,6,5,6,,3p7[8:1],4,3,,,,,,
{16}6,5,6,,3,4,3,,6q2[8:1],5,6,,,,,,
{16}3,4,3,,6,5,6,,3p7[8:1],4,3,,,,,,
{16}6,5,7,4,7-4[8:1],,,,3-8[8:1],,,,6b,,,,
{16}2h[8:1]/6h[8:1],,,3h[8:1]/7h[8:1],,,2h[8:1]/6h[8:1],,,1h[8:1]/5h[8:1],,,
{983}1,,,,,,,,,,,,,,,,,,,,,,,,,,,,,,,,,,,,,,,,,
{625}2,,,,,,,,,,,,,,,,,,,,,,,,,,
{983}3,,,,,,,,,,,,,,,,,,,,,,,,,,,,,,,,,,,,,,,,,
{16}4,,
{16}3h[8:1]/7h[8:1],,,2h[8:1]/6h[8:1],,,3h[8:1]/7h[8:1],,,4h[8:1]/8h[8:1],,,
{983}8,,,,,,,,,,,,,,,,,,,,,,,,,,,,,,,,,,,,,,,,,
{625}7,,,,,,,,,,,,,,,,,,,,,,,,,,
{983}6,,,,,,,,,,,,,,,,,,,,,,,,,,,,,,,,,,,,,,,,,
{16}5,,
{16}2h[8:1]/6h[8:1],,,3h[8:1]/7h[8:1],,,2h[8:1]/6h[8:1],,,1h[8:1]/5h[8:1],,,
{983}1,,,,,,,,,,,,,,,,,,,,,,,,,,,,,,,,,,,,,,,,,
{625}2,,,,,,,,,,,,,,,,,,,,,,,,,,
{983}3,,,,,,,,,,,,,,,,,,,,,,,,,,,,,,,,,,,,,,,,,
{16}4,,
{16}3h[8:1]/7h[8:1],,,2h[8:1]/6h[8:1],,,3h[8:1]/7h[8:1],,,4h[8:1]/8h[8:1],,,
{983}8,,,,,,,,,,,,,,,,,,,,,,,,,,,,,,,,,,,,,,,,,
{625}7,,,,,,,,,,,,,,,,,,,,,,,,,,
{983}6,,,,,,,,,,,,,,,,,,,,,,,,,,,,,,,,,,,,,,,,,
{8}5,
{16}2/4,,3,,5/7,,6,,2/4,,3,,4,5,4,,
{16}5/7,,6,,2/4,,3,,5/7,,6,,5,4,5,,
{16}1/3,,2,,6/8,,7,,1/3,,2,,4,5,4,,
{16}7,8,7,8,6,1,6,1,5,2,5,2,
{4}3b>5[4:3]/4bp5[4:3],{1},
{8}5/4-2[8:1],,8,8,8/4-2[8:1],8,8,8,
{4}8/4-2[8:1],5pp1[8:3],4-2[8:1],,
{8}4/5-7[8:1],,1,1,1/5-7[8:1],1,1,1,
{4}1/5-7[8:1],4qq8[8:3],5-7[8:1],,
{8}5/4-2[8:1],,8,8,8/4-2[8:1],8,8,8,
{4}8/4-2[8:1],5pp1[8:3],4-2[8:1],,
{8}4/5-7[8:1],,1,1,1/5-7[8:1],1,1,1,
{4}1/5-7[8:1],3-1[8:1],4-8[8:1],,
{8}3/4-6[8:1],,8,8,8/4-6[8:1],8,8,8,
{4}8/4-6[8:1],3qq7[8:3],4-6[8:1],,
{8}6/5-3[8:1],,1,1,1/5-3[8:1],1,1,1,
{4}1/5-3[8:1],6pp2[8:3],5-3[8:1],,
{8}3/4-6[8:1],,8,8,8h[4:3]/4-6[8:1],,,,
{2}4-6[8:1],1h[4:1]/4-6[8:1],
{2}8h[4:1]/5-3[8:1],7h[4:1]/5-3[8:1],
{8}6/5-3[8:1],,6,6,5/8,7,4b/6b,,
{8}2/5,3,4/7,6,2/5,3,4/7,6,
{8}2/5-1[8:1],5,4qq8[8:3],4,5-7[8:1],5,,,
{8}4/7,6,2/5,3,4/7,6,2/5,3,
{8}7/4-8[8:1],4,5pp1[8:3],5,4-2[8:1],4,,,
{8}2/5,3,4/7,6,2/5,3,4/7,6,
{8}2/5-1[8:1],5,4qq8[8:3],4,5-7[8:1],5,,,
{8}4/7,6,2/5,3,4/7,6,2/5,3,
{8}7/4-8[8:1],4,5pp1[8:3],5,4-2[8:1],4,,,
{8}3/8,7,1/6,2,3/8,7,1/6,2,
{8}8/3-7[8:1],3,6qq2[8:3],6,1-7[8:1],1,,,
{8}1/6,2,3/8,7,1/6,2,3/8,7,
{8}1/6-2[8:1],6,3pp7[8:3],3,8-2[8:1],8,,,
{8}8,8,8,8V25[4:3],8h[1:1],,,,
{4},,7,5/2qq2[4:1],
{2}2^5[8:1],7^4[8:1]/8^3[8:1],
{2}1^6[8:1]/2^5[8:1],1^4[8:1]/8-5[8:1],
{8}1h[1:1],,2,2,2,2,2q7[8:1],2,
{4}2,1-4[8:1]/8-5[8:1],1/8,2b/7b,
{16}4^1[8:1],,4,,7,,7,,8h[16:3],,,7,8,,1/6,,
{16}5^8[8:1],,5,,2,,2,,1h[16:3],,,2,1,,3/8,,
{16}4^1[8:1],,4,,7,,7,,8h[16:3],,,7,8,,1/6,,
{16}5^8[8:1],,5,,2,,2,,1h[16:3],,,2,1,,3/8,,
{8}4^1[8:1],4,6,6,5^8[8:1],5,3,3,
{8}4^1[8:1],4,6,6,5^8[8:1],5,3,3,
{8}8-4[8:1],1-5[8:1],8,1,7-3[8:1],8-4[8:1],7,8,
{8}1-5[8:1],2-6[8:1],1,2,8-4[8:1]*-6[8:1],,8b,,
{16}7,7,8,,7,7,1,,7p3[8:1],7,2,,,,,,
{16}2,2,1,,2,2,8,,2q6[8:1],2,7,,,,,,
{16}7,7,8,,7,7,1,,7^4[8:1],7,2,,,,,,
{16}2,4,3,,7,5,6,,4/5,,,,1b/8b,,,,
{16}2,2,1,,2,2,4,,2q6[8:1],2,6,,,,,,
{16}7,7,8,,7,7,5,,7p3[8:1],7,3,,,,,,
{16}2,2,1,,2,2,4,,2^7[8:1],2,6,,,,,,
{16}6,5,7,4,7-4[8:1],,,,3-8[8:1],,,,6b,,,,
{16}3h[8:1]/7h[8:1],,,1h[8:1]/5h[8:1],,,3h[8:1]/7h[8:1],,,1h[8:1]/5h[8:1],,,
{983}1,,,,,,,,,,,,,,,,,,,,,,,,,,,,,,,,,,,,,,,,,
{625}2,,,,,,,,,,,,,,,,,,,,,,,,,,
{983}3,,,,,,,,,,,,,,,,,,,,,,,,,,,,,,,,,,,,,,,,,
{16}4,,
{16}2h[8:1]/6h[8:1],,,4h[8:1]/8h[8:1],,,2h[8:1]/6h[8:1],,,4h[8:1]/8h[8:1],,,
{983}8,,,,,,,,,,,,,,,,,,,,,,,,,,,,,,,,,,,,,,,,,
{625}7,,,,,,,,,,,,,,,,,,,,,,,,,,
{983}6,,,,,,,,,,,,,,,,,,,,,,,,,,,,,,,,,,,,,,,,,
{16}5,,
{16}3h[8:1]/7h[8:1],,,1h[8:1]/5h[8:1],,,3h[8:1]/7h[8:1],,,1h[8:1]/5h[8:1],,,
{983}1,,,,,,,,,,,,,,,,,,,,,,,,,,,,,,,,,,,,,,,,,
{625}2,,,,,,,,,,,,,,,,,,,,,,,,,,
{983}3,,,,,,,,,,,,,,,,,,,,,,,,,,,,,,,,,,,,,,,,,
{16}4,,
{16}2h[8:1]/6h[8:1],,,4h[8:1]/8h[8:1],,,2h[8:1]/6h[8:1],,,4h[8:1]/8h[8:1],,,
{983}8,,,,,,,,,,,,,,,,,,,,,,,,,,,,,,,,,,,,,,,,,
{625}7,,,,,,,,,,,,,,,,,,,,,,,,,,
{983}6,,,,,,,,,,,,,,,,,,,,,,,,,,,,,,,,,,,,,,,,,
{8}5,
{8}1/3,2,3/5,4,5/7,6,
{983}1,,,,,,,,,,,,,,,,,,,,,,,,,,,,,,,,,,,,,,,,,
{625}2,,,,,,,,,,,,,,,,,,,,,,,,,,
{983}3,,,,,,,,,,,,,,,,,,,,,,,,,,,,,,,,,,,,,,,,,
{8}4,
{8}6/8,7,4/6,5,2/4,3,
{983}8,,,,,,,,,,,,,,,,,,,,,,,,,,,,,,,,,,,,,,,,,
{625}7,,,,,,,,,,,,,,,,,,,,,,,,,,
{983}6,,,,,,,,,,,,,,,,,,,,,,,,,,,,,,,,,,,,,,,,,
{8}5,
{8}1/3,2,6/8,7,1/3,2,
{983}8,,,,,,,,,,,,,,,,,,,,,,,,,,,,,,,,,,,,,,,,,
{625}7,,,,,,,,,,,,,,,,,,,,,,,,,,
{983}6,,,,,,,,,,,,,,,,,,,,,,,,,,,,,,,,,,,,,,,,,
{16}5,,
{16}2,1,2,1,3,8,3,8,4,7,4-1[8:1],7,4,,,,,
E
